#VERSION:0.83;
#TITLE:Dreaming Sweetness;
#SUBTITLE:;
#ARTIST:Auridy;
#TITLETRANSLIT:;
#SUBTITLETRANSLIT:;
#ARTISTTRANSLIT:;
#GENRE:;
#ORIGIN:;
#CREDIT:;
#BANNER:Dreaming Sweetness.png;
#BACKGROUND:Dreaming Sweetness-bg.png;
#PREVIEWVID:;
#JACKET:;
#CDIMAGE:;
#DISCIMAGE:;
#LYRICSPATH:;
#CDTITLE:;
#MUSIC:Dreaming Sweetness.ogg;
#OFFSET:-0.813852;
#SAMPLESTART:45.345116;
#SAMPLELENGTH:13.714287;
#SELECTABLE:YES;
#BPMS:0.000=140.000;
#STOPS:;
#DELAYS:;
#WARPS:;
#TIMESIGNATURES:0.000=4=4;
#TICKCOUNTS:0.000=4;
#COMBOS:0.000=1;
#SPEEDS:0.000=1.000=0.000=0;
#SCROLLS:0.000=1.000;
#FAKES:;
#LABELS:0.000=Song Start;
#BGCHANGES:0.000=Dreaming Sweetness.avi=1.000=0=0=0=StretchNoLoop====,
99999=-nosongbg-=1.000=0=0=0 // don't automatically add -songbackground-
;
#KEYSOUNDS:;
#ATTACKS:
;

//---------------dance-single - ----------------
#NOTEDATA:;
#CHARTNAME:;
#STEPSTYPE:dance-single;
#DESCRIPTION:;
#CHARTSTYLE:;
#DIFFICULTY:Hard;
#METER:11;
#RADARVALUES:0.428452,0.529929,0.088447,0.136691,0.132671,373.000000,362.000000,11.000000,17.000000,0.000000,0.000000,0.000000,0.000000,0.000000,0.428452,0.529929,0.088447,0.136691,0.132671,373.000000,362.000000,11.000000,17.000000,0.000000,0.000000,0.000000,0.000000,0.000000;
#CREDIT:;
#NOTES:
0000
0000
0000
0000
,
0000
0000
0000
0000
,
0000
0000
0000
0000
,
0000
0000
0000
0000
,
0000
0000
0000
0000
,
1000
0000
0100
0000
1000
0000
0010
0000
0001
0000
0000
0100
0000
0000
0010
0000
,
0100
0000
0010
0000
0001
0000
1000
0000
0100
0000
0000
1000
0000
0000
0100
0000
,
0100
0000
0010
0000
1000
0000
0010
0000
0100
0000
0000
0001
0000
0000
0010
0000
,
0100
0000
1000
0000
0100
0000
0001
0000
0010
0000
0000
0100
0000
0000
0000
0000
,
2002
3000
0100
0103
,
0010
0100
1000
0010
,
0200
0000
0000
0001
0300
0000
1001
0000
,
0100
1000
0100
0010
0001
0010
0001
0000
,
0100
0000
0100
1000
0000
1000
0010
0000
,
1000
0001
0100
0010
0001
0010
1000
0000
,
0010
0000
0010
0001
0000
0001
0100
0000
,
0020
0000
0000
0000
1000
0000
1000
0030
,
2000
0000
0000
0010
3000
0000
0110
0000
,
0001
0000
0001
0010
1000
0010
0001
0000
,
0100
0010
0001
0010
0100
0000
1000
0000
,
0100
0000
0100
0010
1000
0000
1000
0001
,
0010
0100
0010
0001
1000
0000
0100
0000
,
0010
1000
0010
1000
0100
0000
0010
0000
,
0001
0010
0100
1001
,
1000
1000
0100
0000
0010
0010
0100
0000
,
0010
1000
0001
0110
,
0100
0000
0010
0000
0100
0000
0000
0000
0001
0000
0000
0010
0000
0000
0001
0000
,
1000
0000
0100
0000
1000
0000
0000
0000
1000
0000
0000
0010
0000
0000
0100
0000
,
0001
0000
0010
0000
0001
0000
0000
0000
0010
0000
0000
1000
0000
0000
0100
0000
,
1000
0000
0000
0010
0000
0000
0100
0000
0100
0000
0000
0001
0000
0000
0010
0000
,
0001
0000
1000
0000
0001
0000
0010
0000
0100
0000
0000
0010
0000
0000
0100
0000
,
0010
0000
0001
0000
0010
0000
0001
0000
1000
0000
0000
0100
0000
0000
1000
0000
,
0100
0000
1000
0000
0100
0000
0001
0000
0100
0000
0000
0010
0000
0000
0001
0000
,
0010
0000
0000
1000
0000
0000
0010
0000
0200
0000
0000
0000
0300
0000
0000
0000
,
1000
0100
1000
0010
0001
0010
0001
0000
,
0100
0001
0100
0001
0010
1000
0100
0000
,
0001
0010
1000
0100
0001
0010
1000
0100
,
0010
0000
0000
0100
0000
0000
0001
0000
0010
0000
0000
1000
0000
0000
0100
0000
,
0010
0000
0010
0000
0001
0000
0001
1000
0000
1000
0000
0100
0010
0000
0100
0000
,
1000
0000
0100
0000
1000
0000
1000
0010
0000
0010
0000
1000
0001
0000
0010
0000
,
0100
0000
0010
0000
0100
0000
0001
0100
0000
0001
0000
0100
1000
0000
0010
0000
,
0001
0000
0000
0010
0000
0000
0001
0000
2000
0000
0000
0000
3000
0000
0000
0000
,
0220
0000
0000
0300
,
1000
0100
1000
0100
,
2000
3000
0002
0003
,
0100
0100
0001
1030
,
0001
1000
0001
1000
0001
0010
0100
2000
,
0001
0000
0010
3010
,
0100
0100
0010
0100
0010
0100
1000
0002
,
0010
0000
0100
0103
,
1001
0000
0000
0000
,
0022
0030
1000
1003
,
0010
0100
0001
0001
0010
0001
0100
1000
,
0100
0000
0100
0010
0000
0001
0001
0000
,
0100
0100
1000
0100
0001
0000
0010
0001
,
1000
0000
0100
0010
0000
0000
0101
0000
,
1000
0010
1000
0000
0100
0100
0010
0001
,
1000
0000
0010
0010
0000
1000
0100
0000
,
0010
0001
0010
0001
1000
0000
0100
0010
,
0100
0000
0100
0001
0000
0000
1010
0000
,
0010
0000
1000
0000
0010
0000
1000
0000
0100
0000
0000
0010
0000
0000
0100
0000
,
1000
0000
0100
0000
1000
0000
0001
0000
1000
0000
0000
0001
0000
0000
1000
0000
,
0010
0000
0001
0000
0010
0000
0100
0000
0010
0000
0000
1000
0000
0000
0010
0000
,
0001
0000
0001
0000
1000
0000
0100
0000
1000
0000
0000
0100
0000
0000
0001
0000
,
0010
0001
0010
0100
0010
1000
0100
0000
,
0100
1000
0100
0010
0001
1000
0100
0000
,
0010
1000
0010
0000
0100
0010
0100
0000
,
0010
0000
1000
0000
0010
1000
0000
0010
0100
0000
0001
0010
0000
0001
0100
0000
,
2200
0000
0000
0000
,
0000
0000
0000
3300
0000
0000
0000
0000
;

//---------------dance-single - ----------------
#NOTEDATA:;
#CHARTNAME:;
#STEPSTYPE:dance-single;
#DESCRIPTION:;
#CHARTSTYLE:;
#DIFFICULTY:Medium;
#METER:8;
#RADARVALUES:0.380208,0.446256,0.136691,0.233179,0.040203,331.000000,314.000000,17.000000,29.000000,0.000000,0.000000,0.000000,0.000000,0.000000,0.380208,0.446256,0.136691,0.233179,0.040203,331.000000,314.000000,17.000000,29.000000,0.000000,0.000000,0.000000,0.000000,0.000000;
#CREDIT:;
#NOTES:
0000
0000
0000
0000
,
0000
0000
0000
0000
,
0000
0000
0000
0000
,
0000
0000
0000
0000
,
0000
0000
0000
0000
,
0001
0000
1000
0000
0001
0000
0000
0000
0010
0000
0000
0001
0000
0000
0100
0000
,
1000
0000
0010
0000
1000
0000
0000
0000
0001
0000
0000
0100
0000
0000
0010
0000
,
1000
0000
0010
0000
0001
0000
0000
0000
0100
0000
0000
1000
0000
0000
0001
0000
,
1000
0000
1000
0000
0001
0000
0000
0000
0100
0000
0000
1000
0000
0000
0000
0000
,
0220
0000
0300
0030
,
2000
3020
0230
0320
,
0002
0000
0030
0003
,
0100
1000
0010
0000
1000
0000
0010
0001
,
0010
0000
0100
1000
0000
1000
0001
0000
,
0010
1000
0010
0000
0100
0000
0001
0010
,
0001
0000
0001
0100
0000
0100
0010
0000
,
0100
0010
0001
0000
1000
0100
1000
0000
,
0010
0000
0010
0100
0000
0100
0001
0000
,
1000
0000
1001
0000
0010
0001
0100
0000
,
0010
0000
0110
0000
1000
0100
0010
0000
,
1000
0100
0001
0000
0001
0010
0100
0000
,
0001
1000
0010
0000
1000
0000
1010
0000
,
0100
0010
0000
0010
1000
0001
1000
0000
,
1000
0100
0010
0000
0100
0000
0101
0000
,
0010
0010
1000
0000
1000
1000
0001
0000
,
1000
0100
1000
0001
1000
0000
0110
0000
,
1000
0000
0000
0000
0001
0000
0000
0000
1000
0000
0000
0001
0000
0000
1000
0000
,
0010
0000
0000
0000
1000
0000
0000
0000
0010
0000
0000
1000
0000
0000
0010
0000
,
0100
0000
0000
0000
0001
0000
0000
0000
0100
0000
0000
0001
0000
0000
0100
0000
,
0010
0100
0001
0000
1000
0000
0101
0000
,
1000
0000
0010
0000
1000
0000
0000
0000
0010
0000
0000
1000
0000
0000
0010
0000
,
0001
0000
1000
0000
0001
0000
0000
0000
1000
0000
0000
0001
0000
0000
1000
0000
,
0100
0000
1000
0000
0100
0000
0000
0000
1000
0000
0000
0100
0000
0000
1000
0000
,
0010
0100
0001
0000
0010
0000
1010
0000
,
1000
0000
1000
0000
0100
0010
1000
0000
,
0010
0000
0010
0000
0100
1000
0010
0000
,
0001
0000
0001
0000
1000
0010
0100
1000
,
0010
0001
0100
0010
,
1000
0100
1000
0010
1000
0000
0011
0000
,
0010
0100
0010
0100
0010
0000
1100
0000
,
0100
1000
0001
0100
0010
0000
0011
0000
,
1000
0001
0010
0100
0010
0000
1000
0000
,
2002
0000
0000
3003
,
0010
1000
0010
1000
,
0220
0000
0000
0330
,
1000
0001
1000
0001
,
2200
0000
0000
3300
,
1000
0010
1000
0100
,
0202
0000
0000
0303
,
0010
1000
0001
0100
,
0002
0203
2300
3020
,
2000
0030
0001
3001
,
1000
0010
0100
0000
0010
0000
0001
1000
,
0100
0010
0100
0000
0001
0000
1000
0010
,
1000
0100
0010
0000
0100
0000
0100
0010
,
1000
0010
1000
0000
0001
0000
1000
0001
,
0100
0001
0010
0000
1000
0001
1000
0001
,
0100
0010
0001
0000
1000
0100
0010
0100
,
1000
0010
0001
0000
0010
0001
0100
1000
,
0100
0010
1000
0000
0101
0000
1100
0000
,
2000
0000
3010
0000
0010
1000
0100
0000
,
0200
0000
0310
0000
1000
0010
1000
0000
,
0020
0000
0031
0000
0001
0010
0100
0000
,
2000
0000
3010
0000
0100
0001
0100
0000
,
0100
1000
0100
0000
1000
0010
1000
0000
,
0010
0100
0010
0000
1000
0001
1000
0000
,
1000
0010
0100
0010
1000
0100
0010
0000
,
0200
0320
0230
0302
,
2000
0000
0000
0000
,
0000
0000
0000
3003
0000
0000
0000
0000
;

//---------------dance-single - ----------------
#NOTEDATA:;
#CHARTNAME:;
#STEPSTYPE:dance-single;
#DESCRIPTION:;
#CHARTSTYLE:;
#DIFFICULTY:Easy;
#METER:3;
#RADARVALUES:0.192976,0.218706,0.032163,0.353789,0.000000,168.000000,164.000000,4.000000,44.000000,0.000000,0.000000,0.000000,0.000000,0.000000,0.192976,0.218706,0.032163,0.353789,0.000000,168.000000,164.000000,4.000000,44.000000,0.000000,0.000000,0.000000,0.000000,0.000000;
#CREDIT:;
#NOTES:
0000
0000
0000
0000
,
0000
0000
0000
0000
,
0000
0000
0000
0000
,
0000
0000
0000
0000
,
0000
0000
0000
0000
,
0100
0000
0100
0100
,
0001
0000
0001
0001
,
0010
0000
0010
0010
,
1000
0000
1000
1000
,
0200
0000
0000
0300
,
0010
0100
0010
0100
,
0020
0000
0000
0030
,
1000
0000
1000
0010
,
0100
0000
0100
0001
,
1000
0000
1000
0001
,
0010
0000
0010
0000
,
1001
0000
0100
0010
,
0100
0000
0110
0000
,
1000
0010
1000
0000
,
0001
0100
0001
0000
,
0010
0100
0010
0000
,
0100
0001
0100
0000
,
1000
0100
0001
0000
,
0001
0010
1000
0000
,
1000
0010
0001
0000
,
0001
0100
1000
0000
,
2000
3000
0010
0100
,
0020
0030
0100
1000
,
0200
0300
1000
0100
,
2000
3000
0020
0030
,
0002
0003
0010
1000
,
0200
0300
0010
0100
,
0002
0003
1000
0001
,
0020
0030
0200
0300
,
1000
0100
2000
3000
,
0010
0100
0020
0030
,
0001
0100
0002
0003
,
0020
0030
0002
0003
,
1000
0001
0200
0300
,
0010
0100
2000
3000
,
0100
1000
0002
0003
,
0200
0300
0020
0030
,
0200
0000
0000
0000
,
0000
0000
0000
0300
,
0020
0000
0000
0000
,
0000
0000
0000
0030
,
0002
0003
2000
3000
,
0002
0000
0000
0003
,
2000
3000
0200
0300
,
2000
0000
0000
3000
,
2002
0000
0000
0000
,
0000
0000
0000
3003
,
0010
0100
0010
0100
,
0001
1000
0002
0003
,
0100
1000
0100
0010
,
0100
0001
2000
3000
,
0010
0010
0100
1000
,
0100
0010
0200
0300
,
1000
0010
0100
0001
,
1000
0010
0020
0030
,
1000
0100
2000
3000
,
0010
1000
0020
0030
,
0100
0010
0200
0300
,
0001
1000
0002
0003
,
0001
0010
0200
0300
,
0100
0001
2000
3000
,
0010
0100
0002
0003
,
1000
0100
0020
0030
,
1001
0000
0000
0000
;

//---------------dance-single - ----------------
#NOTEDATA:;
#CHARTNAME:;
#STEPSTYPE:dance-single;
#DESCRIPTION:;
#CHARTSTYLE:;
#DIFFICULTY:Beginner;
#METER:1;
#RADARVALUES:0.106826,0.164029,0.024122,0.088447,0.000000,93.000000,90.000000,3.000000,11.000000,0.000000,0.000000,0.000000,0.000000,0.000000,0.106826,0.164029,0.024122,0.088447,0.000000,93.000000,90.000000,3.000000,11.000000,0.000000,0.000000,0.000000,0.000000,0.000000;
#CREDIT:;
#NOTES:
// measure 0
0000
0000
0000
0000
,  // measure 1
0010
0000
0000
0000
,  // measure 2
0010
0000
0000
0000
,  // measure 3
0010
0000
0000
0000
,  // measure 4
0010
0000
0000
0000
,  // measure 5
0100
0000
0000
0000
,  // measure 6
0100
0000
0000
0000
,  // measure 7
0100
0000
0000
0000
,  // measure 8
0100
0000
0000
0000
,  // measure 9
1001
0000
0000
0000
,  // measure 10
2000
0000
0000
0000
,  // measure 11
3000
0000
0000
0000
,  // measure 12
0001
0000
0001
0000
,  // measure 13
0001
0000
0001
0000
,  // measure 14
1000
0000
1000
0000
,  // measure 15
1000
0000
1000
0000
,  // measure 16
0010
0000
0010
0000
,  // measure 17
0010
0000
0010
0000
,  // measure 18
0100
0000
0100
0000
,  // measure 19
0010
0000
0010
0000
,  // measure 20
0100
0000
0100
0000
,  // measure 21
0010
0000
0010
0000
,  // measure 22
1000
0000
1000
0000
,  // measure 23
0001
0000
0001
0000
,  // measure 24
1000
0000
1000
0000
,  // measure 25
0001
0000
0001
0000
,  // measure 26
0100
0000
0000
0000
,  // measure 27
0100
0000
0000
0000
,  // measure 28
0010
0000
0000
0000
,  // measure 29
0010
0000
0000
0000
,  // measure 30
0001
0000
0000
0000
,  // measure 31
0001
0000
0000
0000
,  // measure 32
1000
0000
0000
0000
,  // measure 33
1000
0000
0000
0000
,  // measure 34
0020
0000
0030
0000
,  // measure 35
0020
0000
0030
0000
,  // measure 36
0200
0000
0300
0000
,  // measure 37
0200
0000
0300
0000
,  // measure 38
2000
0000
3000
0000
,  // measure 39
2000
0000
3000
0000
,  // measure 40
0002
0000
0003
0000
,  // measure 41
0002
0000
0003
0000
,  // measure 42
1001
0000
0000
0000
,  // measure 43
0000
0000
0000
0000
,  // measure 44
0000
0000
0000
0000
,  // measure 45
0000
0000
0000
0000
,  // measure 46
0200
0000
0000
0000
,  // measure 47
0300
0000
0000
0000
,  // measure 48
0200
0000
0000
0000
,  // measure 49
0300
0000
0000
0000
,  // measure 50
0000
0000
0000
0000
,  // measure 51
0000
0000
0000
0000
,  // measure 52
0010
0000
0010
0000
,  // measure 53
0010
0000
0010
0000
,  // measure 54
1000
0000
1000
0000
,  // measure 55
1000
0000
1000
0000
,  // measure 56
0001
0000
0001
0000
,  // measure 57
0001
0000
0001
0000
,  // measure 58
0100
0000
0100
0000
,  // measure 59
0100
0000
0100
0000
,  // measure 60
1000
0000
1000
0000
,  // measure 61
0001
0000
0001
0000
,  // measure 62
1000
0000
1000
0000
,  // measure 63
0001
0000
0001
0000
,  // measure 64
0010
0000
0010
0000
,  // measure 65
0100
0000
0100
0000
,  // measure 66
0010
0000
0010
0000
,  // measure 67
0100
0000
0100
0000
,  // measure 68
1001
0000
0000
0000
;
