#TITLE:Dendrobium;
#SUBTITLE:;
#ARTIST:TAG;
#TITLETRANSLIT:;
#SUBTITLETRANSLIT:;
#ARTISTTRANSLIT:;
#GENRE:;
#CREDIT:;
#BANNER:Dendrobium.png;
#BACKGROUND:Dendrobium-bg.png;
#LYRICSPATH:;
#CDTITLE:;
#MUSIC:Dendrobium.ogg;
#OFFSET:-0.390824;
#SAMPLESTART:40.299999;
#SAMPLELENGTH:13.333332;
#SELECTABLE:YES;
#BPMS:0.000000=144.000000
,268.000000=130.000000
,269.000000=110.000000
;
#STOPS:
;
#BGCHANGES:0.000=Dendrobium.avi=1.000=0=0=0=StretchNoLoop====,
99999=-nosongbg-=1.000=0=0=0 // don't automatically add -songbackground-
;
#KEYSOUNDS:;
#ATTACKS:;

//---------------dance-single - ----------------
#NOTES:
     dance-single:
     :
     Hard:
     12:
     0.512855,0.554816,0.257654,0.386482,0.365011,418.000000,388.000000,30.000000,45.000000,0.000000,0.000000,0.512855,0.554816,0.257654,0.386482,0.365011,418.000000,388.000000,30.000000,45.000000,0.000000,0.000000:
0000
0000
0000
0000
,
0000
0000
0000
0000
,
0000
0000
0000
0000
,
0000
0000
0000
0000
,
1000
0000
0001
0000
0010
0001
0100
0000
,
0010
0000
0100
0000
1000
0100
0001
0000
,
0010
0000
0001
0000
1000
0100
1000
1010
,
0000
0100
0100
0001
0010
0001
1001
0000
,
0020
0000
0000
0000
0130
0000
0000
0000
0001
0000
0000
0010
0000
0000
0002
0000
,
0000
0000
1000
0000
1003
0000
0000
0000
0010
0000
0000
0100
0000
0000
1000
0000
,
0200
0000
0000
0000
0301
0000
0010
0000
1000
0000
0000
0010
0000
0000
2000
0000
,
0000
0000
0100
0000
3100
0000
0010
0000
0001
0000
0000
0000
0100
0000
0010
1000
,
0010
0000
0000
0000
0110
0000
0000
0000
0100
0000
0000
0001
0000
0000
0201
0000
,
0000
0000
0010
0000
0310
0000
0001
0000
1000
0000
0000
0100
0000
0000
0001
0000
,
0010
0000
0000
0000
1010
0000
0000
0000
1000
0000
0000
0001
0000
0000
1020
0000
,
0000
0001
0130
0001
0001
1000
0110
0000
,
0000
0000
0010
0001
0010
0000
1000
0000
0100
0001
0000
0010
0000
0001
0000
0002
,
0000
0010
1003
0100
1000
0010
0001
0010
,
0000
0000
0100
0010
0100
0000
1000
0000
0001
0010
0000
0100
0000
1000
0000
0200
,
0000
1000
0301
0010
0001
1000
1100
0100
,
0000
0000
0001
0100
0001
0000
0010
0000
0100
0010
0000
1000
0000
0010
0000
0002
,
0000
0100
1003
0100
0100
0010
1000
0001
,
1000
1100
0100
0101
,
0010
0000
0000
1000
0000
0000
0002
0000
0200
0000
0000
0000
0303
0000
0000
0000
,
1000
0000
0010
0000
1000
0000
0100
0001
0000
0000
0010
0000
0100
0000
0010
0000
,
0001
0000
0000
0000
1001
0000
0000
0200
0000
0000
0000
0000
0310
0000
0000
0000
,
0002
0000
0000
0000
1003
0010
0000
2000
0000
0000
0010
0000
3100
0010
0000
0200
,
0000
0000
0001
0000
0310
0001
0000
0020
0000
0000
0000
0000
1000
0000
0030
0000
,
0001
0000
0100
0000
1000
0000
0100
1000
0000
0000
0010
0000
0010
0001
0010
0000
,
0100
0000
0000
0000
1100
0000
0000
2001
0000
0000
0000
0000
3010
0000
0000
0000
,
0001
0000
1000
0000
0001
1000
0000
0020
0000
0000
0100
0000
0031
0100
0000
0002
,
0000
0000
1000
0000
0103
1000
0000
0200
0000
0000
0000
0000
0010
0000
0300
0000
,
2002
3000
0100
0010
,
0103
0000
0000
0000
0101
0000
0000
0011
0000
2000
0000
0000
3100
0000
0001
0000
,
0010
0000
0010
0000
0010
0001
0100
0001
,
1000
0000
1000
0000
1000
0100
0001
0011
,
0100
0000
0100
0000
0100
0010
1000
0010
,
0001
1000
0100
1000
0010
0001
1001
0000
,
0100
0000
1000
0000
0100
0000
0001
0010
,
0001
0000
0100
0000
0001
0000
0010
0100
,
1000
0000
0001
0000
1000
0001
0100
0000
,
0001
0000
1001
0000
1000
0000
0002
0200
0000
0000
0003
0000
0300
0000
0000
0000
,
0020
0000
0000
0000
0000
0000
0030
0000
1000
0000
0000
0001
0000
0000
0100
0000
,
0100
0000
0000
0010
0000
0000
0001
0000
1000
0000
0000
0010
0000
0000
0100
0000
,
2000
0000
0000
0000
3000
0000
0001
0000
0001
0000
0000
0100
0000
0000
0010
0000
,
0200
0000
0000
0000
0000
0000
0300
0000
0001
0000
0000
0100
0000
0000
1000
0000
,
0020
0000
0000
0000
0030
0000
0100
1000
0100
0000
0000
0010
0000
0000
0001
0000
,
2000
0000
0000
0000
3000
0000
0010
0001
0020
0000
0000
0000
0032
0000
0000
0000
,
0103
0000
0000
0100
0000
0000
0100
0000
0001
0000
1000
0000
0010
0000
1000
0000
,
0001
0000
0000
0001
0000
0000
0001
0000
0100
0000
1000
0000
0100
0000
0100
0000
,
0010
0000
0000
0011
0000
0000
1000
0000
0000
1100
0000
0000
0001
0000
0001
0000
,
0100
0000
0000
0010
0000
0000
1000
0000
0000
0001
0000
0000
0110
0000
0010
0000
,
0100
0000
1000
0000
0100
0000
0001
0100
0000
0000
1000
0000
0010
0000
0100
0000
,
0010
0000
0000
0000
0101
0000
0000
0002
0000
0000
0000
0000
0013
0000
0000
0000
,
2000
0000
0000
0000
3100
0010
0000
0200
0000
0000
0010
0000
0301
0010
0000
0002
,
0000
0000
0100
0000
1003
0010
0000
2000
0000
0000
0000
0000
0100
0000
3000
0000
,
0010
0000
0001
0000
0100
0000
0010
0100
0000
0000
1000
0000
0001
0010
0001
0000
,
1000
0000
0000
0000
0101
0000
0000
1200
0000
0000
0010
0000
0310
0000
0010
0000
,
0001
0000
0100
0000
0001
0010
0000
2000
0000
0000
0001
0000
3010
0001
0000
0020
,
0000
0000
0000
0100
0000
0000
0031
0000
0000
0100
0000
0000
0010
0000
0001
0000
0010
0000
1000
0000
0100
0000
0010
0000
,
0200
0000
0000
0000
0301
0000
0000
0000
0010
0000
0000
1000
0000
0000
1100
0000
,
0000
0000
0100
0000
0001
0000
0000
0000
0010
0000
0000
0010
0000
0000
0010
0000
,
0002
0000
0000
0000
1003
0000
0000
0000
0100
0000
0000
0010
0000
0000
0011
0000
,
0000
0000
0001
0000
1000
0000
0100
0000
1000
0010
0000
0001
0000
0001
0000
0010
,
0100
0000
0000
0000
0101
0000
0000
0000
0010
0000
0000
1000
0000
0000
1001
0000
,
0000
0000
0010
0000
0001
0000
1000
0000
1000
0000
0000
0100
0000
0000
0001
0000
,
0001
0010
1000
0010
0010
0100
0001
0020
,
0000
0100
0031
2002
0000
0000
0000
0000
,
3003
0000
0000
0000
;

//---------------dance-single - ----------------
#NOTES:
     dance-single:
     :
     Medium:
     9:
     0.435559,0.438013,0.163181,0.360716,0.008588,355.000000,336.000000,19.000000,42.000000,0.000000,0.000000,0.435559,0.438013,0.163181,0.360716,0.008588,355.000000,336.000000,19.000000,42.000000,0.000000,0.000000:
0000
0000
0000
0000
,
0000
0000
0000
0000
,
0000
0000
0000
0000
,
0000
0000
0000
0000
,
0010
0000
0021
0000
0001
0000
1030
0100
,
1000
0000
2001
0000
0001
0000
3100
0010
,
0100
0000
0210
0000
0010
0300
0001
0000
,
1000
0010
0100
0001
0010
0000
1001
0000
,
0001
0000
0100
0000
0010
0000
1000
0001
,
1000
0000
0010
0000
0100
0000
0010
1000
,
0010
0000
0001
0000
1000
0000
0001
0100
,
0010
0100
1000
0000
0001
0010
0010
0000
,
1000
0010
1000
0000
0100
1000
0100
0000
,
0001
1000
0001
0000
0010
0001
0010
0000
,
0001
0000
0010
0100
0001
0100
0000
1010
,
0000
0010
0100
1000
1000
0000
0110
0000
,
0002
0000
0013
0000
0010
0100
1000
0000
,
0100
0000
1000
0010
1000
0001
0100
0000
,
0020
0000
1030
0000
0100
0001
1000
0000
,
0001
0010
0100
1000
0100
0000
0010
0000
,
0200
0000
1300
0000
0010
0001
1000
0010
,
0002
0000
0103
0000
1000
0100
0010
1000
,
0200
0310
0002
0013
,
2000
3002
0103
0101
,
0010
0000
0001
0000
1000
0100
1000
0000
,
0100
0000
0101
0000
0001
1000
1000
0000
,
0010
0100
0020
0000
0130
0001
0200
0000
,
1300
0001
2000
0100
3010
0000
0011
0000
,
1000
0000
0010
0000
1000
0001
0010
0000
,
0100
0000
1100
0000
0100
0010
0010
0000
,
0001
1000
0002
0000
0103
1000
0200
0000
,
0310
0001
0020
0100
0130
0001
1000
0000
,
0220
0000
0000
0000
0300
0000
0000
2000
0000
0000
0000
0000
0030
0000
0000
0000
,
3010
0000
0000
0000
1001
0000
0000
0002
0000
0000
0100
0000
0103
0000
0000
0000
,
1000
0000
0100
0000
1000
0010
1000
0000
,
0001
0000
1000
0000
0001
0010
0001
0000
,
0100
0000
0010
0000
0100
0001
0100
0000
,
1000
0000
0010
1000
0010
0001
0001
0000
,
2000
0000
3100
0000
0001
0010
0001
0000
,
0200
0000
0310
0000
0001
0100
0001
0000
,
2000
0000
3010
0000
0010
0100
0010
0000
,
0100
0001
1000
0010
2020
0000
3030
0000
,
0200
0000
0001
0000
0301
0010
0100
0000
,
0010
0000
1000
0001
1000
0000
0010
1000
,
0020
0000
0100
0000
0130
1000
0001
0000
,
0001
0000
0100
0010
0100
0000
1000
0100
,
2000
0000
0001
0000
3001
0000
0010
1000
,
0020
0000
0001
0000
0031
0000
0100
0001
,
0200
1000
0001
1000
,
0302
0010
0100
0010
,
2003
0100
3200
0010
,
0310
1000
0001
0010
0001
0000
0101
0000
,
0100
1000
0100
0000
0010
1000
0010
0000
,
0001
0100
1000
0100
0001
0000
0011
0000
,
1000
0000
0010
1000
0010
0000
1000
0001
,
1000
0000
0100
0010
0100
0001
1000
0000
,
0010
0100
0010
0000
0100
0001
0100
0000
,
0001
1000
0100
1000
0010
0000
0110
0000
,
0001
0000
1000
0010
1000
0000
0100
0010
,
0100
0000
0001
0100
0001
0010
0010
0000
,
2000
0100
0010
3010
,
0001
0100
0001
0000
1000
0000
1100
0000
,
0002
0010
1000
1003
,
0100
0010
1000
0010
0100
0000
0011
0000
,
0200
0000
1000
0000
1300
0010
0001
0000
,
0020
0000
0100
0000
0130
1000
0001
0000
,
0020
0000
0130
1000
0200
0000
0301
0010
,
0100
0010
0100
2200
0000
0000
0000
0000
,
3300
0000
0000
0000
;

//---------------dance-single - ----------------
#NOTES:
     dance-single:
     :
     Easy:
     4:
     0.250293,0.262808,0.077296,0.309185,0.000000,204.000000,195.000000,9.000000,36.000000,0.000000,0.000000,0.250293,0.262808,0.077296,0.309185,0.000000,204.000000,195.000000,9.000000,36.000000,0.000000,0.000000:
0000
0000
0000
0000
,
0000
0000
0000
0000
,
0000
0000
0000
0000
,
0000
0000
0000
0000
,
1000
0010
0002
0003
,
0100
0010
2000
3000
,
0001
0100
0020
0030
,
1000
0002
2000
3003
,
0010
1000
0100
0000
,
0001
1000
0010
0010
,
0100
0001
0010
0000
,
0010
0100
0001
0001
,
1000
0010
0100
0010
,
0100
0001
1000
0001
,
0010
0100
0010
0001
,
0001
0000
0110
0000
,
0200
0300
0010
0001
,
1000
0010
0010
0000
,
0002
0003
0100
0010
,
0100
1000
1000
0000
,
0200
0300
1000
0100
,
1000
0001
0001
0100
,
0002
0003
2000
3000
,
0010
0100
0200
0300
,
1001
0000
0010
1000
,
0100
0001
0002
0003
,
0010
0000
0100
0000
,
1000
0001
2000
3000
,
0110
0000
0100
0001
,
0010
0100
0200
0300
,
0001
0000
0010
0000
,
0100
0010
0020
0030
,
2002
0000
0000
3003
,
0200
0000
0020
0330
,
0010
0001
0010
0000
,
0100
0010
0100
0000
,
0001
1000
0001
0000
,
0100
1000
0100
0000
,
1000
0001
1000
1000
,
0010
1000
0010
0010
,
0100
0001
0100
0100
,
0020
0030
2002
3003
,
0100
0000
0010
1000
,
0001
0000
1000
0010
,
0100
0000
0010
0001
,
1000
0010
0010
0000
,
2000
3000
0100
0001
,
0200
0300
0020
0030
,
0001
0001
0001
0000
,
0100
0100
0100
0000
,
0010
0010
0010
1000
,
0001
0000
0110
0000
,
0100
0001
0100
0010
,
1000
0000
2002
3003
,
0100
0001
0100
1000
,
0010
0100
0020
0030
,
0001
1000
0100
0010
,
0001
0000
0220
0330
,
0100
0010
0001
0010
,
0010
1000
0001
0000
,
0200
0300
1000
0100
,
0001
0010
0010
0000
,
0002
0003
0100
0010
,
1000
0001
0001
0000
,
2000
3000
0100
0010
,
0100
1000
1000
0010
,
0002
0003
0010
0100
,
1000
0100
2002
0000
,
3003
0000
0000
0000
;

//---------------dance-single - ----------------
#NOTES:
     dance-single:
     :
     Beginner:
     3:
     0.148458,0.202903,0.042942,0.128827,0.000000,121.000000,116.000000,5.000000,15.000000,0.000000,0.000000,0.148458,0.202903,0.042942,0.128827,0.000000,121.000000,116.000000,5.000000,15.000000,0.000000,0.000000:
// measure 0
0000
0000
0000
0000
,  // measure 1
0000
0000
0000
0000
,  // measure 2
0000
0000
0000
0000
,  // measure 3
0000
0000
0000
0000
,  // measure 4
0010
0000
0010
0000
,  // measure 5
0010
0000
0010
0000
,  // measure 6
0001
0000
0001
0000
,  // measure 7
2002
0000
3003
0000
,  // measure 8
0100
0000
1000
0000
,  // measure 9
0100
0000
0100
0000
,  // measure 10
0010
0000
0100
0000
,  // measure 11
0010
0000
0010
0000
,  // measure 12
1000
0000
0010
0000
,  // measure 13
1000
0000
1000
0000
,  // measure 14
0001
0000
1000
0000
,  // measure 15
0001
0000
1001
0000
,  // measure 16
0200
0000
0300
0000
,  // measure 17
0010
0000
0001
0000
,  // measure 18
0020
0000
0030
0000
,  // measure 19
1000
0000
0001
0000
,  // measure 20
2000
0000
3000
0000
,  // measure 21
0100
0000
0001
0000
,  // measure 22
0200
0000
0300
0000
,  // measure 23
0020
0000
0030
0000
,  // measure 24
1000
0000
0010
0000
,  // measure 25
1000
1000
1000
0000
,  // measure 26
0100
0000
0001
0000
,  // measure 27
0100
0000
0110
0000
,  // measure 28
0001
0000
0010
0000
,  // measure 29
0001
0001
0001
0000
,  // measure 30
1000
0000
0100
0000
,  // measure 31
0001
0000
0100
0000
,  // measure 32
0020
0000
0000
0000
,  // measure 33
0030
0000
0000
0000
,  // measure 34
1000
0000
0100
0000
,  // measure 35
1000
0000
0100
0000
,  // measure 36
0010
0000
1000
0000
,  // measure 37
0010
0000
1000
0000
,  // measure 38
0001
0000
0100
0000
,  // measure 39
0001
0000
0100
0000
,  // measure 40
0010
0000
0100
0000
,  // measure 41
0220
0000
0330
0000
,  // measure 42
0001
0000
0010
0000
,  // measure 43
0100
0000
0010
0000
,  // measure 44
1000
0000
0100
0000
,  // measure 45
0001
0000
0100
0000
,  // measure 46
1000
0000
0010
0010
,  // measure 47
0010
0000
0100
0000
,  // measure 48
0002
0000
0003
0000
,  // measure 49
2000
0000
3000
0000
,  // measure 50
0020
0000
0030
0000
,  // measure 51
0200
0000
0300
0000
,  // measure 52
0001
0000
1000
0000
,  // measure 53
0001
0000
0001
0000
,  // measure 54
0010
0000
0100
0000
,  // measure 55
0010
0000
0010
0000
,  // measure 56
1000
0000
0100
0000
,  // measure 57
1000
0000
1000
0000
,  // measure 58
0001
0000
0100
0000
,  // measure 59
0001
0000
1001
0000
,  // measure 60
0010
0000
0100
0000
,  // measure 61
0010
0000
0100
0000
,  // measure 62
0001
0000
1000
0000
,  // measure 63
0001
0000
0001
0000
,  // measure 64
0010
0000
1000
0000
,  // measure 65
0100
0000
1000
0000
,  // measure 66
0001
0000
0010
0000
,  // measure 67
0002
0000
0003
0000
;
