#TITLE:Debug Dance;
#SUBTITLE:;
#ARTIST:lapix;
#TITLETRANSLIT:;
#SUBTITLETRANSLIT:;
#ARTISTTRANSLIT:;
#GENRE:;
#CREDIT:;
#BANNER:Debug Dance.png;
#BACKGROUND:Debug Dance-bg.png;
#LYRICSPATH:;
#CDTITLE:;
#MUSIC:Debug Dance.ogg;
#OFFSET:-0.159000;
#SAMPLESTART:89.175003;
#SAMPLELENGTH:12.717000;
#SELECTABLE:YES;
#BPMS:0.000000=150.983994
;
#STOPS:
;
#BGCHANGES:;
#KEYSOUNDS:;
#ATTACKS:;

//---------------dance-single - ----------------
#NOTES:
     dance-single:
     :
     Hard:
     14:
     0.691033,0.779286,0.382982,0.099908,0.578636,581.000000,535.000000,46.000000,12.000000,0.000000,0.000000,0.691033,0.779286,0.382982,0.099908,0.578636,581.000000,535.000000,46.000000,12.000000,0.000000,0.000000:
// measure 0
0000
0000
0000
0000
,  // measure 1
0000
0000
0000
0000
,  // measure 2
0000
0000
0000
0000
,  // measure 3
0000
0000
0000
0000
,  // measure 4
0010
0000
0001
0000
0100
0000
0001
0000
1000
0000
1000
0001
0000
0000
1000
0000
,  // measure 5
0100
0000
1000
0000
0010
1000
0000
0000
1001
0000
0000
1001
0000
0000
0001
0000
,  // measure 6
0010
0000
0001
0100
0001
0000
0010
0000
0001
1000
0000
0001
1000
0000
0010
0000
,  // measure 7
0000
0100
0010
0100
0001
1000
0100
0010
,  // measure 8
0011
0000
0001
0100
0000
0000
0010
0100
0000
0010
1000
0000
0010
0000
1000
0000
,  // measure 9
0100
0000
0010
0100
0000
0000
1000
0010
0000
0010
0000
0100
0002
0203
0302
0203
,  // measure 10
0310
0000
1000
0000
0001
0000
1000
0000
0001
0100
0000
0001
1000
0000
0100
0000
,  // measure 11
0110
0000
1100
0000
1010
0000
0101
0000
0100
0100
0010
0000
0000
1000
0000
0000
,  // measure 12
0001
0000
0100
0010
0000
0000
0010
0100
0000
1000
0001
0000
0010
0000
0001
0000
,  // measure 13
0010
0000
1000
0000
0100
0000
1000
0000
0010
0100
0010
0000
1001
0000
0000
0000
,  // measure 14
0010
0100
0000
0100
0010
0000
0001
1000
0000
1000
0001
0000
0100
0010
1000
0000
,  // measure 15
0100
0100
0010
0000
0000
0100
0000
0000
1000
1000
0001
0000
1000
0000
0100
0000
,  // measure 16
1001
0001
1001
0000
0010
0100
0010
0001
,  // measure 17
1000
0000
0001
0000
0000
1000
0000
0000
0010
0000
0100
0000
0010
0000
0100
0000
,  // measure 18
0001
0000
1100
0100
1000
0000
0011
0010
,  // measure 19
0110
0000
1010
0000
1001
0000
0001
0001
,  // measure 20
0100
0000
0010
0000
0100
0000
0001
1000
0001
0000
0010
0000
0100
0000
0010
0100
,  // measure 21
0010
0000
0001
0000
0100
0010
0000
0000
1100
0000
0000
0000
1100
0000
0000
0000
,  // measure 22
0010
0100
0101
0001
0010
0100
1100
1000
,  // measure 23
0010
0000
1000
0000
0000
0001
0000
1000
0000
0010
0000
1000
0010
0000
0000
0000
,  // measure 24
0100
0110
0000
0000
1000
1100
0000
0000
,  // measure 25
0101
0000
0000
0101
0000
0000
0011
0000
0000
0011
0000
0000
1000
0001
1000
0000
,  // measure 26
0010
0110
0000
0000
0001
0101
0000
0000
,  // measure 27
1010
0000
0000
1010
0000
0000
1100
0000
0000
1100
0000
0000
0010
0100
0010
0000
,  // measure 28
1200
0010
0001
0010
,  // measure 29
1300
0010
0100
0010
0100
0001
1000
0010
,  // measure 30
1000
0100
1000
0100
0010
0100
0010
0100
0010
0001
0010
0001
1000
0001
1000
0001
,  // measure 31
0010
0000
0100
0100
0000
0000
0001
0000
0001
0000
1000
0000
1001
0000
0000
0000
,  // measure 32
0110
0000
0000
0000
0010
0000
0000
1000
0000
0000
0010
0000
0000
0010
0000
0000
,  // measure 33
0100
0000
0000
0001
0000
0000
0001
0000
0000
0010
0000
0000
0001
0000
1000
0000
,  // measure 34
1001
0000
0000
0000
0100
0000
0000
0010
0000
0000
1000
0000
0000
1000
0000
0000
,  // measure 35
0100
0000
0000
0001
0000
0000
0010
0000
0000
0001
0000
1000
0000
0010
1000
0000
,  // measure 36
0100
0010
0001
1000
0010
0100
0001
0010
,  // measure 37
0001
0100
0010
0100
0001
0010
0100
1000
,  // measure 38
0001
0001
1000
1000
0010
0010
0100
0100
,  // measure 39
0202
0000
0000
0000
0000
0003
0310
0010
,  // measure 40
1001
0000
1000
0000
0100
0000
0010
0000
0001
1000
0001
0000
0100
0001
0000
0000
,  // measure 41
1000
0100
0000
0000
1000
0010
0000
0000
1000
0001
0000
0000
0010
0100
0010
0001
,  // measure 42
1000
0000
0010
0000
0100
0000
0001
0000
1000
0001
1000
0000
0010
0100
0000
0000
,  // measure 43
0001
0010
0000
0000
0001
0100
0000
0000
0001
1000
0100
0000
1000
0001
1000
0010
,  // measure 44
0100
0000
0001
0000
1000
0000
0010
0000
0100
0010
0100
0000
0001
0010
0000
0000
,  // measure 45
0100
1000
0000
0000
0100
0010
0000
0000
0100
0001
0000
0000
0100
1000
0010
1000
,  // measure 46
0001
0000
1000
0000
0010
0000
0100
0000
0010
1000
0010
0000
0100
0000
0001
0000
,  // measure 47
1000
0001
0000
0000
0001
1000
0000
0000
0010
1000
0010
0100
0010
1000
0001
0100
,  // measure 48
0010
0000
1000
0000
0000
1000
0000
0000
0010
0000
0000
0100
0000
0000
0010
0000
,  // measure 49
1000
0000
0001
0000
0000
0001
0000
0000
0100
0000
0000
0010
0000
0000
0100
0000
,  // measure 50
0001
0000
1000
0000
0000
0100
0000
0000
0010
0000
0000
0010
0000
0000
0100
0000
,  // measure 51
1000
0000
0001
0000
0000
0001
0000
0000
0100
0000
0000
0010
0000
0000
0100
0000
,  // measure 52
0001
0000
0010
0000
0000
0001
0000
0000
0010
0000
0000
0001
0000
0000
1000
0000
,  // measure 53
0010
0000
0100
0000
0000
0010
0000
0000
0100
0000
0000
0001
1000
0000
1000
0000
,  // measure 54
1010
0100
0110
0001
0101
0100
1100
0001
,  // measure 55
0002
0000
1000
0000
0103
0010
1001
0000
,  // measure 56
0010
0100
1000
0100
0010
0001
1000
0100
,  // measure 57
0010
0000
0010
0000
1000
0000
0001
0000
1000
0010
0000
1000
0000
0000
0001
0000
,  // measure 58
0010
0000
0100
0000
1000
0000
0001
0000
0100
0000
0000
0010
0000
0000
1000
0000
,  // measure 59
0010
0000
0010
0000
0100
0000
0001
0000
1000
0010
0000
1000
0000
0000
0001
0000
,  // measure 60
0100
0010
1000
0010
0100
0001
0010
0100
,  // measure 61
1000
0000
1000
0000
0001
0000
1000
0000
0010
0100
0000
0010
0000
0000
0010
0000
,  // measure 62
0100
0001
1000
0010
0100
0001
0001
0010
,  // measure 63
0001
0100
0000
0010
0000
1000
0010
0000
0100
0001
0000
0010
0000
0001
1000
0001
,  // measure 64
0100
0000
0010
0000
1000
0000
0001
0000
0100
0010
0000
0220
0000
0330
0000
0000
,  // measure 65
0001
0000
0001
0000
1000
0000
0001
0000
0010
0100
0000
0220
0000
0330
0000
0000
,  // measure 66
1000
0000
0001
0000
1000
0000
0100
0000
0010
0001
0010
0001
0000
0000
1000
0100
,  // measure 67
0010
0000
0010
0000
0100
0000
0010
0010
0000
0100
0000
0001
0000
0000
1000
0000
,  // measure 68
0010
0000
0010
0000
0100
0001
0100
0000
1000
0000
1000
0000
0010
0100
0010
0000
,  // measure 69
0100
0000
0001
0100
0000
0000
0010
0000
1000
0001
0000
1000
0000
0000
0010
0000
,  // measure 70
0100
0001
0010
1000
0010
0001
0100
0001
,  // measure 71
1000
0001
0100
0001
1000
0010
0100
0010
0100
0001
0000
1001
0000
0000
1000
0000
,  // measure 72
0110
0000
0000
0000
;
