#TITLE:Daisycutter;
#SUBTITLE:;
#ARTIST:ETIA.;
#TITLETRANSLIT:;
#SUBTITLETRANSLIT:;
#ARTISTTRANSLIT:;
#GENRE:;
#CREDIT:;
#MUSIC:Daisycutter.ogg;
#BANNER:Daisycutter.png;
#BACKGROUND:Daisycutter-bg.png;
#CDTITLE:;
#SAMPLESTART:20.368;
#SAMPLELENGTH:15.000;
#SELECTABLE:YES;
#OFFSET:-0.263;
#BPMS:0.000=191.000;
#STOPS:287.500=0.314;
#BGCHANGES:;
#FGCHANGES:;

//--------------- dance-single - ----------------
#NOTES:
     dance-single:
     :
     Beginner:
     4:
     0,0,0,0,0:
0000
0000
0000
0000
,
0000
0000
0000
0000
,
0000
0000
0000
0000
,
0000
0000
0000
0000
,
0000
0000
0000
0000
,
0000
0000
0000
0000
,
0000
0000
0000
0000
,
0000
0000
0000
0000
,
0001
0001
0001
0000
,
1000
0000
0001
0000
,
1000
1000
1000
0000
,
0001
0000
1000
0000
,
0010
0010
0010
0000
,
0100
0100
0100
0000
,
0010
0000
0100
0000
,
0010
0000
0010
0000
,
0100
0100
0100
0000
,
0010
0000
0100
0000
,
1000
0000
0001
0000
,
1000
0000
0001
0000
,
1000
1000
1000
0000
,
0001
0000
1000
0000
,
0010
0000
0100
0000
,
0010
0000
0010
0000
,
0100
0100
0100
0000
,
0001
0000
0100
0000
,
1000
1000
1000
0000
,
0010
0000
1000
0000
,
0001
0001
0001
0000
,
1000
0000
0001
0000
,
0100
0100
0100
0000
,
0010
0000
0100
0000
,
0110
0000
0000
0000
,
0000
0000
0000
0000
,
0000
0000
0000
0000
,
0000
0000
0000
0000
,
2000
0000
0000
0000
,
3000
0000
0000
0000
,
0002
0000
0000
0000
,
0003
0000
0000
0000
,
0020
0000
0000
0000
,
0030
0000
0000
0000
,
0200
0000
0300
0000
,
0020
0000
0030
0000
,
1000
0000
1000
0000
,
2000
0000
3000
0000
,
0001
0000
0001
0000
,
0002
0000
0003
0000
,
0010
0000
0010
0000
,
0020
0000
0030
0000
,
0100
0000
0100
0000
,
0110
0000
0110
0000
,
0010
0000
0010
0000
,
0010
0000
0010
0000
,
1000
0000
1000
0000
,
1000
0000
1000
0000
,
0001
0000
0001
0000
,
0001
0000
0001
0000
,
0100
0000
0100
0000
,
0000
0000
0000
0000
,
1000
0000
1000
0000
,
1000
0000
1000
0000
,
0001
0000
0001
0000
,
0001
0000
0001
0000
,
0010
0000
0010
0000
,
0010
0000
0010
0000
,
0100
0000
0100
0000
,
0100
0000
0100
0000
,
0010
0010
0010
0000
,
0010
0000
0010
0000
,
1000
1000
1000
0000
,
1000
0000
1000
0000
,
0001
0001
0000
0001
,
0000
0001
0000
0010
,
0000
0100
0000
0100
,
0000
0010
0000
0100
,
0100
0100
0000
0100
,
0000
0100
0000
0010
,
0010
0010
0000
0010
,
0000
0010
0000
0001
,
0001
0001
0000
0001
,
0000
0001
0000
1000
,
0000
1000
0000
0001
,
0000
1000
0000
0001
,
0001
0001
0000
1000
,
0000
0001
0000
1000
,
1000
1000
0000
0010
,
0000
0100
0000
0010
,
0000
0010
0000
0100
,
0000
0100
0000
1000
,
0000
0001
0000
0100
,
0000
0010
0000
1001
;

//--------------- dance-single - ----------------
#NOTES:
     dance-single:
     :
     Easy:
     8:
     0,0,0,0,0:
0000
0000
0000
0000
,
0000
0000
0000
0000
,
0000
0000
0000
0000
,
0000
0000
0000
0000
,
0000
0000
0000
0000
,
0000
0000
0000
0000
,
0000
0000
0000
0000
,
0000
0000
0000
0000
,
0001
1000
0001
0000
,
0010
0100
0010
0110
,
0100
0001
1000
0010
,
1000
0001
1000
1000
,
0001
0100
0010
0100
,
0001
1000
0010
0100
,
0101
0000
1010
0000
,
1001
0000
0000
0110
0000
0000
1001
0000
,
0001
1000
0010
0000
,
0100
0001
0100
0020
,
1030
0001
1000
1000
,
0001
0100
0010
0100
,
1000
0001
0100
0000
,
1000
0001
1000
0002
,
0103
0010
0100
0001
,
1000
0000
0000
0001
0000
0000
1001
0000
,
0010
0100
0001
0100
,
0010
1000
0001
2000
,
3100
0010
1000
0010
,
0100
0001
0010
0010
,
0100
0001
1000
0010
,
0100
0001
1000
0100
,
1000
0010
1000
0010
,
0100
0000
1000
0001
,
0110
0000
0000
0000
,
0000
0000
0000
0000
,
1001
0000
0000
0000
,
1000
0000
0000
0001
0000
0000
1000
0000
,
0010
0000
0000
0010
0000
0000
0100
0000
,
0000
0100
0000
0000
0010
0000
0100
0000
,
1000
0000
0000
1000
0000
0000
0001
0000
,
0000
0001
0000
0000
1000
0000
0001
0000
,
0100
0000
0000
0100
0000
0000
1000
0000
,
0000
1000
0000
0000
0100
0000
0010
0000
,
0100
0000
0000
0100
0000
0000
0001
0000
,
0000
0001
0000
0000
0010
0000
0010
0000
,
1000
0000
0000
0001
0000
0000
1000
0000
,
0000
0001
0000
0000
1000
0000
1000
0000
,
0010
0000
0000
1000
0000
0000
0010
0000
,
0000
1000
0000
0000
0010
0000
0010
0000
,
0100
0000
0000
0010
0000
0000
0100
0000
,
0000
0010
0000
0000
0100
0000
0100
0000
,
0001
0000
0000
1000
0000
0000
0001
0000
,
1010
0000
0011
0000
,
0100
0010
0001
0010
,
1000
0010
0100
1000
,
0001
0100
0010
1000
,
0001
0100
0010
0001
,
0100
0100
0010
0010
,
1000
1000
0001
0001
,
0100
0010
1000
0001
,
0000
0000
0000
0000
,
0010
0000
0000
0000
0000
0100
0000
0000
0100
0000
0000
0000
0000
0100
0000
0000
,
0100
0000
0000
0000
0000
0100
0000
0000
0100
0000
0000
0000
0010
0000
0000
0000
,
1000
0000
0000
0000
0000
1000
0000
0000
1000
0000
0000
0000
0000
1000
0000
0000
,
1000
0000
0000
0000
0000
1000
0000
0000
0001
0000
0000
0000
0001
0000
0000
0000
,
0110
0000
0000
0000
0010
0000
0000
0000
0010
0000
0000
0000
0000
0010
0000
0000
,
0010
0000
0000
0000
0000
0010
0000
0000
0010
0000
0000
0000
0100
0000
0000
0000
,
1000
0000
0000
0000
0000
1000
0000
0000
1000
0000
0000
0000
0000
1000
0000
0000
,
1000
0000
0000
0000
0000
0001
0000
0000
0001
0000
0000
0000
1001
0000
0000
0000
,
0100
0001
0100
1000
,
0001
0010
0100
0010
,
1000
0001
0100
0010
,
1000
0001
0100
0010
,
1001
0010
0100
0001
,
0100
0010
1000
0001
,
0001
1000
1000
0020
,
0000
0000
0030
1001
,
1000
0010
1000
0010
,
0100
0001
0100
0011
,
0100
0001
1000
0010
,
0100
1000
1000
1100
,
0100
0010
0100
0001
,
0100
0010
0100
0011
,
0100
0001
1000
0020
,
2030
3002
0203
0310
,
0100
0001
0100
0010
,
1000
0001
0100
1100
,
0100
0010
0100
0001
,
1000
0010
0010
1010
,
0010
0100
0001
0110
,
0001
0100
0001
1001
,
0000
0110
0000
1100
,
0000
0101
0000
0011
;

//--------------- dance-single - ----------------
#NOTES:
     dance-single:
     :
     Medium:
     12:
     0,0,0,0,0:
0000
0000
0000
0000
,
0000
0000
0000
0000
,
0000
0000
0000
0000
,
0000
0000
0000
0000
,
0000
0000
0000
0000
,
0000
0000
0000
0000
,
0000
0000
0000
0000
,
0000
0000
0000
0000
,
0010
0000
0010
0200
0000
0000
0300
0000
,
1000
0000
1000
0001
0000
0001
0100
0000
,
0010
0000
0010
1000
0000
1000
0001
0000
,
1000
0000
0000
0001
0000
0000
1000
0000
0010
0000
0100
0000
0010
0000
0000
0000
,
0100
0000
1000
0100
0000
1000
0100
0000
,
0001
0000
0010
0001
0000
0010
0001
0000
,
1000
0000
0001
1000
0000
0001
1000
0000
,
0010
0000
0100
0010
0000
0100
0010
0000
,
1000
0000
0001
1000
0000
1000
0000
0010
,
0100
0000
0000
0001
0000
0000
0100
0000
0010
0000
0000
0000
0001
0000
0000
0000
,
1000
0000
0100
1000
0000
1000
0001
0000
,
0100
0000
0010
1000
0000
1000
0010
0000
,
0100
0000
0001
0100
0000
0100
0000
0010
,
0100
0000
0000
0001
0000
0000
1000
0000
0001
0000
0000
0000
1000
0000
0000
0000
,
0010
0000
0100
0010
0000
0100
0010
0000
,
1000
0000
1000
0001
0000
0100
0000
0100
,
0010
0000
1000
0010
0000
1000
0000
1000
,
0001
0000
0000
1000
0000
0000
1000
0000
0001
0000
0000
0000
1001
0000
0000
0000
,
0010
0000
0100
0010
0000
0100
0010
0000
,
0001
0000
0100
0001
0000
0001
1000
0000
,
0001
0000
1000
0001
0000
0001
0000
1000
,
0001
0000
0000
0010
0000
0000
1000
0000
0100
0000
0000
0000
0010
0000
0000
0000
,
0100
0000
0010
0100
0000
0100
0010
0000
,
0100
0000
0001
0200
0000
0320
0000
2030
,
0000
0000
0000
0000
,
0000
0000
0000
0000
,
3000
0000
0000
0000
,
0000
0000
0000
0000
,
0110
0220
0000
0000
,
0330
0000
1010
1010
,
1001
2002
0000
0000
,
3003
0000
0000
0000
,
0101
0202
0000
0000
,
0303
0000
1100
1100
,
0011
0022
0000
0033
,
0110
0220
0000
0330
,
1100
2200
0000
0000
,
3300
0000
0101
0101
,
1010
2020
0000
0000
,
3030
0000
0000
0000
,
1001
2002
0000
0000
,
3003
0000
1010
1010
,
0110
0220
0000
0330
,
0202
0303
0022
0033
,
0100
1000
0100
0001
,
0100
0010
0100
0001
,
1000
0010
0100
0001
,
0100
0010
0100
0001
,
1000
0010
1000
0000
0001
0100
0001
0000
,
0010
0100
0010
0000
0100
0010
0100
0000
,
0001
1000
0010
0000
0100
0001
0010
0000
,
2000
0000
0000
3002
0000
0000
0203
0000
,
1300
0000
0000
0000
0000
1000
0000
0000
1000
0000
1000
0000
0000
1000
0000
0000
,
1000
0000
0000
0000
0000
1000
0000
0000
1000
0000
0000
0000
0110
0000
0000
0000
,
0010
0000
0000
0000
0000
0010
0000
0000
0010
0000
0010
0000
0000
0010
0000
0000
,
0010
0000
0010
0000
0000
0010
0000
0000
0100
0000
1000
0000
0001
0000
1000
0000
,
0100
0000
0000
0000
0001
0000
0000
0000
0001
0000
0001
0000
0000
0001
0000
0000
,
0001
0000
0000
0000
0000
0001
0000
0000
0001
0000
0000
0000
0010
0000
0000
0000
,
0100
0000
0000
0000
0000
0100
0000
0000
0100
0000
0100
0000
0000
0100
0000
0000
,
0010
0000
0000
0000
0000
0010
0000
0000
0010
0000
0000
0000
1001
0000
0000
0000
,
0001
0000
0000
0000
0000
0010
0000
0000
0100
0000
0010
0000
0000
1000
0000
0000
,
0100
0000
0000
0000
0000
0100
0000
0000
0010
0000
0000
0000
1001
0000
0000
0000
,
0100
0000
0000
0000
0000
1000
0000
0000
0100
0000
0010
0000
0000
0001
0000
0000
,
0100
0000
0010
0000
0000
0100
0000
0000
0001
0000
0010
0000
0001
0000
0010
0000
,
0110
0000
0000
0000
0010
0000
1000
0000
0000
0010
0000
0000
0100
0000
0000
0000
,
0000
1000
0000
0000
0001
0000
0000
0100
0000
0010
0000
0000
0100
0000
0000
0000
,
0000
0001
0000
0000
1000
0000
0100
0000
0000
1000
0000
0000
0002
0000
0000
0000
,
0000
0100
0000
0000
0103
0000
0000
0000
0110
0000
0000
0000
2000
0000
0000
0000
,
3100
0000
0000
0010
0000
0000
0100
0000
1000
0000
0000
0001
0000
0000
1000
0000
,
0100
0000
0000
0001
0000
0000
0010
0000
0100
0000
0000
0000
0002
0000
0000
0000
,
0103
0000
0000
1000
0000
0000
0100
0000
0010
0000
0000
0001
0000
0000
0010
0000
,
1000
0000
0000
0010
0000
0000
1000
0000
0100
0000
1000
0000
0020
0000
0000
0000
,
0130
0000
0000
0010
0000
0000
0100
0000
1000
0000
0000
0010
0000
0000
1000
0000
,
0001
0000
0000
1000
0000
0000
0010
0000
0001
0000
0000
0000
0200
0000
0000
0000
,
1300
0000
0000
0001
0000
0000
1000
0000
0010
0000
0000
0000
0002
0000
0000
0000
,
0203
2300
3200
0320
,
0130
0000
0010
0000
0100
1000
0001
0000
,
1000
0100
0010
0000
1001
0000
0200
0000
,
0310
0001
0100
0000
1000
0001
0100
0000
,
0010
1000
0100
1000
0010
0000
0020
0000
,
0130
0000
0001
0000
0100
1000
0010
0100
,
0010
0000
0100
0001
0010
0000
2000
0000
,
3001
0002
0103
0200
,
0310
0020
0130
0110
;

//--------------- dance-single - ----------------
#NOTES:
     dance-single:
     :
     Hard:
     16:
     0,0,0,0,0:
0000
0000
0000
0000
,
0000
0000
0000
0000
,
0000
0000
0000
0000
,
0000
0000
0000
0000
,
0000
0000
0000
0000
,
0000
0000
0000
0000
,
0000
0000
0000
0000
,
0000
0000
0000
0000
,
1000
0001
0100
0010
0000
0000
0000
0000
,
0010
0100
1000
0010
0100
1000
1010
0000
,
0001
1000
0100
0001
1000
0100
0001
0001
,
0100
0000
0001
0100
0000
0001
0100
0000
0010
1000
0010
0000
0010
0100
0010
0000
,
0001
1000
0010
1000
0100
0001
0010
0100
,
0001
1000
0010
0100
1000
0100
0001
0010
,
1000
0001
1000
0100
0010
0100
0010
1000
,
0001
1000
0100
0001
1000
0100
0001
0001
,
0001
0010
0100
0010
0000
0100
0000
1000
,
0100
0000
0000
0001
0000
0000
0100
0000
0010
0000
0000
0000
0100
0010
0100
0010
,
1000
0001
1000
0010
1000
0100
1000
1000
,
0001
0100
0010
0200
0300
0001
0100
0010
,
1000
0001
1000
0001
0000
0001
0000
0100
,
0010
0000
0000
0100
0000
0000
0010
0000
1000
0000
0000
0000
0100
1000
0100
1000
,
0001
1000
0100
0002
0003
0010
0100
0000
,
1000
0000
0100
0010
0000
0100
0100
0100
,
0001
1000
0010
1000
0000
0100
0000
0001
,
1000
0000
0000
0001
0000
0000
1000
0000
0010
0000
0000
0000
0200
0000
0300
0000
,
0001
1000
0100
0001
1000
0100
0001
0001
,
0010
0000
0100
0001
0000
0100
0010
0000
1000
0000
0100
0000
1000
0000
0001
0000
,
0010
0100
0010
0001
0000
1000
0000
0001
,
0010
0000
0000
0100
0000
0000
0100
0000
0010
0000
0000
0000
1000
0001
1000
0001
,
0100
0010
0001
0200
0300
0100
0010
0000
,
1000
0000
0001
1000
0000
0001
0000
1000
,
1100
0000
0000
0000
,
0000
0000
0000
0000
,
1001
0000
0000
0000
,
1000
0000
1000
0001
0000
0001
0100
0000
,
0200
0000
0000
0010
0000
0000
0001
0000
,
0000
0010
0000
0000
1300
0000
1000
0000
,
0002
0000
0000
1000
0000
0000
0100
0000
,
0000
1000
0000
0000
0013
0000
0010
0000
,
2000
0000
0000
0001
0000
0000
0010
0000
,
0000
0001
0000
0000
3100
0000
0100
0000
,
0020
0000
0000
1000
0000
0000
0100
0000
,
0000
1000
0000
0000
0031
0000
0001
0000
,
0100
0010
0001
1000
0000
0000
0000
0000
,
1000
0100
0010
1000
0100
0010
1000
1000
,
1000
0001
0100
1000
0000
0000
0000
0000
,
0010
0000
0001
0010
0001
0000
0100
0000
0000
0000
1000
0000
1000
0000
1000
0000
,
0001
0010
1000
0100
0000
0000
0000
0000
,
0001
0100
0010
0001
0100
0010
0001
0001
,
0100
0010
1000
0100
0000
0000
0001
1000
,
0110
0010
1000
0100
0101
0001
0010
0010
,
1000
0100
0001
0100
,
0010
0100
0001
0100
,
0010
1000
0001
0100
,
0010
1000
0001
0100
,
1000
0100
0001
0100
0010
0100
0001
1000
,
0100
0001
0010
1000
0001
0100
0010
0100
,
0001
1000
0001
0100
0010
0100
0010
0000
,
0100
0010
0001
0100
0010
0001
0100
0100
,
0100
0000
1000
0000
0000
1100
0000
0000
1100
0000
1100
0000
0000
1100
0000
0000
,
1100
0000
1000
0000
0000
1100
0000
0000
1100
0000
0000
0000
1001
0000
0000
0000
,
0011
0000
0010
0000
0000
0011
0000
0000
0011
0000
0011
0000
0000
0011
0000
0000
,
0011
0000
0011
0000
0000
0011
0000
0000
0001
1000
0001
0000
1000
0001
1000
0000
,
0110
0000
0000
0000
0101
0000
0000
0000
0101
0000
0101
0000
0000
0101
0000
0000
,
0101
0000
0100
0000
0000
0101
0000
0000
0101
0000
0000
0000
1001
0000
0000
0000
,
1010
0000
0010
0000
0000
1010
0000
0000
1010
0000
1010
0000
0000
1010
0000
0000
,
0100
0000
0100
0000
0000
0100
0000
0000
1000
0000
1000
0000
0001
0010
0001
0000
,
0100
0000
0010
0000
0000
0100
0000
0000
0010
0000
0100
0000
0001
1000
0100
0000
,
1000
0000
0000
0000
0000
0001
0000
0000
1000
0000
0000
0000
0101
0000
0000
0000
,
0100
0000
0000
0000
0000
0100
0000
0000
0010
0000
0100
0000
0000
0010
0000
0000
,
1000
0000
1000
0000
0000
0001
0000
0000
0010
0000
0001
0000
0010
0000
0100
0000
,
1001
0000
0001
0000
1000
0000
0001
0000
0000
1000
0000
0000
0010
0000
0000
0000
,
0000
0100
0000
0000
0100
0000
0000
1000
0000
0001
0000
1000
0100
0000
0000
0000
,
0000
0010
0000
0000
0100
0000
0001
0000
0000
0100
0000
0000
0001
0000
0000
0000
,
0000
0001
0000
0000
1000
0000
0100
0000
0010
0000
0000
0000
1001
0000
0000
0000
,
1000
0000
0000
1000
0000
1000
0001
0000
0010
0000
0100
0010
0000
0010
0100
0000
,
0001
0000
0010
0001
0000
0001
0100
0000
0010
0000
0000
0000
0110
0000
0000
0000
,
0001
0000
0000
1000
0000
1000
0010
0000
0100
0000
0100
0001
0000
0001
0010
0100
,
1000
0000
0100
0001
0010
0000
0100
0010
0100
1000
0100
0000
1010
0000
0000
0000
,
0100
0000
0000
0010
0000
0001
0010
0000
0100
0000
1000
0100
0000
1000
0001
1000
,
0010
0000
0100
0001
0000
0010
0001
0010
0100
0000
0000
0000
1100
0000
0000
0000
,
0001
0000
0000
0100
0000
0010
0100
0000
0001
0000
1000
0010
0200
0000
0000
0000
,
0302
0203
2300
3001
,
0100
0000
0000
0001
0000
0010
0001
0000
0010
0000
1000
0100
0000
1000
0100
0000
,
0010
0000
0001
0100
0000
0001
0100
0000
0010
0000
0000
0000
1100
0000
0000
0000
,
0010
0000
0000
1000
0000
0001
1000
0000
0100
0000
0010
0100
0000
0001
0100
0001
,
0010
0000
0100
0010
1000
0000
0001
1000
0001
0000
0000
0000
0011
0000
0000
0000
,
0010
0000
0000
0100
0000
0100
0010
0000
1000
0000
0001
1000
0000
1000
0001
0000
,
0010
0000
0001
0100
0000
0100
0001
0000
1000
0000
0000
0000
0201
0000
0000
0000
,
0301
1020
1030
2100
,
3100
0021
0031
2002
,
0000
0000
0000
0000
,
0000
0000
0000
0000
,
0000
0000
0000
0000
0000
3003
0000
0000
;
