#VERSION:0.83;
#TITLE:Daily Lunch Special;
#SUBTITLE:(tpz Overcute Remix);
#ARTIST:t+pazolite;
#TITLETRANSLIT:;
#SUBTITLETRANSLIT:;
#ARTISTTRANSLIT:;
#GENRE:;
#CREDIT:;
#MUSIC:Daily Lunch Special (tpz Overcute Remix).ogg;
#BANNER:Daily Lunch Special (tpz Overcute Remix).png;
#BACKGROUND:Daily Lunch Special (tpz Overcute Remix)-bg.png;
#CDTITLE:;
#SAMPLESTART:76.633;
#SAMPLELENGTH:12.000;
#SELECTABLE:YES;
#OFFSET:-0.146;
#BPMS:0.000=120.000
,48.000=240.000
,67.000=120.000
,68.000=240.000
,80.000=120.000
,82.000=240.000
,96.000=120.000
,97.000=240.000
,113.000=120.000
,145.000=60.000
,151.500=120.000
,152.500=240.000
,153.000=120.000
,173.000=240.000
,237.000=120.000
,269.000=240.000
,283.000=120.000
,284.000=240.000
;
#STOPS:48.000=0.750
,152.500=0.850
;
#SPEEDS:0.000=1.000=0.000=0;
#SCROLLS:0.000=1.000;
#TICKCOUNTS:0.000=4;
#TIMESIGNATURES:0.000=4=4;
#LABELS:0.000=Song Start;
#COMBOS:0.000=1;
#ORIGIN:;
#PREVIEWVID:;
#JACKET:;
#CDIMAGE:;
#DISCIMAGE:;
#BGCHANGES:;
#FGCHANGES:;

//--------------- dance-single - ----------------
#NOTEDATA:;
#STEPSTYPE:dance-single;
#DESCRIPTION:;
#DIFFICULTY:Hard;
#METER:17;
#RADARVALUES:0.778503,1.482036,0.362178,0.126341,0.598016,647,604,43,15,0,0,0,0,0,0.778503,1.482036,0.362178,0.126341,0.598016,647,604,43,15,0,0,0,0,0;
#CHARTNAME:;
#CHARTSTYLE:;
#CREDIT:;
#NOTES:
0000
0000
0000
0000
,
0000
0000
0000
0000
,
0000
0000
0000
0000
,
0000
0000
0000
0000
,
0010
0000
0100
0000
1000
0000
0001
0000
0100
0010
0000
0002
0000
0000
0003
0100
,
0000
0100
1000
0000
0100
0010
0100
1000
0001
1000
0000
0010
0000
0100
0001
0100
,
1000
0000
0100
0000
1000
0001
0000
0020
0000
0000
0100
0000
0000
0100
0030
1000
,
0000
1000
0001
0000
0010
0000
0100
0010
0000
0001
1000
0010
0100
0000
0010
0000
,
1000
0000
0010
0000
0001
0000
0010
0000
1000
0001
0000
0200
0000
0000
0300
0010
,
0000
0010
1000
0000
0001
0100
0001
0010
0100
1000
0000
0100
0000
0010
0001
0010
,
0100
0000
1000
0000
0010
0100
0000
2000
0000
0000
0001
0000
0000
0001
3000
0010
,
0000
0010
0100
0000
0001
0000
0100
0100
0000
0010
1000
0010
0100
0000
0001
0000
,
0101
0000
0110
0000
0110
0000
1000
0001
,
1001
0000
0010
0000
0100
0010
0100
0001
,
0100
0000
0100
0010
1000
0001
0100
0000
,
0010
0010
0110
0000
0010
0100
0001
0100
,
0001
0100
0000
0010
0001
0010
0100
1100
,
0101
0000
1000
0010
1000
0010
0100
0000
,
0100
0001
0100
0010
0100
0000
0001
0001
,
1000
0000
0000
0000
0010
0000
0100
0000
1000
0000
0010
0100
0010
0000
0001
0000
,
1200
1000
1000
1300
0010
0000
1000
0001
,
0100
1000
0001
0000
0010
0100
0001
0100
,
0010
0000
1000
1000
0001
0000
0100
0010
,
0100
0001
0100
0010
0000
0001
1000
0100
,
0010
0011
1010
0000
0010
0100
0001
0100
,
0001
0000
1000
0010
1000
0001
0100
0000
,
0010
0010
0100
0000
1000
0100
0000
0001
,
0100
0010
0000
1000
0000
1000
0001
0100
,
0010
0000
0001
0000
1000
0000
1000
0010
0000
0000
0100
0000
0001
0000
0100
0010
,
0000
0000
1000
0001
0100
0000
0010
0100
0001
0000
0100
0000
0010
0000
0100
0001
,
0000
1001
0000
0000
0010
0000
0100
0000
0001
0000
0100
0000
0010
0000
0100
0000
,
0001
0000
1000
0001
0010
0000
0100
0010
0001
0000
1000
0000
0010
0000
0100
0000
,
0001
0010
0001
0010
0100
0000
0010
0000
0001
0000
0000
0000
0010
0000
1010
0000
,
0010
0000
0101
0101
0010
0001
0010
1001
,
0010
0000
0101
0010
0100
0001
0011
1000
,
0010
0000
0001
0000
1000
0000
0010
0000
1000
0000
0001
0000
0100
0001
0010
1000
,
0100
0000
0001
0000
0010
0000
0001
0000
1000
0000
0100
0010
0000
0100
0001
1000
0010
0000
0100
0001
0000
0100
0010
0001
0010
0000
0100
0001
0000
0001
1000
0010
,
0100
0000
0001
0100
0000
0010
0100
0001
1000
0000
1000
0010
0000
0100
0001
0100
0010
0000
1000
0001
0000
0100
0010
0100
0001
0000
1000
0001
0100
0000
0001
0000
,
0100
0000
0001
0000
2002
3003
0000
0000
0100
0000
0000
0000
0010
0000
0000
0000
1000
0000
0000
0000
0001
0000
0000
0000
0010
0000
0000
0000
0100
0000
0000
0000
,
0001
0000
1000
0100
1000
0000
0010
0000
0001
0010
0001
1000
0010
0100
0010
0001
,
0100
1000
0001
1000
0011
0000
0100
0010
0100
0001
0000
0001
1001
0000
1000
0001
,
1000
0100
0000
0010
0110
0000
0010
0000
1001
0000
0001
0001
0100
0010
0100
0001
,
1000
0001
0100
0000
0010
0010
0001
0001
0100
0100
1000
1000
0020
0000
0000
0000
,
0000
0030
1000
0001
1000
0001
0010
0100
,
0010
0100
0001
1000
0100
0010
1000
0100
,
0010
0000
0001
0000
0001
0000
1000
0000
0100
0000
1000
0000
0010
0000
0100
0010
,
0001
0100
0010
0001
0100
0010
1000
0001
,
0000
0001
1000
0100
0010
1000
0100
0001
,
1000
0100
0001
0010
0100
0010
1000
0010
,
0001
1000
1000
0010
0001
0010
0100
1000
,
0001
0100
0010
0001
0010
0001
1000
0000
,
0010
1001
0010
0101
,
0010
1100
0010
0101
,
0101
0010
0001
1000
0100
0010
1000
0001
,
0100
0010
1000
0001
0100
0010
1000
0010
,
0000
0010
0001
0000
0100
0010
0100
0001
,
0010
0001
1000
0010
1000
0001
0100
1000
,
0001
0010
0000
0010
1000
0000
0001
0000
,
0100
0010
0000
0100
0001
0100
0010
0001
,
0010
0000
0002
0000
0000
1000
0013
0100
0001
0100
0010
0100
0001
1000
0100
0010
,
0100
0001
0100
0010
2000
0000
0000
0000
3002
0000
0000
0000
0023
0000
0000
0000
,
0230
0000
0000
0001
0310
0000
0010
0000
0001
0000
0100
0000
0001
0000
1000
0000
,
0010
0000
0000
0100
0010
0000
1000
0100
0001
0000
0010
0000
1000
0000
1000
0000
,
0010
0001
0010
0001
0101
0000
0010
0000
1001
0000
0010
0000
1100
0000
0001
0000
,
0101
0000
0010
0100
0110
0100
0001
0000
0110
0010
1000
0010
1010
0001
0000
0001
,
0101
0100
0000
0010
1001
0000
0001
1000
0001
1000
0001
0100
0110
0010
0100
1000
,
0100
0010
0100
0001
0100
0100
0001
0001
1000
1000
0010
0010
0100
0010
0100
0010
,
0100
0001
1000
0001
0100
0000
0000
0000
0100
0000
0001
0000
0100
0000
1000
0000
,
0100
0000
0100
0010
1000
0001
0010
0000
,
1000
1000
1000
0000
0100
0010
0001
0010
,
1000
0001
0000
0100
0001
0010
1000
0101
,
0110
0000
0100
0010
0100
0001
0100
0000
,
0010
1000
0001
0100
0010
0000
0001
0010
,
1100
0000
1000
0101
0000
0100
0011
0001
,
0000
0110
0000
0010
2002
0000
0000
3003
;
