#TITLE:DEADHEAT;
#SUBTITLE:;
#ARTIST:DJ Myosuke;
#TITLETRANSLIT:;
#SUBTITLETRANSLIT:;
#ARTISTTRANSLIT:;
#GENRE:;
#CREDIT:;
#MUSIC:DEADHEAT.ogg;
#BANNER:DEADHEAT.png;
#BACKGROUND:DEADHEAT-bg.png;
#CDTITLE:;
#SAMPLESTART:32.249;
#SAMPLELENGTH:15.000;
#SELECTABLE:YES;
#OFFSET:0.151;
#BPMS:0.000=200.000
,172.000=100.000
,180.000=200.000
;
#STOPS:;
#ORIGIN:;
#PREVIEWVID:;
#JACKET:DEADHEAT-jacket.png;
#CDIMAGE:;
#DISCIMAGE:;
#BGCHANGES:;
#FGCHANGES:;

//--------------- dance-single - ----------------
#NOTES:
     dance-single:
     :
     Beginner:
     5:
     0,0,0,0,0:
0000
0000
0000
0000
,
1001
0000
0000
0000
,
1001
0000
0000
0000
,
0110
0000
0000
0000
,
0110
0000
0000
0000
,
1000
0000
1000
0000
,
0001
0000
0001
0000
,
0100
0000
0010
0000
,
0100
0000
0010
0000
,
0110
0000
0000
0000
,
0000
0000
0000
0000
,
1000
0000
0001
0000
,
1000
1000
1000
0000
,
0001
0000
0100
0000
,
0001
0001
0001
0000
,
0010
0000
0100
0000
,
0010
0010
0010
0000
,
0100
0000
1000
0000
,
0100
0100
0100
0000
,
2000
0000
0000
0000
,
3000
0000
0000
0000
,
0002
0000
0000
0000
,
0003
0000
0000
0000
,
0010
0000
0100
0000
,
0010
0000
0100
0000
,
0010
0010
0010
0000
,
0100
0100
0100
0000
,
1000
0000
0001
0000
,
1000
1000
1000
0000
,
0001
0000
1000
0000
,
0001
0001
0001
0000
,
0100
0000
0010
0000
,
0100
0100
0100
0000
,
0010
0000
0100
0000
,
0010
0010
0010
0000
,
1000
0000
0100
0000
,
1000
1000
1000
0000
,
0001
0000
0010
0000
,
0001
0001
0001
0000
,
0100
0000
0001
0000
,
0100
0100
0100
0000
,
0010
0000
1000
0000
,
0010
0010
0010
0000
,
0110
0000
0000
0000
,
0000
0000
0000
0000
,
0001
0000
1000
0000
,
0001
0000
0001
0000
,
1000
0000
0001
0000
,
1000
0000
1000
0000
,
0010
0000
0100
0000
,
0010
0000
0010
0000
,
0100
0000
0010
0000
,
0100
0000
0100
0000
,
1001
0000
0000
0000
,
1001
0000
0000
0000
,
0110
0000
0000
0000
,
0110
0000
0000
0000
,
0010
0010
0010
0000
,
0100
0000
1000
0000
,
0100
0000
0100
0000
,
0001
0000
0100
0000
,
0001
0000
0001
0000
,
0010
0000
0001
0000
,
0010
0000
0010
0000
,
0100
0000
0010
0000
,
0100
0100
0100
0000
,
1000
0000
0001
0000
,
1000
0000
0001
0000
,
0100
0000
0001
0000
,
0100
0000
0001
0000
,
1001
0000
0000
0000
,
0110
0000
0000
0000
,
1000
0000
0001
0000
,
1000
1000
1000
0000
,
0010
0000
0100
0000
,
0010
0000
0010
0000
,
0100
0000
0010
0000
,
0100
0000
0100
0000
,
1000
0000
0001
0000
,
1000
0000
1000
0000
,
0001
0000
1000
0000
,
0001
0000
0001
0000
,
0100
0000
0010
0000
,
0100
0100
0100
0000
,
0010
0000
1000
0000
,
0010
0010
0010
0000
,
1000
0000
0001
0000
,
1000
1000
1000
0000
,
0100
0000
0001
0000
,
0100
0100
0100
0000
,
0010
0000
0010
0000
,
0100
0000
0100
0000
,
0000
0110
0000
0000
;

//--------------- dance-single - ----------------
#NOTES:
     dance-single:
     :
     Easy:
     8:
     0,0,0,0,0:
0000
0000
0000
0000
,
1100
0000
0000
0000
,
1001
0000
0000
0000
,
0011
0000
0000
0000
,
0110
0000
0000
0000
,
0100
0000
1001
0000
,
0001
0000
0110
0000
,
0100
1000
0001
0010
,
0100
1000
0100
0010
,
1001
0000
0000
0000
,
0000
0000
0000
0110
,
1000
1000
0001
0001
,
1000
0001
0100
0000
,
0010
0010
0100
0100
,
0010
0100
0001
0020
,
0000
0130
0001
0000
,
0100
0010
1000
0000
,
0001
0100
0010
1000
,
0001
0100
0010
0000
,
1200
0000
0000
0000
,
0301
0000
0000
0100
,
0102
0000
0000
0000
,
0013
0000
0000
0000
,
1000
0000
0001
0000
,
0100
0000
0010
0000
,
1000
0001
0100
0010
,
1000
0100
0010
1001
,
0001
0010
0100
0001
,
0100
0010
1000
0000
,
0100
1000
0100
0010
,
0100
0001
0200
0300
,
0010
0001
0010
0001
,
0100
0010
1000
0000
,
0001
0100
0001
1000
,
0010
1000
0200
0300
,
1000
0100
0010
0100
,
0010
0001
0010
0000
,
0100
0001
1000
0001
,
1000
0010
0100
0100
,
0001
0100
0010
0100
,
0001
1000
0010
0100
,
1000
0100
0001
0100
,
0010
0100
0010
0000
,
0200
0000
0300
0000
,
0020
0000
0030
0000
,
1001
0000
0001
0000
,
1000
0010
1000
0000
,
0100
0000
0010
0000
,
0100
0010
0100
0000
,
0010
0000
0001
0000
,
0100
0001
1000
0000
,
0010
0000
0100
0000
,
1000
0100
0010
0000
,
0100
0000
0110
0000
,
0001
0000
1001
0000
,
0100
0010
0100
1000
,
0100
0010
0100
0001
,
1000
1000
1000
1001
,
0001
0010
0001
0100
,
0010
0100
0001
0000
,
1000
0010
0100
0001
,
0100
0010
0100
0002
,
0003
0001
1000
0010
,
0100
1000
0100
0000
,
1000
0100
0010
0100
,
0010
0010
0020
0030
,
0001
0010
0001
0100
,
0001
1000
0001
0000
,
0010
0100
0010
0100
,
0001
0100
0010
0000
,
1100
0000
0000
0000
,
0101
0000
0000
0000
,
0010
0001
0010
0100
,
0010
0100
0010
0000
,
1000
0001
1000
0001
,
1000
0100
1000
0000
,
0010
0001
0010
0100
,
0001
0100
0010
0100
,
0010
1000
0001
1000
,
0010
0100
1000
0000
,
0001
0100
0010
0100
,
0001
0100
0001
0001
,
1000
0001
0100
0010
,
0100
0001
1000
0000
,
0100
0010
0100
0010
,
1000
0001
0100
0000
,
0010
0001
1000
0001
,
0010
0100
1000
0000
,
0001
1000
0010
0100
,
0001
1000
0001
0000
,
1000
0000
0000
0001
0000
0000
0100
0000
,
0000
0010
0000
0000
1000
0000
0001
0000
,
0000
1001
0000
0000
;

//--------------- dance-single - ----------------
#NOTES:
     dance-single:
     :
     Medium:
     11:
     0,0,0,0,0:
0000
0000
0000
0000
,
1000
0000
0000
0000
0000
0001
0000
0000
,
1000
0000
0000
0000
0000
0010
0000
0100
,
0100
0000
0000
0000
0000
0010
0000
0000
,
1000
0000
0000
0100
0000
1000
0000
0010
,
0001
0010
0100
1000
,
0100
0010
0100
0001
,
1000
0010
1000
0000
0100
0010
0100
0000
,
1000
0010
0100
0001
,
0200
0010
0010
0010
,
0001
0002
0303
1001
,
1000
0001
1000
0010
,
0100
0000
0000
0001
0000
0000
0100
0000
0000
0010
0000
1000
,
0100
0000
0000
0010
0000
0000
0100
0000
0000
0001
0000
0100
,
1000
0010
0100
1002
,
0000
0000
0000
0103
0000
0100
0001
0000
0000
0100
0000
1000
,
0010
1000
0010
0100
,
0010
0000
0000
0100
0000
0010
0001
0000
0000
0100
0000
0001
,
0010
0100
0001
1000
,
0012
0000
1000
0000
,
0013
0000
0010
0100
,
0120
0000
1000
0000
,
0130
0001
0100
0110
,
1000
0100
0001
0100
,
0010
0100
0001
0100
,
0010
1000
0010
0000
1000
0001
1000
0000
,
0010
0100
0001
1010
,
0100
0001
0100
0010
,
1000
0000
0001
0000
0100
0000
0010
0001
,
0010
0100
0010
0100
,
0010
0100
1000
0000
0010
0000
0010
0000
,
0100
1000
0100
0000
0001
0000
0100
0000
,
0010
0000
1000
0000
0001
0000
1000
0010
,
1000
0001
0100
0010
,
1000
0001
0010
0001
1000
0000
0110
0000
,
0100
0001
0100
0010
,
1000
0000
0001
0000
0100
0010
0100
0001
,
0100
0010
1000
0010
,
1000
0001
1000
0000
0001
0000
0101
0000
,
0010
0100
0010
0000
0100
0000
0001
0000
,
0100
0010
0100
0001
,
1000
0000
0010
0000
0010
1000
0100
1000
,
0001
0100
0010
0100
,
0001
1000
0001
1000
,
0010
0000
0100
0000
0010
0000
0100
0100
,
0010
0000
0000
0100
0001
0000
0000
0100
,
0000
0100
0000
1000
0010
0000
0100
0000
,
0001
0000
0000
0100
0001
0000
0000
1000
,
0000
1000
0000
0001
1000
0000
0010
0000
,
0100
0000
0000
0010
0100
0000
0000
0001
,
0000
0001
0000
0100
0001
0000
0100
0000
,
0010
0000
0000
0100
0000
0000
0001
0000
,
0000
1000
0000
0000
0100
0000
0010
0000
,
1000
0000
1001
0000
,
0001
0000
1001
0000
,
1000
1001
0001
1001
,
0001
0100
0001
0100
,
0010
0010
0010
0110
,
0100
0010
0100
0001
,
0100
0010
1000
1001
,
0001
1000
0010
0100
,
0010
1000
0010
0021
,
0000
0031
0010
1000
,
0010
0001
0010
1100
,
1000
1000
0001
0001
,
0100
0000
0001
0000
1000
0000
0200
0000
0000
0310
0000
0000
,
0100
1000
0001
0100
,
0010
0100
0001
0100
,
0001
1000
0001
1000
,
0010
1000
0001
1000
,
2001
3000
0001
0000
,
0120
0030
0100
0000
,
0100
0010
0100
0001
,
0100
0001
0100
0010
,
1000
0100
1000
0000
0001
0000
0100
0000
,
0010
1000
0001
0010
,
0100
1000
0100
0000
0001
0000
0100
0000
,
0010
1000
0001
0100
,
0001
0010
0001
0000
0100
0000
0010
0000
,
0100
0001
1000
0010
,
0100
0010
0100
0000
0010
0000
0100
0000
,
0001
1000
0001
0001
,
0100
0001
0100
0000
0001
0000
0100
0000
,
0010
1000
0001
0100
,
0010
1000
0010
0000
1000
0000
0100
0000
,
1000
0010
0100
0001
,
0100
0010
0100
0000
0010
0000
0100
0000
,
0001
1000
0001
1000
,
0010
1000
0010
0000
1000
0000
0001
0000
,
0100
0010
0100
0001
,
1000
0000
0000
0001
0000
0000
0100
0000
,
0000
0001
0000
0000
0100
0000
0010
0000
,
0000
0000
0000
0000
0220
0000
0000
0000
0000
0330
0000
0000
0000
0000
0000
0000
;

//--------------- dance-single - ----------------
#NOTES:
     dance-single:
     :
     Hard:
     17:
     0.785532,1.050302,0.320478,0.050602,0.657823,652,614,38,6,0,0,0,0,0,0.785532,1.050302,0.320478,0.050602,0.657823,652,614,38,6,0,0,0,0,0:
0000
0000
0000
0000
,
0101
0000
0000
0000
0000
1010
0000
0000
,
1100
0000
0000
0000
0000
0011
0000
0100
,
0101
0000
0000
0000
0000
1001
0000
0000
,
0110
0000
0000
0000
0000
0000
0101
0000
0000
0000
0011
0000
0000
0000
0100
0010
,
0100
0000
0010
0000
0001
0000
1000
0100
,
0010
0000
0000
0000
0100
0000
0000
0000
0001
0000
1000
0000
0010
0000
1000
0100
,
0001
0010
0001
0010
0100
0001
0100
0010
,
1000
0100
0001
0010
0100
1000
0010
0100
0001
0010
0100
1000
0010
0100
0001
1000
,
0100
0000
0000
0000
0010
0000
0010
0000
0010
0000
0001
0010
0001
0010
0001
0010
,
0001
1000
0001
0000
0100
0000
0110
0000
,
1000
0000
0000
1000
0000
1000
0010
0100
0001
0100
0000
0100
,
0001
0000
0000
0010
0000
0010
0001
0000
0100
0010
0000
0001
,
0100
0000
0000
0100
0000
0100
0010
0100
0010
0001
1000
0001
,
0200
0000
0000
0310
0000
1000
0010
0001
1000
0020
0000
0000
,
0000
0030
0100
0010
1000
0100
0001
0000
0000
0001
0000
0010
,
0001
0000
0000
0001
0000
0000
0001
1000
0001
0100
0000
0100
,
0010
0000
0000
0001
0000
0100
1000
0000
1000
0001
1000
0001
,
0200
0320
0230
0302
,
1003
0000
0000
0010
0000
0000
0100
0000
0000
0001
0000
0010
,
0100
0000
0000
0010
0000
0001
0100
0010
1000
0001
0100
0001
,
1000
0000
0000
0100
0000
0000
1000
0000
0000
0100
0000
0010
,
0100
0000
0000
0000
0000
0000
0010
0000
0000
0000
0000
0000
0001
0000
0000
0000
0000
0000
1000
0001
1000
0000
0000
0000
,
0001
0100
1000
0100
,
0010
0000
0000
0000
1000
0000
0000
0000
0010
0000
0010
0100
0010
0100
0010
0100
,
0001
0000
1000
0001
0000
1000
0001
0000
0100
0001
0000
0100
0001
0000
0010
0000
,
0020
0100
1030
1001
,
0010
0010
0010
0000
0100
0000
0001
0000
,
1000
0000
0000
0000
0100
0000
0000
0000
0010
0001
0010
0000
0001
0000
0001
0000
,
0100
0001
0100
0010
,
0010
1000
0010
0000
0100
0010
0100
0000
0001
0000
0000
0000
0110
0000
0000
0000
,
1000
1000
1000
0000
0100
0000
0001
0000
,
0100
0000
0000
0000
0010
0000
0000
0000
1000
0000
0100
0000
0001
0010
0100
0000
,
0001
0000
0000
0000
0010
0000
0000
0000
0001
0000
0001
0000
0010
0100
0001
0100
,
0010
0000
0100
1001
,
1000
0000
0000
0000
0010
1000
0100
0000
0001
0000
1000
0100
0010
0001
1000
0010
,
0100
0100
0001
0000
0100
0000
0010
0001
,
0010
0000
0000
0000
1000
0000
0000
0000
0001
0000
0000
0000
0100
1000
0001
1000
,
0010
0000
0110
0000
0100
0000
0110
0000
0001
1000
0001
0000
0010
0000
0010
0000
,
0001
0000
0000
0000
1000
0000
1000
0000
0010
0000
0000
0010
0000
0000
0001
0000
,
0100
0000
0000
0000
0010
0000
0000
0000
1000
0000
0000
0000
0001
0100
1000
0000
,
0010
0000
0100
0000
0001
1000
0001
0010
,
0100
0001
1000
0001
0010
0100
0001
0100
1000
0010
0001
1000
0010
0000
0000
0000
,
0110
0000
0000
0000
1000
0000
0000
0001
1000
0001
0100
0000
0010
0000
0000
0000
,
0100
0000
0000
0000
0000
0000
0000
0000
0010
0000
0000
0000
0000
0000
1000
0000
0100
0000
1000
0000
0100
0000
0000
0000
0010
0000
0000
0000
0100
0001
0100
0001
,
1000
0000
0001
0100
0100
0000
0001
0010
,
0000
0100
0000
0001
0001
0000
1001
0000
,
0100
0000
1000
0010
0100
0000
0010
0001
,
0000
0000
0001
0000
0000
0000
1000
0001
0010
0000
0000
0000
0110
0000
0000
0000
,
0100
0000
1000
0001
0100
0000
0001
0010
,
0000
0010
0100
1000
0100
0000
0110
0000
,
0001
0000
0001
0100
0000
0100
0001
0010
,
0000
1000
0001
0010
0001
0000
0010
0000
,
2000
3000
1001
0000
,
0002
0003
0110
0000
,
0200
0300
0110
0000
0020
0030
1001
0000
,
0100
0000
0001
0100
0001
0100
0010
0000
0010
0010
0000
0000
,
1000
0100
0001
1000
0100
0001
1000
0100
0001
1001
0000
0000
,
0100
0000
0100
0010
0000
0000
0100
0000
0000
0100
0000
0000
,
0001
0000
0010
0001
0010
0100
1000
0000
0001
0100
0000
0000
,
0010
0100
0000
0001
0000
0000
1000
0000
0000
0001
0000
1000
,
0100
0000
0010
0100
0000
0000
0100
0000
0000
1001
0000
0000
,
1000
0000
0000
0100
0010
0100
0001
0000
0001
0100
1000
0001
,
0010
0000
0000
0010
0000
0001
0100
0000
1000
0001
0000
0000
,
0100
0000
0000
0010
1000
0001
0100
1000
0100
0010
1000
0100
,
1001
0000
1001
0000
1001
0000
0010
0000
0000
0110
0000
0000
,
0001
1000
0010
0100
0000
0000
0010
0000
0000
0001
0000
0000
,
0010
0000
0000
0100
0000
0000
0001
0000
0010
1000
0000
0000
,
0200
0310
0001
0010
,
0001
1000
0001
0010
0100
1000
0010
1000
0001
0100
0000
0000
,
0110
1000
1000
1000
,
1001
0000
0000
0000
0010
0000
0000
0000
0010
0000
0000
0000
0010
0100
0000
0000
,
0010
1000
0010
0000
0100
0000
0100
0001
0000
0010
0001
0000
0010
0000
0100
0000
,
0010
0001
0010
0000
1000
0000
0001
1000
0010
0100
0001
0010
0100
0000
0100
0000
,
0001
0001
0001
0000
1000
0000
0010
0000
,
0100
0000
0000
0000
0001
0000
0000
0000
0100
0001
0100
0001
0010
0000
1000
0000
,
1000
1000
1000
0000
0010
0000
0100
0000
,
0010
0000
0100
0000
0001
0000
0100
0000
1000
0100
0010
1000
0100
0000
0000
0000
,
0100
0100
0100
0000
0100
0000
0001
0000
,
1000
0000
0000
0000
0010
0000
0000
0000
0100
0010
0100
0010
0001
0000
0001
0100
,
1000
1000
0010
0000
0100
0000
0001
0000
,
1000
0000
0010
0000
0100
0000
0010
0000
0001
1000
0001
1000
0001
0000
0001
0000
,
0100
0100
0010
0000
0100
0000
0001
0000
,
0100
0000
0000
0000
0010
0000
0000
0000
0100
1000
0010
0000
0001
0000
0010
0000
,
1000
1000
0010
0000
0100
0000
0001
0000
,
0100
0000
0100
0000
0010
0000
0010
0000
1000
0010
0001
0010
0100
0000
1000
0000
,
0010
0000
0010
0000
0010
0000
0000
0000
0100
0000
0000
0000
0001
0000
0010
1000
,
0100
0000
0001
0000
0010
0000
0000
0000
1000
0000
1000
0000
0001
0000
0010
0001
,
0100
0000
0010
0000
0100
0000
0000
0000
0100
0000
0010
0000
1000
0100
1000
0100
,
0001
0000
0100
0000
0001
0000
0100
0000
0001
0100
1000
0100
0010
0000
0010
0000
,
1001
0000
0000
1000
0001
0000
0110
0000
0000
0010
0100
0000
1100
0000
0000
0001
,
1000
0000
1010
0000
0000
0010
0001
0000
0101
0000
0100
0000
0011
0000
0010
0000
,
0000
2002
3003
0000
;
