#TITLE:DAWN OF FALCON;
#SUBTITLE:;
#ARTIST:L.E.D.-G;
#TITLETRANSLIT:;
#SUBTITLETRANSLIT:;
#ARTISTTRANSLIT:;
#GENRE:;
#CREDIT:;
#BANNER:DAWN OF FALCON.png;
#BACKGROUND:DAWN OF FALCON-bg.png;
#LYRICSPATH:;
#CDTITLE:;
#MUSIC:DAWN OF FALCON.ogg;
#OFFSET:-0.284505;
#SAMPLESTART:40.542999;
#SAMPLELENGTH:15.000000;
#SELECTABLE:YES;
#BPMS:0.000000=155.000000
;
#STOPS:64.000000=1.548000
;
#BGCHANGES:;
#KEYSOUNDS:;
#ATTACKS:;

//---------------dance-single - ----------------
#NOTES:
     dance-single:
     :
     Hard:
     13:
     0.505785,0.568484,0.499301,0.172486,0.308659,390.000000,335.000000,55.000000,19.000000,0.000000,0.000000,0.505785,0.568484,0.499301,0.172486,0.308659,390.000000,335.000000,55.000000,19.000000,0.000000,0.000000:
0000
0000
0000
0000
,
0000
0000
0000
0000
,
0000
0000
0000
0000
,
0000
0000
0000
0000
,
0000
0000
0000
0000
,
0000
0000
0000
0000
,
0000
0000
0000
0000
,
0000
0000
0000
0000
,
2001
0000
3010
0000
0100
0001
0100
0010
,
0200
0000
0301
0002
0000
0010
1003
0000
,
0021
0000
0130
0000
1000
0001
1000
0100
,
0020
0000
0000
1000
0030
0000
1002
0000
0000
0000
0100
0000
0103
0000
0000
0000
,
0010
1000
0010
0000
0100
0010
0100
0000
,
0001
0010
0100
0010
0100
1000
0001
0000
,
1000
1000
0100
0100
0010
1000
0010
0100
,
0010
0000
0000
1010
0000
0000
0100
0000
0000
1100
0000
0000
0001
0000
0000
0000
,
0210
0301
0011
1001
,
0001
0011
0010
0110
,
0100
1100
1000
1010
,
0010
0100
1000
0010
,
1100
0000
1010
0000
1000
1000
0001
0001
,
1000
0101
0100
1010
,
0010
1001
1100
0110
,
0100
0000
0100
0000
0001
0000
0001
0000
0010
0000
1000
0000
0100
0000
0010
0001
,
0020
0000
0000
0000
0000
0000
0030
0000
1000
0100
0000
1000
0000
0001
0010
0000
,
0100
0000
0010
1000
0001
0000
0001
1000
,
0010
0000
0100
0000
0010
0000
0100
0000
0001
0000
1000
0000
0001
0000
0100
0010
,
0100
0000
0000
0000
1000
0000
0010
1000
0010
0000
0001
0000
0100
0000
0000
0000
,
1001
0000
0100
1100
0000
0110
0000
0001
,
1000
0000
0010
1000
0001
0000
0010
0100
,
0010
0000
0001
0000
0010
0000
1000
0000
0100
0000
0010
0000
0100
0000
0001
1000
,
0001
0000
0000
0000
0100
0000
0001
0100
0001
0000
0000
0000
1000
0000
0010
0000
,
1000
1000
0100
0100
0020
0001
0230
0001
,
1300
0000
0000
0000
0010
0000
0010
0100
0010
0000
0000
0000
0001
0000
0010
0000
,
1000
0000
0001
0000
0000
0000
0011
0000
0000
0000
0110
0000
0000
0000
0001
1000
,
0001
0000
0000
0000
0100
0000
0100
0001
0100
0000
0000
0000
1000
0000
0001
0000
,
0110
0000
0000
0000
0010
0000
1010
0000
0000
0000
0011
0000
0000
0000
0001
0100
,
0001
0010
1000
0001
1000
0010
0100
0001
,
0100
0100
0010
0010
1000
1000
0001
0001
,
0100
0000
0010
0000
1000
0000
0000
0000
0100
0000
0000
0110
0000
0000
1000
0100
,
1000
0000
0000
1010
0000
0000
0010
0000
0001
0010
0000
1001
0000
0000
0100
0001
,
0200
0000
0000
0000
,
0000
0000
0000
0000
,
0320
0000
0000
0000
,
2030
0000
0000
0000
0000
0000
3001
0010
0001
0100
1000
0010
,
0100
0001
1000
0010
,
0100
0000
0000
0001
0000
0000
0100
0000
1000
0001
0000
0100
,
0010
0000
0000
1010
0000
0000
0001
0000
0000
1001
0000
1000
,
0010
0000
0000
0110
0000
0000
0001
1000
0010
1000
0000
1000
,
0001
0000
0000
0110
0000
0000
1100
0000
0000
0010
1000
0100
,
0001
0000
0000
0011
0000
0000
1000
0100
0001
0010
0100
0001
,
0010
0000
0000
1010
0000
0000
0101
0000
0000
0001
1000
0001
,
0100
0000
0000
1001
0000
0000
0010
1000
0100
0010
0001
1000
,
0100
0101
1000
1010
,
0100
0000
0000
0110
0000
0000
0001
0000
0001
0100
0000
0100
,
0010
0000
0100
0010
0000
1000
0100
0000
0011
0000
1010
0000
,
2002
0000
0000
3000
0000
0000
0100
0000
0000
0100
0000
0003
,
1000
0000
0000
1010
0000
0000
0100
0000
0001
0100
0000
0010
,
0001
0000
0000
0110
0000
0000
0001
0000
0100
0010
0001
0010
,
1000
0000
0000
0101
0000
0000
1000
0000
0010
0100
0000
0010
,
0001
0000
0000
1100
0000
0000
1000
0000
0110
0000
0001
1000
,
0010
0000
0000
0100
0000
0000
0101
0000
0000
1000
0100
1000
,
0010
0000
0000
1000
0000
0000
1100
0000
0000
0010
1000
0001
,
0100
0000
0000
0001
0000
0011
0000
0000
1000
0100
0000
0000
,
2002
0000
0000
3003
0000
0000
0010
1000
0010
0001
0000
0001
,
2200
0000
0000
0000
0000
0000
0000
0000
0000
0000
0000
3300
;

//---------------dance-single - ----------------
#NOTES:
     dance-single:
     :
     Medium:
     8:
     0.364425,0.442562,0.208799,0.281424,0.099860,281.000000,258.000000,23.000000,31.000000,0.000000,0.000000,0.364425,0.442562,0.208799,0.281424,0.099860,281.000000,258.000000,23.000000,31.000000,0.000000,0.000000:
0000
0000
0000
0000
,
0000
0000
0000
0000
,
0000
0000
0000
0000
,
0000
0000
0000
0000
,
0000
0000
0000
0000
,
0000
0000
0000
0000
,
0000
0000
0000
0000
,
0000
0000
0000
0000
,
0010
0000
1000
0000
1010
0000
0100
0001
,
0100
0000
0100
1000
0000
1000
0010
0000
,
0001
0000
0100
0000
0101
0000
0010
1000
,
0010
0000
0010
0001
0000
0001
0100
0000
,
0100
0010
1000
0010
,
0001
1000
0100
1000
,
0001
1000
0001
0000
0100
1000
0100
0000
,
1001
0000
0000
0001
0000
0000
0011
0000
0000
0100
0000
0000
0220
0000
0000
0000
,
0330
1000
0100
0100
,
0020
0130
2000
3100
,
0002
0100
0010
0103
,
1000
1000
0001
0001
,
0010
0000
1010
0000
0010
0100
0010
0100
,
0200
0310
0002
0013
,
2000
0010
0001
3010
,
0010
1000
0100
0000
0001
0010
0100
0000
,
0202
0300
1000
1003
,
0010
0000
1000
0100
1000
0000
0010
0100
,
0010
0001
0000
1001
0000
1010
0000
0010
,
1000
0000
0100
0010
0001
0000
0100
0010
,
0100
0000
0100
0001
0000
1010
0000
1000
,
0010
0000
0100
0001
0010
0000
0010
1000
,
0100
0000
1000
0010
0000
0100
0000
0001
,
0001
0000
0001
1000
0010
0000
0010
0100
,
0001
0100
1000
0000
0011
0000
0101
0000
,
0020
1000
0100
0031
,
0100
0001
0100
1100
,
2000
0001
0010
3100
,
0001
0000
0001
0010
0000
1001
0000
0100
,
0200
0001
1000
0310
,
0100
1000
0001
0000
0010
1000
0100
0000
,
0001
0000
1000
0000
0010
0000
1000
0000
0001
0000
0000
0100
0000
0000
0010
0000
,
1000
0000
0000
0001
0000
0000
0010
0000
0100
0000
0000
1000
0000
0000
0100
0000
,
0220
0000
0000
0000
,
0000
0000
0000
0330
,
0020
0000
0000
0000
,
2000
0030
0010
3010
,
0001
0100
0010
0100
,
1000
0001
0100
1000
,
0010
0010
0001
0001
,
0010
0000
0000
1000
0000
0000
0001
0000
0001
0100
0000
0000
,
2000
0000
0000
3020
0000
0000
2030
0000
0000
3100
0000
0100
,
0002
0000
0000
0203
0000
0000
0301
0000
0001
1000
0000
1000
,
0020
0000
0000
0230
0000
0000
0320
0000
0000
1030
0000
1000
,
0002
0000
0000
2003
0000
0000
3010
0000
0100
0010
0000
0100
,
0001
1000
0100
0001
,
0100
0001
0010
0001
,
1100
0000
0000
0110
0000
0000
0010
0000
0100
0000
0001
0000
,
2002
0000
3000
0003
,
0001
0000
0000
1000
0000
0000
0010
0000
0000
0100
0000
1000
,
0100
0000
0000
0001
0000
0000
0010
0000
0010
1000
0000
1000
,
0001
0000
0000
1000
0000
0000
0001
0000
0000
0010
0000
0100
,
0010
0000
0000
1000
0000
0000
0100
0000
0100
0001
0000
0001
,
0010
0100
0001
1100
,
0100
1000
0100
0101
,
0110
0000
0000
0001
0000
0001
0000
0000
1000
0100
0000
0000
,
0022
0033
1000
0001
,
0110
0000
0000
0000
;

//---------------dance-single - ----------------
#NOTES:
     dance-single:
     :
     Easy:
     5:
     0.255486,0.299297,0.090782,0.245111,0.000000,197.000000,187.000000,10.000000,27.000000,0.000000,0.000000,0.255486,0.299297,0.090782,0.245111,0.000000,197.000000,187.000000,10.000000,27.000000,0.000000,0.000000:
0000
0000
0000
0000
,
0000
0000
0000
0000
,
0000
0000
0000
0000
,
0000
0000
0000
0000
,
0000
0000
0000
0000
,
0000
0000
0000
0000
,
0000
0000
0000
0000
,
0000
0000
0000
0000
,
1000
0001
0000
1000
,
0010
0010
0100
0001
,
0010
0100
0000
1000
,
0001
0001
0010
0001
,
2000
3000
0100
0100
,
0002
0003
0010
0010
,
0100
0010
1000
0100
,
0010
0001
0100
0100
,
0000
0000
1001
0000
,
0010
0010
0100
0100
,
1000
0001
1000
1000
,
0010
0001
0100
0010
,
0200
0300
0220
0330
,
0010
0100
1000
0100
,
0001
1000
0010
0010
,
1000
0100
0001
0010
,
0200
0300
0010
0010
,
2000
3000
0100
1000
,
0010
1000
0001
0001
,
0020
0030
0100
0010
,
1000
1000
0001
0010
,
0002
0003
0100
0001
,
0010
0001
0100
0001
,
0200
0300
0100
1000
,
0010
0010
1000
0100
,
0220
0330
0100
1000
,
0100
0001
0010
0001
,
2002
3003
0010
1000
,
0100
0100
1000
0010
,
0220
0330
0001
0001
,
2002
3003
0010
0010
,
1000
0100
0001
0010
,
0100
0100
1000
0100
,
1001
0000
0000
0000
,
0000
0000
0000
0000
,
0110
0000
0000
0000
,
1001
0000
0000
0000
,
0010
1000
1000
0000
,
0100
0001
0001
0000
,
0001
1000
0010
1000
,
0001
0100
0100
0000
,
2000
3000
0010
0100
,
0200
0300
0001
1000
,
0020
0030
0001
1000
,
2000
3000
0001
0010
,
0100
0100
0001
0001
,
0010
0010
1000
1000
,
0001
0100
1000
0100
,
2002
0000
3003
0000
,
0010
0100
0010
0100
,
1000
0100
0001
0100
,
1000
0001
0010
0001
,
0100
0001
1000
1000
,
0010
0001
0010
0001
,
1000
0010
1000
0010
,
0100
0100
0001
0001
,
2000
3000
0010
0200
,
0020
0000
0000
0000
0000
0000
0000
0000
0000
0000
0000
0000
0000
0000
0000
0330
;

//---------------dance-single - ----------------
#NOTES:
     dance-single:
     :
     Beginner:
     2:
     0.121907,0.206529,0.072626,0.027235,0.000000,94.000000,86.000000,8.000000,3.000000,0.000000,0.000000,0.121907,0.206529,0.072626,0.027235,0.000000,94.000000,86.000000,8.000000,3.000000,0.000000,0.000000:
// measure 0
0000
0000
0000
0000
,  // measure 1
0000
0000
0000
0000
,  // measure 2
0000
0000
0000
0000
,  // measure 3
0000
0000
0000
0000
,  // measure 4
0000
0000
0000
0000
,  // measure 5
0000
0000
0000
0000
,  // measure 6
0000
0000
0000
0000
,  // measure 7
0000
0000
0000
0000
,  // measure 8
1000
0000
0000
0000
,  // measure 9
0001
0000
0001
0000
,  // measure 10
0001
0000
0000
0000
,  // measure 11
0100
0000
0100
0000
,  // measure 12
0100
0000
0000
0000
,  // measure 13
0010
0000
0010
0000
,  // measure 14
0010
0000
0000
0000
,  // measure 15
1000
0000
1000
0000
,  // measure 16
0000
0000
0000
0000
,  // measure 17
1001
0000
0000
0000
,  // measure 18
0100
0000
0000
0000
,  // measure 19
0001
0000
0000
0000
,  // measure 20
0010
0000
0000
0000
,  // measure 21
0110
0000
0000
0000
,  // measure 22
1000
0000
0000
0000
,  // measure 23
0100
0000
0000
0000
,  // measure 24
1001
0000
0000
0000
,  // measure 25
0010
0000
0010
0000
,  // measure 26
0010
0000
0010
0000
,  // measure 27
1000
0000
1000
0000
,  // measure 28
1000
0000
1000
0000
,  // measure 29
0100
0000
0100
0000
,  // measure 30
0100
0000
0100
0000
,  // measure 31
0001
0000
0001
0000
,  // measure 32
0002
0000
0003
0000
,  // measure 33
1000
0000
0001
0000
,  // measure 34
1000
0000
0001
0000
,  // measure 35
0100
0000
0010
0000
,  // measure 36
0100
0000
0010
0000
,  // measure 37
1000
1000
1000
0000
,  // measure 38
0001
0001
0001
0000
,  // measure 39
0100
0000
0100
0000
,  // measure 40
0010
0000
0010
0000
,  // measure 41
0110
0000
0000
0000
,  // measure 42
0000
0000
0000
0000
,  // measure 43
0000
0000
0000
0000
,  // measure 44
0000
0000
0000
0000
,  // measure 45
1001
0000
0000
0000
,  // measure 46
0000
0000
0000
0000
,  // measure 47
0000
0000
0000
0000
,  // measure 48
0000
0000
0000
0000
,  // measure 49
1000
0000
0001
0000
,  // measure 50
2000
0000
3000
0000
,  // measure 51
0010
0000
0100
0000
,  // measure 52
0020
0000
0030
0000
,  // measure 53
0100
0100
0100
0000
,  // measure 54
1000
1000
1000
0000
,  // measure 55
0001
0000
1000
0000
,  // measure 56
1001
0000
0000
0000
,  // measure 57
0010
0000
0010
0000
,  // measure 58
0100
0000
0010
0000
,  // measure 59
0100
0000
0100
0000
,  // measure 60
1000
0000
0100
0000
,  // measure 61
1000
0000
1000
0000
,  // measure 62
0001
0000
0001
0000
,  // measure 63
0100
0000
0010
0000
,  // measure 64
0110
0000
0000
0000
,  // measure 65
1001
0000
0000
0000
;
