#TITLE:Crystalia;
#SUBTITLE:;
#ARTIST:DJ TOTTO;
#TITLETRANSLIT:;
#SUBTITLETRANSLIT:;
#ARTISTTRANSLIT:;
#GENRE:;
#CREDIT:;
#BANNER:Crystalia.png;
#BACKGROUND:Crystalia-bg.png;
#LYRICSPATH:;
#CDTITLE:;
#MUSIC:Crystalia.ogg;
#OFFSET:0.556281;
#SAMPLESTART:91.663002;
#SAMPLELENGTH:15.000000;
#SELECTABLE:YES;
#BPMS:0.000000=135.000000
,52.000000=90.000000
,60.000000=270.000000
,252.000000=90.000000
,284.000000=270.000000
,380.000000=90.000000
;
#STOPS:379.750000=0.889000
;
#BGCHANGES:;
#KEYSOUNDS:;
#ATTACKS:;

//---------------dance-single - ----------------
#NOTES:
     dance-single:
     :
     Hard:
     15:
     0.640433,0.722638,0.585470,0.535287,0.041819,536.000000,466.000000,70.000000,64.000000,0.000000,0.000000,0.640433,0.722638,0.585470,0.535287,0.041819,536.000000,466.000000,70.000000,64.000000,0.000000,0.000000:
0000
0000
0000
0000
,
2002
0000
0000
0000
0000
0000
0003
0000
0000
0000
0000
0000
0020
0000
0000
0030
,
0000
0000
0200
0000
0000
3300
0000
0000
0220
0000
0000
0030
0000
0000
2000
0000
,
0000
0000
0000
0000
0000
0000
0000
3300
0000
0000
0010
0000
1000
0000
0001
0000
,
0202
0000
0000
0000
0000
0000
0300
0000
0000
0000
0000
0000
0020
0000
0000
0030
,
0000
0000
2000
0000
0000
3003
0000
0000
2020
0000
0000
0000
0000
0000
0030
0000
,
0000
0000
0000
0000
0200
0000
0000
0000
0000
0000
0000
3300
0000
0000
0000
0000
,
0220
0000
0000
0000
0000
0000
0300
0000
0000
0000
0000
0000
0002
0000
0000
0003
,
0000
0000
2000
0000
0000
3030
0000
0000
2200
0000
0000
0300
0000
0000
0002
0000
,
0000
3000
0000
0000
0020
0000
0000
0033
0000
0000
0100
0000
1000
0000
0001
0000
,
0202
0000
0000
0003
0000
0000
0320
0000
,
0000
0000
2030
0000
0000
3000
0000
0000
2002
0000
0000
0000
0000
0000
0003
0000
,
0000
0000
0020
0000
0000
3030
0000
0000
,
1001
0001
0010
0100
,
1000
0100
0010
0001
,
1010
1010
0000
0101
,
0101
0000
0011
0011
,
0000
1100
0010
0001
,
0110
0110
0000
1100
,
1100
0000
1001
1001
,
0000
0101
0010
0100
,
1100
1100
0000
0011
,
0011
0000
0110
0110
,
0000
1010
0001
0010
,
0101
0101
0000
1100
,
0100
0010
0002
0000
,
0013
0010
1000
0001
,
0101
0000
0100
0010
1000
0000
1001
0000
,
0001
0100
0010
0000
0110
0000
0010
1000
,
0100
1100
1000
0010
,
1010
0000
0001
0010
0100
0000
0011
0000
,
0001
1000
0100
0000
1100
0000
0010
0100
,
0001
1001
0010
0100
,
0110
0000
1000
0001
0010
0000
0011
0000
,
0100
1000
0010
0000
1010
0000
1000
0001
,
0010
0101
0010
0001
,
1001
0000
0010
0100
0010
0000
1010
0000
,
0001
0100
0001
0000
0110
0000
1000
0001
,
1000
1100
0101
0011
,
1000
0001
0000
0001
1000
0000
0010
1000
,
0010
0000
0010
0000
0100
0010
0000
0010
,
0100
0000
0001
0100
0001
0000
0001
0000
,
0010
0001
0000
0001
0010
0000
0100
0010
,
0100
0000
0100
0000
1000
0100
0000
0100
,
1000
0000
0001
0100
0001
0000
0001
0000
,
0010
0100
0000
1000
0100
0000
1000
0001
,
0010
0000
0010
0000
0001
1000
0000
0100
,
1000
0000
0001
0010
0100
0000
0100
0000
,
1000
0100
0000
0010
0100
0000
1000
0001
,
0100
0000
0100
0000
0010
1000
0000
0001
,
1000
0000
0100
0010
0001
1000
0100
0000
,
1000
0010
0100
0001
1000
0000
0010
1000
,
0001
0000
0001
0000
0010
0100
1000
0001
,
0010
0000
1000
0001
0100
0000
0100
0000
,
0001
0010
0100
1000
0001
0000
1000
0100
,
0010
0000
0010
0000
0100
1000
0010
0100
,
0001
0000
0010
0001
0100
0010
1000
0000
,
0001
1000
0001
1000
0100
0000
0010
0001
,
1000
0000
1000
0000
0010
0100
0010
0100
,
0001
0000
1000
0010
0100
0000
0100
0000
,
0010
1000
0010
0100
0010
0000
0100
0001
,
0010
0001
0100
0000
0010
1000
0001
0100
,
0010
0100
0001
1000
0100
0010
0001
0000
,
2000
3020
0230
0302
,
0023
0100
0100
0000
2030
0100
0100
3000
,
0012
0203
0320
2030
,
3200
0000
0000
1000
0000
0000
1300
0000
0001
0000
0100
0000
0020
0000
0000
0000
0000
0000
0200
0000
0000
0330
0000
0000
,
2100
3020
0230
0302
,
0023
0000
0000
0001
0000
0000
0001
0000
0000
0030
0000
0000
0100
0000
0000
0000
1000
0000
0000
0000
0001
0000
0000
0000
,
0202
0000
0000
0303
0010
1000
2020
0000
0000
3030
1000
0001
,
2002
0000
0000
0000
0000
0000
0000
0000
0000
3003
0000
0000
0220
0000
0000
0000
0000
0000
0330
0000
0000
0000
1000
0001
,
0100
0001
0001
0010
0001
0000
0100
0010
,
0010
1000
0010
0000
1000
0001
0001
0100
,
0001
0000
0100
1000
0010
0000
0100
0010
,
0001
1000
1000
0010
1000
0001
0100
0000
,
0010
0100
0000
0001
1001
0000
1100
0000
,
0101
0000
0220
0000
0330
0000
1000
0010
,
0100
0001
0001
1000
0001
0000
0100
0010
,
0010
1000
0010
0000
0100
0001
0001
0010
,
0001
0000
1000
0010
0100
0001
1000
0001
,
0002
0010
1003
2000
,
0010
0000
3100
1000
0001
0000
0011
0000
,
0101
1001
1100
0110
,
0001
0010
0100
0001
1000
0000
0010
0100
,
0001
1000
0010
0000
1000
0100
0010
1000
,
0001
1000
0100
0001
0010
0000
1000
0001
,
0100
0001
0010
0100
0010
1000
0100
0000
,
0100
0001
0000
0001
0010
0000
0101
0000
,
1100
0000
2002
0000
3003
0000
0100
0010
,
0001
1000
0001
0100
0001
0000
1000
0010
,
1000
0001
1000
0000
0100
0010
1000
0010
,
0100
0000
0001
1000
0100
1000
0001
0000
,
0010
1000
0100
0010
1000
0001
0100
0001
,
0100
0010
0100
0001
1000
0100
1000
0001
,
0100
1000
0010
0100
0010
0001
0100
1000
,
0022
0000
0000
0000
,
0033
0000
0000
0000
;

//---------------dance-single - ----------------
#NOTES:
     dance-single:
     :
     Medium:
     10:
     0.486299,0.562051,0.368010,0.610562,0.008364,407.000000,363.000000,44.000000,73.000000,0.000000,0.000000,0.486299,0.562051,0.368010,0.610562,0.008364,407.000000,363.000000,44.000000,73.000000,0.000000,0.000000:
0000
0000
0000
0000
,
2002
0000
0000
3003
0000
0000
0010
0000
,
0000
1000
0000
0000
0020
0000
0000
0100
,
0000
0000
0030
0000
0000
0001
1000
0010
,
0220
0000
0000
0330
0000
0000
1000
0000
,
0000
0100
0000
0000
2000
0000
0000
0000
,
0000
0000
0001
0000
0000
3000
0000
0000
,
2020
0000
0000
3030
0000
0000
0100
0000
,
0000
0001
0000
0000
0020
0000
0000
0001
,
0000
0000
0030
0000
0000
1000
0010
0100
,
0202
0000
0000
0303
0000
0000
0010
0000
,
0000
1000
0000
0000
2200
0000
0000
3300
,
0000
0000
0202
0000
0000
0303
0000
0000
,
0200
0010
0320
1000
,
2030
0001
0002
3003
,
0110
0010
0000
1010
,
1000
0000
0011
0001
,
0000
0010
1000
0001
,
0101
0100
0000
1001
,
0001
0000
1100
1000
,
0000
0100
0001
0010
,
0011
0001
0000
0110
,
0100
0000
1010
1000
,
0000
0001
1000
0010
,
1010
1000
0000
1001
,
0001
0100
0020
0000
,
1030
0010
1000
0100
,
1100
2200
3300
1001
,
2002
3003
0101
0202
,
0303
1000
0010
0100
,
0110
0220
0330
1010
,
2020
3030
0011
0022
,
0033
0001
1000
0010
,
1010
2020
3030
1001
,
2002
3003
0101
0202
,
0303
1000
0100
0010
,
0011
0022
0033
0100
,
0001
0010
1200
0000
,
0320
2030
3200
0302
,
0103
0010
0000
0010
0100
0000
1000
0000
,
0001
0000
1000
0000
0010
0001
0000
0001
,
0010
0100
0010
0100
,
1000
0100
0000
0100
1000
0000
0001
0000
,
0100
0000
0001
0000
0010
0100
0000
0100
,
0010
0001
1000
0001
,
1000
0010
0000
0010
1000
0000
0100
0000
,
1000
0000
0100
0000
0010
0001
0000
0001
,
0010
0100
0010
0100
,
0001
1000
0000
1000
0001
0000
0010
0000
,
1000
0000
0010
0000
1000
0100
0000
0100
,
1000
0001
0010
1000
,
0100
1000
0000
0100
1000
0000
0001
0100
,
0001
0000
0100
0000
0010
0100
0000
0010
,
0100
0000
1000
0010
1000
0000
0010
0000
,
1000
0001
0000
1000
0001
0000
0100
0010
,
0100
0000
0010
0000
0100
0001
0000
0100
,
0001
0000
1000
0100
1000
0000
0100
0000
,
0010
1000
0000
0010
0100
0000
0010
1000
,
0010
0000
1000
0000
0100
1000
0000
0001
,
1000
0000
0001
1000
0001
0000
1000
0000
,
0010
0001
0000
1000
0010
0000
0001
0100
,
0001
0000
0100
0000
0100
1000
0000
0001
,
0100
0000
0010
0100
0010
1000
0010
0000
,
2000
0100
3002
0010
,
0203
0000
0020
0330
,
0002
0100
0023
1000
,
0230
0000
0000
1000
2300
0000
0001
3000
,
0201
0010
0302
1000
,
0020
0000
0000
0033
0000
0000
1000
0000
0100
0000
0010
0000
,
0220
0000
0330
1000
2200
0000
3300
0001
,
0202
0303
2002
3003
,
0100
0001
0001
1000
,
0010
0010
0100
0010
,
0010
1000
0001
1000
,
0010
1000
1000
0010
,
0100
0001
0000
0100
0010
0000
1000
0000
,
0100
0001
0000
0010
,
1000
0001
0001
0010
,
0100
0100
0010
0001
,
0001
1000
0010
0100
,
0020
0000
1030
2000
,
0000
0000
3001
0100
0001
0000
0200
0000
,
0302
0023
0230
2300
,
3001
0000
0100
0001
0100
0000
0010
0000
,
0100
0010
0100
0000
0010
0000
1000
0010
,
1000
0100
1000
0001
,
0100
0000
0010
0100
0010
0000
1000
0000
,
0001
1000
0001
0000
0010
0000
1000
0000
,
0001
0100
0000
0010
,
0010
0000
1000
0000
0100
1000
0100
0000
,
1000
0001
0100
0001
,
0010
0001
0010
0000
0100
0000
0010
0000
,
1000
0000
0001
1000
0001
0000
0100
0000
,
0001
0100
0001
0000
0010
0000
0100
0010
,
0100
0000
1000
0001
1000
0010
0100
0000
,
2002
0000
0000
0000
,
3003
0000
0000
0000
;

//---------------dance-single - ----------------
#NOTES:
     dance-single:
     :
     Easy:
     7:
     0.342918,0.439312,0.142186,0.225824,0.000000,287.000000,270.000000,17.000000,27.000000,0.000000,0.000000,0.342918,0.439312,0.142186,0.225824,0.000000,287.000000,270.000000,17.000000,27.000000,0.000000,0.000000:
0000
0000
0000
0000
,
0200
0000
0000
0320
,
0000
0000
2030
0000
,
0000
0000
3000
0000
0000
0001
0000
0000
,
0002
0000
0000
0103
,
0000
0010
0000
0000
0200
0000
0000
0000
,
0000
0000
0002
0000
0000
0303
0000
0000
,
2000
0000
0000
3010
,
0000
1000
0000
0000
0020
0000
0000
0230
,
0000
0000
0300
0000
0000
1000
0000
0000
,
2000
0000
0000
3001
,
0000
0100
0000
0000
0002
0000
0000
0000
,
0000
0000
0020
0000
0000
0033
0000
0000
,
1000
0000
0010
0000
,
0100
0000
0001
0000
,
0010
0010
0000
1000
,
1000
0000
0100
0100
,
0000
1000
0001
1000
,
0010
0010
0000
0001
,
0001
0000
0100
0100
,
0000
0010
0100
0010
,
1000
1000
0000
0001
,
0001
0000
0010
0010
,
0000
1000
0010
1000
,
0001
0001
0000
0100
,
0100
1000
0010
0000
,
0010
0100
0010
0001
,
0010
0100
0000
1000
,
0010
0000
0100
0010
,
0000
0100
0001
0100
,
1000
0001
0000
1000
,
0010
0000
0100
0001
,
0000
1000
0010
1000
,
0100
0010
0000
1000
,
0010
0000
0001
0100
,
0000
0010
0100
0010
,
1000
0100
0000
0010
,
1000
0001
1000
0000
,
1000
0010
0100
0001
,
1000
0000
0000
1000
0000
0000
0010
0000
,
0001
0000
0010
0000
0100
0000
0000
0100
,
0000
0001
1000
0001
,
0010
0000
0000
0010
0000
0000
0100
0000
,
0010
0000
0100
0000
0001
0000
0000
0001
,
0000
0010
0001
0010
,
0100
0000
0000
0100
0000
0000
0001
0000
,
1000
0000
0001
0000
1000
0000
0000
1000
,
0000
0100
1000
0100
,
0010
0000
0000
0010
0000
0000
1000
0000
,
0010
0000
1000
0000
0001
0000
0000
0001
,
0000
0010
1000
0001
,
1001
0000
0000
1001
0000
0000
0001
0000
,
0100
0000
0010
0000
0110
0000
0000
0110
,
0000
1000
0001
0100
,
0101
0000
0000
0101
0000
0000
0010
0000
,
1000
0000
0001
0000
1010
0000
0000
1010
,
0000
0100
0010
0001
,
0011
0000
0000
0011
0000
0000
0010
0000
,
0001
0000
1000
0000
1010
0000
0000
1010
,
0000
0100
0001
1000
,
1100
0000
0000
1100
0000
0000
0010
0000
,
0001
0000
0100
0000
0110
0000
0000
0110
,
0000
1000
0010
1000
,
0002
0000
2003
0000
,
3020
0000
2000
3030
,
0200
0000
0302
0000
,
2003
0000
0200
3300
,
1000
1000
0001
0001
,
0020
0030
0100
0001
,
0200
0000
0320
0000
,
2030
0000
0200
3300
,
0001
0001
0000
1000
,
1000
0000
0010
0010
,
0000
0100
0001
0100
,
0010
0010
0000
0100
,
0100
0000
0010
0100
,
0001
0100
0000
0000
,
1000
1000
0000
0001
,
0001
0000
0100
0100
,
0000
0001
0100
0010
,
1000
0000
1000
0010
,
0000
0010
0100
0000
,
0100
1000
0001
0010
,
0001
1000
0000
0010
,
0100
0000
1000
0010
,
0000
0100
0010
0100
,
0001
0100
0000
1000
,
0100
0000
0100
0001
,
1000
0010
0000
0000
,
1000
0000
0000
1000
0000
0000
0001
0000
,
1000
0000
0001
0000
0100
0000
0000
0100
,
0000
0010
0100
0010
,
0001
0000
0000
0001
0000
0000
0010
0000
,
0000
0010
0000
0000
1000
0000
0100
0000
,
0010
0100
0001
1000
,
0220
0000
0330
0000
;

//---------------dance-single - ----------------
#NOTES:
     dance-single:
     :
     Beginner:
     4:
     0.157719,0.278098,0.050183,0.117094,0.000000,132.000000,126.000000,6.000000,14.000000,0.000000,0.000000,0.157719,0.278098,0.050183,0.117094,0.000000,132.000000,126.000000,6.000000,14.000000,0.000000,0.000000:
// measure 0
0000
0000
0000
0000
,  // measure 1
0010
0000
0000
0000
,  // measure 2
0000
0000
0001
0000
,  // measure 3
0000
0000
0000
0000
,  // measure 4
1000
0000
0000
0000
,  // measure 5
0000
0000
0100
0000
,  // measure 6
0000
0000
0000
0000
,  // measure 7
2000
0000
0000
3000
,  // measure 8
0000
0000
0002
0000
,  // measure 9
0000
0003
0000
0000
,  // measure 10
0200
0000
0000
0300
,  // measure 11
0000
0000
0020
0000
,  // measure 12
0000
0030
0000
0000
,  // measure 13
2002
0000
0000
0000
,  // measure 14
3003
0000
0000
0000
,  // measure 15
0010
0000
0000
0010
,  // measure 16
0000
0000
0010
0000
,  // measure 17
0000
0010
0000
0000
,  // measure 18
1000
0000
0000
1000
,  // measure 19
0000
0000
1000
0000
,  // measure 20
0000
1000
0000
0000
,  // measure 21
0001
0000
0000
0001
,  // measure 22
0000
0000
0001
0000
,  // measure 23
0000
0001
0000
0000
,  // measure 24
0100
0000
0000
0100
,  // measure 25
0000
0000
0100
0000
,  // measure 26
0000
0100
0000
0000
,  // measure 27
0010
0000
0000
0010
,  // measure 28
0000
0000
0100
0000
,  // measure 29
0000
0100
0000
0000
,  // measure 30
0001
0000
0000
0001
,  // measure 31
0000
0000
0100
0000
,  // measure 32
0000
0100
0000
0000
,  // measure 33
1000
0000
0000
1000
,  // measure 34
0000
0000
0010
0000
,  // measure 35
0000
0010
0000
0000
,  // measure 36
1000
0000
0000
1000
,  // measure 37
0000
0000
0001
0000
,  // measure 38
0000
0001
0000
0000
,  // measure 39
1000
0000
0000
1000
,  // measure 40
0000
0000
0001
0000
,  // measure 41
0000
1000
0000
0000
,  // measure 42
0100
0000
0000
0100
,  // measure 43
0000
0000
0010
0000
,  // measure 44
0000
0100
0000
0000
,  // measure 45
0001
0000
0000
0001
,  // measure 46
0000
0000
0100
0000
,  // measure 47
0000
0001
0000
0000
,  // measure 48
0010
0000
0000
0010
,  // measure 49
0000
0000
1000
0000
,  // measure 50
0000
0010
0000
0000
,  // measure 51
1001
0000
0000
1000
,  // measure 52
0000
0000
0001
0000
,  // measure 53
0000
1000
0000
0000
,  // measure 54
0110
0000
0000
0010
,  // measure 55
0000
0000
0100
0000
,  // measure 56
0000
0010
0000
0000
,  // measure 57
1001
0000
0000
0001
,  // measure 58
0000
0000
1000
0000
,  // measure 59
0000
0001
0000
0000
,  // measure 60
0110
0000
0000
0100
,  // measure 61
0000
0000
0010
0000
,  // measure 62
0000
0100
0000
0000
,  // measure 63
0020
0000
0030
0000
,  // measure 64
0020
0000
0030
0000
,  // measure 65
2000
0000
3000
0000
,  // measure 66
2000
0000
3000
0000
,  // measure 67
0002
0000
0003
0000
,  // measure 68
0002
0000
0003
0000
,  // measure 69
0200
0000
0300
0000
,  // measure 70
0200
0000
0300
0000
,  // measure 71
0001
0000
0000
0001
,  // measure 72
0000
0000
1000
0000
,  // measure 73
0000
1000
0000
0000
,  // measure 74
0001
0000
0000
0001
,  // measure 75
0000
0000
1000
0000
,  // measure 76
0000
1000
0000
0000
,  // measure 77
0010
0000
0000
0010
,  // measure 78
0000
0000
0100
0000
,  // measure 79
0000
0100
0000
0000
,  // measure 80
0010
0000
0000
0010
,  // measure 81
0000
0000
0100
0000
,  // measure 82
0000
0100
0000
0000
,  // measure 83
0001
0000
0001
0001
,  // measure 84
0000
0000
0100
0000
,  // measure 85
0100
0100
0000
0000
,  // measure 86
0010
0000
0010
0010
,  // measure 87
0000
0000
1000
0000
,  // measure 88
1000
1000
0000
0000
,  // measure 89
0010
0010
0010
0010
,  // measure 90
0000
0000
1000
1000
,  // measure 91
1000
1000
0000
0000
,  // measure 92
0100
0100
0100
0100
,  // measure 93
0000
0000
0001
0001
,  // measure 94
0001
0001
0000
0000
,  // measure 95
1001
0000
0000
0000
;
