#TITLE:Crafty Savior;
#SUBTITLE:;
#ARTIST:HuEer;
#TITLETRANSLIT:;
#SUBTITLETRANSLIT:;
#ARTISTTRANSLIT:;
#GENRE:;
#CREDIT:;
#BANNER:Crafty Savior.png;
#BACKGROUND:Crafty Savior-bg.png;
#LYRICSPATH:;
#CDTITLE:;
#MUSIC:Crafty Savior.ogg;
#OFFSET:-0.350961;
#SAMPLESTART:80.755219;
#SAMPLELENGTH:14.117645;
#SELECTABLE:YES;
#BPMS:0.000000=170.000000
,96.000000=85.000000
,112.000000=170.000000
,144.000000=85.000000
,152.000000=170.000000
,154.000000=85.000000
,163.000000=170.000000
;
#STOPS:
;
#BGCHANGES:;
#KEYSOUNDS:;
#ATTACKS:;

//---------------dance-single - ----------------
#NOTES:
     dance-single:
     :
     Hard:
     13:
     0.569492,1.181494,0.280863,0.434885,0.303513,440.000000,409.000000,31.000000,48.000000,0.000000,0.000000,0.569492,1.181494,0.280863,0.434885,0.303513,440.000000,409.000000,31.000000,48.000000,0.000000,0.000000:
1000
0100
1000
0001
0000
0000
0000
0100
,
0100
0010
0100
1000
0000
0000
0000
0000
,
0001
0100
0001
0010
0000
0000
0000
0010
,
0010
1000
0010
0001
0000
0000
0000
0000
,
0010
0001
0100
0010
0000
0000
0000
1000
,
1000
0000
0001
0000
0010
0000
0100
0000
0000
0000
0000
0000
0000
0000
0001
0100
,
0001
0000
1010
0000
1000
0010
0100
0001
,
0000
0010
1000
0100
0000
0000
0110
0000
,
2001
0000
0010
0000
0000
0100
0100
0010
,
0000
0000
0001
0000
0100
0000
0000
0000
0010
0000
0010
0000
3001
0000
0100
0010
,
0200
0000
1000
0000
0000
0001
0000
0010
,
0000
1000
0000
0010
0001
0001
1000
0300
,
0010
0001
0100
0100
0000
1000
0100
0001
,
0000
0010
0000
1000
0010
0010
0100
0000
,
1000
0000
0000
1001
0000
0000
0001
0000
0010
0000
0100
0000
1000
0000
0100
0000
,
0000
1000
0010
1000
0001
0010
0011
0000
,
0001
0100
0010
0002
0000
0000
0003
1000
,
1000
0000
0001
0000
0010
0000
2000
0000
0000
0000
0000
0000
3000
0000
0100
0010
,
0100
1000
0010
0200
0000
0000
0300
0010
,
0010
0100
1000
2020
0000
0000
3030
0000
,
0100
1000
0010
2000
0000
0000
3000
0001
,
0001
0000
0010
0000
1000
0000
0020
0000
0000
0000
0000
0000
0030
0000
0100
1000
,
0200
0000
0000
0000
0300
0000
0001
0010
0002
0000
0000
0000
0003
0000
0010
0100
,
0020
0000
0000
0000
0030
0000
1000
0001
1000
0000
0000
0000
0001
0000
0000
0000
,
2200
0000
0000
0000
0000
0000
0000
0000
0000
0000
0000
0000
3000
0000
0010
0000
0020
0000
0000
0000
0000
0000
0000
0000
0330
0000
0001
0000
0000
0000
0001
0010
,
0002
0000
0000
0000
0000
0000
0003
0100
0100
0000
0000
1000
1000
0010
0001
0010
,
0200
0000
0000
0000
0000
0000
0020
0000
0300
0000
0000
0000
2030
0000
0000
0000
0002
0000
0000
0000
3000
0000
0000
0000
0000
0000
0100
0000
0003
0000
0010
1000
,
0010
0000
0000
0100
0000
0000
0001
0000
0000
0000
0000
0000
1010
0000
2000
0000
0000
0000
0000
0000
3100
0000
0000
0000
0100
0000
0010
0000
1000
0000
0001
0000
,
0010
0000
1010
0000
0010
0000
0100
0010
,
0100
0001
0010
0000
1000
0001
0010
0100
,
1000
0000
1100
0000
1000
0010
1000
0100
,
0001
0000
0010
0100
0100
0010
0100
1000
,
0002
0000
0000
0000
0003
0000
0010
0100
0020
0000
0000
0000
0030
0000
1000
0001
,
2000
0000
0000
0000
3000
0000
0100
0010
0200
0000
0000
0000
0300
0000
0010
0001
,
0010
0100
1000
0100
0010
0001
1000
0001
,
0100
0010
0001
1000
0110
0010
0011
0000
,
0100
0000
0000
1000
0000
0000
0100
0000
0011
0000
0000
0000
0010
0000
0000
0000
1000
0000
1000
0000
0000
0000
0001
0000
1010
0000
0000
0000
0100
0000
0000
0000
,
0001
0000
0000
0010
0000
0000
1000
0000
1001
0000
0000
0000
0010
0000
0000
0000
0100
0000
0100
0000
1000
0000
0100
0000
0001
0000
1000
0000
0101
0000
0000
0000
,
0120
0000
0000
0001
0000
0000
0100
0000
1030
0000
0001
0000
0100
1000
0100
0010
,
1010
0000
0000
0001
0000
0000
1000
0000
0000
0000
0000
0000
0010
0000
0000
0100
0000
0000
0010
0000
0000
0100
0000
0000
0001
0000
0000
1000
0000
0000
0010
0000
0000
0010
0000
0000
1000
0000
0100
0000
1000
0000
0100
0000
0001
0000
0100
0000
,
0001
0010
1000
0100
0000
0000
0010
0001
1001
0000
1100
0000
0100
0010
0011
0000
0110
0000
0020
0000
0000
0000
0000
0000
,
0000
1000
0000
0000
0001
0000
0032
0000
,
0000
1000
0000
0000
0100
0000
0203
0000
,
0000
0001
0000
0000
0010
0000
0320
0000
,
0000
0100
0000
0000
1030
0000
1100
0000
,
0100
0001
0000
0010
0001
0010
0000
1000
,
0100
1000
0000
0010
0010
0000
0100
0001
,
0100
0001
0010
0100
0010
0100
1000
0001
,
0100
0010
0100
0100
2001
0000
3100
0001
,
0010
0200
0000
1000
0300
0001
0001
0010
,
1000
0020
0000
0100
1030
0100
0010
0001
,
0100
2000
0000
0000
3100
0010
0100
1000
,
0100
0102
0000
0010
0010
0003
0010
1000
,
0001
0020
0000
1000
0130
1000
0001
0010
,
1000
0200
0000
0001
0301
0010
0002
0000
,
0103
0000
1000
0100
2000
0000
0000
0000
3010
0000
0100
0010
0200
0000
0000
0000
,
1300
0000
0010
1000
0020
0000
0000
0000
0032
0000
0000
0000
0013
0000
0000
0000
,
1000
0010
1000
0010
2000
0000
0000
0000
3000
0000
0001
0100
0001
0000
0000
0000
,
0100
1000
0010
1000
0100
0000
0000
0000
1010
0000
0000
0000
0202
0000
0000
0000
,
0000
0000
0003
0010
,
0000
1000
0000
0000
0010
0000
0301
0000
,
0000
0110
0000
0000
1000
0000
1000
0000
,
0000
1100
0000
0000
0100
0000
0001
0010
,
0001
0100
0000
0000
0000
0010
0010
0100
,
1000
0000
0100
0000
0000
0000
0000
0000
0000
0000
1000
0010
1000
0000
0000
0000
,
0101
0000
0001
0100
1000
0020
0000
0000
,
0130
1000
0001
0100
0100
0220
0000
0330
;

//---------------dance-single - ----------------
#NOTES:
     dance-single:
     :
     Medium:
     9:
     0.364993,0.632622,0.181202,0.289923,0.040770,282.000000,262.000000,20.000000,32.000000,0.000000,0.000000,0.364993,0.632622,0.181202,0.289923,0.040770,282.000000,262.000000,20.000000,32.000000,0.000000,0.000000:
0010
0000
0100
0010
0000
0000
0000
0000
,
1000
0000
0100
1000
0000
0000
0000
0000
,
0100
0000
0001
0100
0000
0000
0000
0000
,
0001
0000
0010
0001
0000
0000
0000
0000
,
1000
0000
0010
1000
0000
0000
0000
0000
,
0001
0000
1000
0001
0000
0000
0000
0100
,
0001
0000
0100
0000
0010
0000
0100
2000
,
0000
0000
3010
0200
0000
0000
0310
0000
,
0011
0000
0000
0000
1000
0000
0000
0001
,
0000
0000
1000
0010
0000
0001
0010
0000
,
1010
0000
0000
0000
0001
0000
0000
0100
,
0000
1000
0010
1000
0000
0001
1000
0000
,
0010
0000
0100
0000
0001
0000
0000
1000
,
0000
0010
0000
1000
0000
0100
0010
0000
,
0001
0000
1000
0010
0000
1000
0000
0001
,
0000
0100
0010
0100
0000
0001
0100
0000
,
1200
0000
0000
1000
0000
0300
0000
0010
,
0200
0000
0000
0010
0000
0000
0300
0000
,
0021
0000
0000
0001
0000
0030
0000
0010
,
2000
0000
0000
0020
0000
0000
3030
0000
,
0102
0000
0000
0100
0000
0003
0000
0001
,
2000
0000
0000
0001
0000
3000
0000
0100
,
1000
0000
0000
0001
0010
0000
0000
0001
,
0100
0000
0000
1000
0100
0000
1001
0000
,
0220
0000
0000
0330
0001
0000
1000
0000
,
0002
0000
0000
0003
0100
0100
0010
0010
,
0200
1000
2300
0010
,
3010
0000
0100
0001
0000
0000
0100
0000
0000
1000
0000
0001
0000
1000
0010
0000
,
0100
1000
0100
0001
,
0100
0000
1000
0000
0100
0010
0100
0010
,
1000
0010
1000
0100
,
1000
0000
0010
0000
1000
0001
1000
0001
,
0020
0130
0200
0301
,
0002
1003
2000
3010
,
0010
1000
0010
0000
1000
0100
1000
0000
,
0001
1000
0001
0000
1100
0000
0101
0000
,
0001
1000
1001
0000
1000
0010
1010
0000
,
0100
0001
0101
0000
0010
0100
0110
0000
,
0010
0000
0001
0000
0011
0000
1000
0100
,
1100
0000
0000
0000
0010
0000
1000
0000
1010
0000
0010
0100
0010
0000
0001
0000
,
1001
0000
0000
0001
1000
0001
0010
0100
0001
2000
0000
0000
,
0000
0010
0000
0000
3000
0000
0200
0000
,
0000
0010
0000
0000
0300
0000
0002
0000
,
0000
1000
0000
0000
0003
0000
0020
0000
,
0000
1000
0000
0000
0030
0000
2000
0000
,
0000
0100
0000
0000
3001
0000
0200
0000
,
0000
0001
0000
0000
1300
0000
0002
0000
,
0000
0010
0000
0000
0103
0000
0020
0000
,
0000
0001
0030
0000
0101
0000
1000
0000
,
0010
0000
0100
1000
0100
0000
0010
0000
,
0001
0000
0010
1000
0010
0000
0100
0000
,
1000
0000
0001
0100
0001
0000
0100
0000
,
0010
0000
1000
0010
1000
0000
0001
0000
,
0001
0000
0010
0100
0010
0000
1000
0000
,
1000
0000
0010
0001
0010
0000
1000
0000
,
1000
0010
0010
0100
,
0100
0001
0001
0200
,
0300
1000
2000
0000
3000
0010
0020
0000
,
0030
0001
0002
0000
0003
0000
2100
0000
,
0000
0100
0000
0000
0000
0000
0001
0000
,
0000
0001
0000
0000
3000
0000
0010
0000
,
0000
0010
0000
0000
0000
0000
1000
0000
,
0000
1000
0000
0000
0000
0000
0100
0000
,
0001
0100
0000
0000
0000
0000
1000
0000
,
0010
1000
0000
0000
0000
0000
0001
0000
,
0100
0000
0010
0000
1000
0002
0000
0000
,
0100
0103
0110
0000
;

//---------------dance-single - ----------------
#NOTES:
     dance-single:
     :
     Easy:
     5:
     0.218737,0.331373,0.090601,0.154022,0.000000,169.000000,159.000000,10.000000,17.000000,0.000000,0.000000,0.218737,0.331373,0.090601,0.154022,0.000000,169.000000,159.000000,10.000000,17.000000,0.000000,0.000000:
0010
0000
0000
0010
0000
0000
0000
0000
,
0100
0000
0000
0100
0000
0000
0000
0000
,
1000
0000
0000
1000
0000
0000
0000
0000
,
0001
0000
0000
0001
0000
0000
0000
0000
,
0010
0000
0000
0100
0000
0000
0000
0000
,
0001
0000
0000
1000
0000
0000
0000
0000
,
1000
0100
0001
0100
,
1000
0000
1001
0000
,
0020
0000
0030
0000
,
0001
0000
0100
0000
,
0002
0000
0003
0000
,
0100
0000
1000
0000
,
0200
0000
0300
0000
,
1000
0000
0010
0000
,
2000
0000
3000
0000
,
0020
0000
0030
0000
,
0100
1000
0100
0000
,
1000
1000
0001
0000
,
0010
0100
0010
0000
,
0100
0100
0001
0000
,
0010
0001
0010
0000
,
0001
0001
1000
0000
,
0010
0000
0110
0000
,
1000
0000
1001
0000
,
0200
0000
0300
1000
,
2000
0000
3000
0010
,
0020
0030
0001
0100
,
0002
0003
1000
1001
,
0010
0010
0100
0000
,
0001
0000
0100
0000
,
0001
0001
1000
0000
,
0010
0000
1000
0000
,
0100
0100
0010
0000
,
0001
0000
0010
0000
,
1000
0010
0100
0010
,
1000
0000
0110
0000
,
0200
0000
1000
0300
1000
0000
0001
0000
,
0020
0000
0001
0030
0001
0000
0100
0000
,
2000
0000
0000
0000
0010
3000
0010
0000
,
0001
0000
0200
0000
0001
0300
0001
0000
,
0010
0000
0100
0100
0010
0010
1000
0000
,
0000
1000
0000
0000
0000
0000
0001
0000
,
0000
0001
0000
0000
0000
0000
0010
0000
,
0000
0010
0000
0000
0000
0000
0100
0000
,
0000
0100
0000
0000
0000
0000
1000
0000
,
0000
0001
0000
0000
0000
0000
0010
0000
,
0000
0100
0000
0000
0000
0000
0001
0000
,
0000
0010
0000
1000
,
0000
0110
0000
1000
,
1000
0001
0000
0100
,
0010
0100
0000
0001
,
0001
0010
0000
1000
,
0100
1000
0000
0010
,
0010
0100
0000
0001
,
0010
0001
0000
0100
,
0000
0110
0000
1000
,
0000
1001
0000
1000
,
0000
0001
0000
0001
,
0000
0010
0000
0220
,
0000
0000
0000
0000
,
0000
0000
0330
2000
,
0000
0000
3000
0002
,
0000
0000
0003
0010
,
0010
0010
0000
0100
,
0000
0010
0000
1000
,
1000
0100
0100
0010
,
0000
0001
1001
0000
;

//---------------dance-single - ----------------
#NOTES:
     dance-single:
     :
     Beginner:
     3:
     0.138490,0.240093,0.054361,0.090601,0.000000,107.000000,101.000000,6.000000,10.000000,0.000000,0.000000,0.138490,0.240093,0.054361,0.090601,0.000000,107.000000,101.000000,6.000000,10.000000,0.000000,0.000000:
// measure 0
1000
0000
0000
0000
,  // measure 1
1000
0000
0000
0000
,  // measure 2
0001
0000
0000
0000
,  // measure 3
0001
0000
0000
0000
,  // measure 4
0100
0000
0000
0000
,  // measure 5
0100
0000
0000
0000
,  // measure 6
0010
0000
0000
0000
,  // measure 7
0010
0000
0000
0000
,  // measure 8
2000
0000
0000
0000
,  // measure 9
3000
0000
0000
0000
,  // measure 10
0002
0000
0000
0000
,  // measure 11
0003
0000
0000
0000
,  // measure 12
0020
0000
0000
0000
,  // measure 13
0030
0000
0000
0000
,  // measure 14
0200
0000
0000
0000
,  // measure 15
0300
0000
0000
0000
,  // measure 16
1000
0000
0001
0000
,  // measure 17
1000
0000
1000
0000
,  // measure 18
0010
0000
0100
0000
,  // measure 19
0010
0000
0010
0000
,  // measure 20
0001
0000
1000
0000
,  // measure 21
0001
0000
0001
0000
,  // measure 22
0100
0000
0100
0000
,  // measure 23
0010
0000
0010
0000
,  // measure 24
1001
0000
0000
0000
,  // measure 25
0100
0000
0000
0000
,  // measure 26
0010
0000
0000
0000
,  // measure 27
0001
0000
0000
0000
,  // measure 28
1000
0000
1000
0000
,  // measure 29
0100
0000
1000
0000
,  // measure 30
0100
0000
0100
0000
,  // measure 31
0010
0000
0100
0000
,  // measure 32
0010
0000
0010
0000
,  // measure 33
0001
0000
0010
0000
,  // measure 34
0001
0000
0001
0000
,  // measure 35
1000
0000
0001
0000
,  // measure 36
0200
0300
0010
0010
,  // measure 37
0020
0030
0001
0001
,  // measure 38
0002
0000
0003
1000
,  // measure 39
1000
2000
3000
0100
,  // measure 40
0100
0220
0330
0010
,  // measure 41
0000
0000
0000
0010
,  // measure 42
0000
0000
0000
1000
,  // measure 43
0000
0000
0000
1000
,  // measure 44
0000
0000
0000
0100
,  // measure 45
0000
0000
0000
0100
,  // measure 46
0000
0000
0000
0001
,  // measure 47
0000
0000
0000
0001
,  // measure 48
0000
0000
0000
0010
,  // measure 49
0010
0010
0000
1000
,  // measure 50
0000
0010
0000
1000
,  // measure 51
1000
1000
0000
0001
,  // measure 52
0000
1000
0000
0100
,  // measure 53
0100
0100
0000
1000
,  // measure 54
0000
0100
0000
0010
,  // measure 55
0000
0010
0000
0100
,  // measure 56
0000
0100
0000
0110
,  // measure 57
0000
0000
0000
0001
,  // measure 58
0000
0000
0000
1001
,  // measure 59
0000
0000
0000
0000
,  // measure 60
0000
0000
0000
1000
,  // measure 61
0000
0000
0000
0001
,  // measure 62
0000
0000
0000
1000
,  // measure 63
0000
1000
0000
0010
,  // measure 64
0000
0010
0000
0100
,  // measure 65
0000
0100
0000
1001
,  // measure 66
0000
1001
0000
0000
;
