#TITLE:Crack;
#SUBTITLE:;
#ARTIST:Nekomata Master+;
#TITLETRANSLIT:;
#SUBTITLETRANSLIT:;
#ARTISTTRANSLIT:;
#GENRE:;
#CREDIT:;
#BANNER:Crack.png;
#BACKGROUND:Crack-bg.png;
#LYRICSPATH:;
#CDTITLE:;
#MUSIC:Crack.mp3;
#OFFSET:-0.543634;
#SAMPLESTART:7.679111;
#SAMPLELENGTH:14.222223;
#SELECTABLE:YES;
#BPMS:0.000000=135.000000
;
#STOPS:
;
#BGCHANGES:;
#KEYSOUNDS:;
#ATTACKS:;

//---------------dance-single - ----------------
#NOTES:
     dance-single:
     :
     Hard:
     11:
     0.496363,0.497761,0.114352,0.131945,0.338658,367.000000,13.000000,15.000000,0.000000,0.000000,0.000000,0.496363,0.497761,0.114352,0.131945,0.338658,367.000000,13.000000,15.000000,0.000000,0.000000,0.000000:
0000
0000
0000
0000
,
0000
0000
0000
0000
,
0000
0000
0000
0000
,
0000
0000
0000
0000
,
1100
0000
0000
0000
1000
0000
0000
0001
0000
0000
1000
0000
0000
0001
0000
0000
,
1000
0000
0000
0001
0000
0000
1000
0000
0010
0000
0000
0000
0100
0000
0000
0000
,
0011
0000
0000
0000
0100
0000
0000
0010
0000
0000
0100
0000
0000
0010
0000
0000
,
0100
0000
0000
0010
0000
0000
0100
0000
0001
0000
1000
0000
0001
0000
0100
0000
,
0010
0000
0100
0000
1000
0000
0000
0100
0000
0000
1000
0000
0000
0100
0000
0000
,
0001
0000
0000
0100
0000
0000
0001
0000
0010
0000
0100
0000
0010
0000
0001
0000
,
0010
0000
1000
0000
0010
0000
0000
0100
0000
0000
0001
0000
0000
0100
0000
0000
,
1000
0000
1000
0100
0000
0100
0001
0000
0010
0001
0010
0001
0010
1000
0100
0000
,
0001
0000
0001
0000
0010
0000
0000
0010
1000
0000
0001
0000
0010
0000
0000
0000
,
0100
0000
0100
0000
1000
0000
0000
1000
0010
0000
1000
0000
0100
0000
0000
0000
,
1000
0000
0001
0000
0010
0000
0000
0100
0001
0000
0100
0000
0010
0000
0000
0000
,
1000
0000
0100
0000
0001
0000
0000
0010
0100
0001
0100
0000
0010
0000
0100
0000
,
1000
0000
0100
0000
0001
0000
0000
0001
0010
0000
0100
0000
0001
0000
0000
0000
,
1000
0000
0010
0000
1000
0000
0000
1000
0001
0000
0100
0000
0010
0000
0000
0000
,
0001
0000
0100
0000
1000
0000
0000
1000
0001
0000
0100
0000
0001
0000
0000
0000
,
0000
0000
0110
0000
0110
0000
0110
0000
0000
0001
0100
0000
1000
0000
0100
0000
,
0002
0000
0003
1000
0002
0000
0000
0000
,
0003
0000
0000
0010
0000
0000
0001
0000
0100
0000
0010
0000
1000
0000
0000
0000
,
0100
0000
0000
1000
0000
0000
0010
0000
0200
0000
0000
0000
0300
0000
0001
0000
,
2000
0000
0000
0000
3000
0000
0010
0100
0020
0000
0000
0000
1030
0000
0000
0000
,
0100
0000
0000
0001
0000
0000
0001
0100
0002
0000
0000
0000
0003
0000
0100
1000
,
0010
0000
0000
1000
0000
0000
0100
0000
0001
0000
0000
0000
1000
0000
0000
0000
,
0100
0000
0000
0100
0000
0000
0010
0100
0020
0000
0000
0000
0030
0000
1000
0000
,
0001
0000
0000
1000
0000
0000
0010
0000
1000
0000
0000
0000
0100
0000
0000
0000
,
0100
0000
1000
0000
0100
0000
0010
0000
0100
0000
0000
0001
0000
0000
0010
0000
,
1000
0000
0001
0000
1000
0000
0010
0000
0100
0000
0000
1000
0000
0000
0100
0000
,
0001
0000
0010
0000
0001
0000
0100
0000
0010
0000
0000
0001
0000
0000
1000
0000
,
0010
1000
0100
0010
0100
0001
1000
0000
,
0001
0000
0000
0010
0000
0000
0100
0000
0001
0000
1000
0000
0100
0000
0000
0000
,
1000
0000
0000
1000
0000
0000
0100
0000
0001
0000
0010
0000
0001
0000
0000
0000
,
0100
0000
0000
0001
0000
0000
0010
0000
0001
0000
1000
0000
0010
0000
1000
0000
,
0001
0000
0000
0100
0000
0000
0010
0000
1000
0000
0001
0000
0010
0000
0000
0000
,
2002
0000
0000
0000
,
0000
0000
0003
3000
,
0010
0000
0000
0001
0000
0000
0010
0000
0100
0000
0000
1000
0000
0000
0001
0000
,
0000
0100
0000
0100
0000
0000
1000
0000
0001
0000
0000
0100
0000
0000
0010
0000
,
1000
0000
0100
0000
1000
0000
0000
0010
0000
0000
0001
0000
0000
1000
0000
0000
,
0100
0000
0001
0000
0100
0000
0010
0000
0001
0000
0000
0100
0000
0000
1000
0000
,
0001
0000
0010
0000
0001
0000
0000
1000
0000
1000
0010
0000
0100
0000
0000
0000
,
0010
0000
0010
0100
0000
0100
0001
0000
1000
0000
0001
0000
1000
0000
0100
0000
,
0110
0000
1000
0100
0101
0000
2200
0000
,
0000
0000
3300
0010
0001
0010
1000
0100
,
0010
0000
0000
0000
0100
0000
0001
0000
1000
0000
0000
0010
0000
0000
0100
0000
,
0001
1000
1000
0100
0010
0100
0001
1000
,
0001
0000
0000
0001
0000
0000
0010
0000
1000
0000
0100
0000
0010
0000
1000
0000
,
0000
0000
0100
0000
1000
0000
0100
0000
0010
0000
0000
0001
0000
0000
0010
0000
,
0100
0000
1000
0000
1000
0000
0100
0000
0000
0010
0000
0000
0001
0000
0010
0000
,
0001
0100
0001
1000
0000
0100
0001
0000
,
0100
0001
0000
0000
0100
0001
0000
0000
0100
1000
0000
0000
0100
1000
0000
0000
,
0010
0001
0000
0000
0010
0001
0000
0000
0010
0000
0100
0000
0010
0000
1000
0000
,
0000
0000
0100
0000
0010
0000
0100
0000
0001
0000
0000
1000
0000
0000
1000
0000
,
0001
0000
0100
0000
0010
0000
0100
0000
0000
0001
0000
0000
0010
0000
0001
0000
,
1000
0000
1000
0000
0100
0000
0100
0000
0010
0000
0000
0001
0000
0000
0010
0000
,
0000
0100
0000
0000
1000
0000
0010
0000
0100
0000
0000
0100
0000
0000
0001
0000
,
1000
0100
1000
0010
0100
0001
0100
0010
,
0000
0100
0000
0001
0000
1000
0000
0010
0000
0100
0000
0001
0000
0010
0000
0000
,
1010
2000
3100
0200
,
0301
0002
0013
0020
,
0130
0000
0000
0000
1000
0000
0000
0000
0110
0000
0000
0011
0000
0000
1001
0000
;

//---------------dance-single - ----------------
#NOTES:
     dance-single:
     :
     Medium:
     8:
     0.444842,0.414801,0.158334,0.096759,0.035185,325.000000,18.000000,11.000000,0.000000,0.000000,0.000000,0.444842,0.414801,0.158334,0.096759,0.035185,325.000000,18.000000,11.000000,0.000000,0.000000,0.000000:
0000
0000
0000
0000
,
0000
0000
0000
0000
,
0000
0000
0000
0000
,
0000
0000
0000
0000
,
2100
0000
3010
0000
0100
0001
0100
0000
,
1000
0001
1000
0100
0010
0000
0010
0000
,
1002
0000
0103
0000
1000
0010
0001
0000
,
0100
0010
1000
0100
0010
0000
1001
0000
,
1000
0100
0000
0010
0000
0001
0000
1000
,
0000
0100
0000
1000
0000
0010
0000
0100
,
0001
0010
0000
0001
0000
1000
0000
0001
,
0010
0010
0100
0100
0001
1000
0100
0010
,
0200
0000
0000
0000
1300
0000
0000
0100
0000
0000
1000
0000
0100
0000
0000
0000
,
0010
0000
1000
0000
0010
0000
0000
0001
0000
0000
0100
0000
0010
0000
0000
0000
,
0010
0000
1000
0000
0100
0000
0000
1000
0000
0000
0001
0000
1000
0000
0000
0000
,
0100
0000
0010
0000
1000
0000
0000
0010
0000
0000
1000
0000
1000
0000
0000
0000
,
0002
0000
0000
0000
0103
0000
0000
1000
0000
0000
0100
0000
0001
0000
0000
0000
,
0001
0000
0010
0000
0100
0000
0000
0010
0000
0000
0010
0000
1000
0000
0000
0000
,
0010
0000
1000
0000
0001
0000
0000
1000
0000
0000
0010
0000
1000
0000
0000
0000
,
0000
1000
1001
0001
0000
0010
0100
0010
,
2000
0000
3010
0000
0100
0010
0001
0000
,
0001
0000
0010
1000
0010
0000
0100
0000
,
0010
1000
0100
0000
0010
0001
0100
0000
,
0001
1000
0001
0000
0100
0000
0101
0000
,
0020
0000
1030
0000
0100
1000
0010
0000
,
1000
0001
0010
0001
0100
0000
0010
0000
,
0100
1000
0001
0000
1000
0100
0001
0000
,
0100
1000
0100
0010
0001
0000
1001
0000
,
2000
0000
3100
0000
0100
0001
0010
0000
,
0010
1000
0001
1000
0010
0000
0100
0000
,
0010
1000
0100
0000
1000
0001
0010
0000
,
0010
0100
0001
0010
1000
0100
0001
0000
,
2000
0000
3001
0000
0010
1000
0100
0000
,
0100
0001
0010
0100
1000
0000
0100
0000
,
1000
0000
0001
1000
0010
0000
1000
0100
,
0010
1000
0100
0001
0100
0000
1000
0000
,
2002
0000
0000
0000
,
0000
0000
0003
3000
,
0010
0000
0100
1000
0010
0000
0100
0001
,
0010
0100
0010
0000
0001
0100
0010
0100
,
0001
0000
1000
0001
0010
0000
0100
0010
,
1000
0100
0010
0000
1000
0100
1000
0000
,
0001
0010
0100
0010
0001
1000
0100
0000
,
1100
0000
0101
0000
1000
0010
1010
0000
,
1000
0000
0100
0010
0100
0010
0001
0000
,
0001
0010
0100
1000
0100
0010
0001
0000
,
1000
0000
0010
1000
0001
0000
0010
1000
,
0100
0010
1000
0000
0100
0000
0100
0000
,
1001
0000
0010
0000
1000
0001
1000
0000
,
0100
0010
0100
1000
0001
0010
1000
0000
,
0001
0000
0010
0010
0100
0000
1000
1000
,
0010
0100
0001
0000
1000
0000
0010
0000
,
0110
0011
0101
1001
,
1100
0000
0101
0000
1000
0100
1000
0000
,
0001
0010
0001
0100
0010
0000
1000
0001
,
0100
0010
0100
0000
0001
0010
1000
0000
,
0100
1000
0100
0000
1000
0000
0100
1000
,
0010
0100
0001
0000
0010
0001
0010
0000
,
1000
1000
0100
0010
0001
0001
0010
0100
,
0000
0010
1000
0010
1000
0100
0010
0001
,
2000
0001
0000
0010
,
0000
0100
0000
0010
,
0001
0000
0000
0000
3001
0000
0000
0000
0010
0000
0000
0100
0000
0000
0110
0000
;

//---------------dance-single - ----------------
#NOTES:
     dance-single:
     :
     Easy:
     4:
     0.267659,0.442455,0.061574,0.246297,0.004398,178.000000,7.000000,28.000000,0.000000,0.000000,0.000000,0.267659,0.442455,0.061574,0.246297,0.004398,178.000000,7.000000,28.000000,0.000000,0.000000,0.000000:
// measure 0
0000
0000
0000
0000
,  // measure 1
0000
0000
0000
0000
,  // measure 2
0000
0000
0000
0000
,  // measure 3
0000
0000
0000
0000
,  // measure 4
0010
0000
0100
0000
,  // measure 5
0001
1000
0001
0000
,  // measure 6
0100
0000
1000
0000
,  // measure 7
0010
0100
0010
0000
,  // measure 8
1000
0001
0100
0010
,  // measure 9
0001
0010
0001
0001
,  // measure 10
0100
0010
1000
0100
,  // measure 11
1000
0001
0010
0000
,  // measure 12
0001
0100
1000
0100
,  // measure 13
0010
0100
0010
0001
,  // measure 14
0010
0010
1000
1000
,  // measure 15
0010
0100
0001
0000
,  // measure 16
0010
1000
0100
0000
,  // measure 17
0001
0010
0100
0000
,  // measure 18
0100
1000
0010
0100
,  // measure 19
0001
0010
0001
0000
,  // measure 20
2000
0000
3010
0100
,  // measure 21
0002
0000
1003
0010
,  // measure 22
2000
0000
3010
0100
,  // measure 23
0200
0000
0310
1000
,  // measure 24
0020
0000
0031
0010
,  // measure 25
0200
0000
0301
0001
,  // measure 26
0020
0000
1030
0100
,  // measure 27
0002
0000
1003
0000
,  // measure 28
0010
1000
0100
1000
,  // measure 29
0010
0001
0100
0000
,  // measure 30
0010
0100
0001
0010
,  // measure 31
0001
0100
1000
0000
,  // measure 32
1000
1000
0100
0100
,  // measure 33
1000
0010
1000
0000
,  // measure 34
0200
0300
0020
0030
,  // measure 35
1000
0001
2000
3000
,  // measure 36
0010
0000
0010
0000
,  // measure 37
0100
0000
0001
0001
,  // measure 38
1000
0000
0100
0000
,  // measure 39
0001
0000
0010
1000
,  // measure 40
0100
0000
1001
0000
,  // measure 41
0010
0000
0110
0000
,  // measure 42
0100
0100
1000
1000
,  // measure 43
0010
1000
0001
0000
,  // measure 44
0200
0000
0310
0010
,  // measure 45
0000
0001
1000
0001
,  // measure 46
0020
0030
0020
0030
,  // measure 47
1000
0100
2000
3000
,  // measure 48
0010
0001
0100
0010
,  // measure 49
0001
1000
0002
0003
,  // measure 50
1000
1000
0100
0100
,  // measure 51
0010
0100
0001
0000
,  // measure 52
0220
0330
2002
3003
,  // measure 53
0220
0330
2002
3003
,  // measure 54
0010
1000
0100
0010
,  // measure 55
0001
0100
0020
0030
,  // measure 56
1000
1000
0001
0001
,  // measure 57
0010
0001
0200
0300
,  // measure 58
0001
0010
0001
1000
,  // measure 59
0100
0100
1000
0010
,  // measure 60
2002
0000
0000
0000
,  // measure 61
0000
0000
0000
0000
,  // measure 62
3003
0000
0000
0000
0000
0000
0000
0000
0001
0000
0000
1000
0000
0000
0001
0000
;
