#TITLE:Colors;
#SUBTITLE:-sasakure.UK Futurelogic Remix-;
#ARTIST:sasakure.UK;
#TITLETRANSLIT:;
#SUBTITLETRANSLIT:;
#ARTISTTRANSLIT:;
#GENRE:;
#CREDIT:;
#MUSIC:Colors -sasakure.UK Futurelogic Remix-.ogg;
#BANNER:Colors -sasakure.UK Futurelogic Remix-.png;
#BACKGROUND:Colors -sasakure.UK Futurelogic Remix--bg.PNG;
#CDTITLE:;
#SAMPLESTART:90.612;
#SAMPLELENGTH:14.700;
#SELECTABLE:YES;
#OFFSET:-0.004;
#BPMS:0.000=150.000
,84.000=75.000
,116.000=150.000
,192.000=75.000
,194.000=150.000
;
#STOPS:;
#ORIGIN:;
#PREVIEWVID:;
#JACKET:;
#CDIMAGE:;
#DISCIMAGE:;
#BGCHANGES:;
#FGCHANGES:;

//--------------- dance-single - ----------------
#NOTES:
     dance-single:
     :
     Beginner:
     3:
     0,0,0,0,0:
0000
0000
0000
0000
,
0000
0000
0000
0000
,
0000
0000
0000
0000
,
0000
0000
0000
0000
,
0000
0000
0000
0000
,
0100
0000
0100
0000
,
0010
0000
0010
0000
,
1000
0000
0001
0000
,
2000
0000
3000
0000
,
1001
0000
0000
0000
,
0001
0000
0000
0000
,
1000
0000
0000
0000
,
0010
0000
0010
0000
,
0110
0000
0000
0000
,
0100
0000
0100
0000
,
0001
0000
1000
0000
,
0001
0000
1000
0000
,
0001
0000
0001
0000
,
0010
0000
0010
0000
,
0100
0000
0100
0000
,
1000
0000
1000
0000
,
1000
0000
0001
0001
,
0001
0000
0010
0010
,
0010
0000
0100
0100
,
0100
0000
1000
1000
,
2000
3000
0002
0003
,
2000
3000
0010
0010
,
0020
0030
0200
0300
,
0020
0030
0001
0001
,
0002
0000
0003
0000
,
0100
0000
0100
0000
,
0200
0000
0300
0000
,
1000
0000
1000
0000
,
2000
0000
3000
0000
,
0010
0000
0010
0000
,
0020
0000
0030
0000
,
0100
0000
0010
0000
,
0110
0000
0000
0000
,
0001
0000
0000
0000
,
1000
0000
0000
0000
,
0001
0000
0000
0000
,
1000
0000
1000
0000
,
0010
0000
0010
0000
,
1000
0000
1000
0000
,
0001
0000
0001
0000
,
0100
0000
0100
0000
,
0010
0000
0010
0000
,
1000
0000
0001
0000
,
2002
3003
0100
0000
,
0100
0000
0010
0000
,
0010
0000
0100
0000
,
0001
0000
0100
0000
,
1000
0000
0001
0000
,
0001
0000
1000
0000
,
1000
0000
0001
0000
,
0010
0000
0001
0000
,
0100
0000
0020
0000
,
0030
0000
0200
0000
,
0300
0000
2000
0000
,
3000
0000
0002
0000
,
0003
0000
0010
0000
,
0010
0000
1000
0000
,
1000
0000
0100
0000
,
0100
0000
0001
0000
,
0001
0000
2000
0000
,
3000
0000
0001
0000
,
1000
0000
0002
0000
,
0003
0000
0010
0000
,
0020
0000
0030
0000
;

//--------------- dance-single - ----------------
#NOTES:
     dance-single:
     :
     Easy:
     6:
     0.25247,0.405999,0.079608,0.405999,0,222,212,10,51,0,0,0,0,0,0.25247,0.405999,0.079608,0.405999,0,222,212,10,51,0,0,0,0,0:
0000
0000
0000
0000
,
0000
0000
0000
0000
,
0000
0000
0000
0000
,
0000
0000
0000
0000
,
0000
0000
0000
0000
,
0001
0001
0001
0000
,
0010
0010
0010
0000
,
0100
0000
1000
0000
,
0100
0010
0110
0000
,
2000
3000
0010
0010
,
0002
0003
1000
1000
,
0020
0030
0100
0100
,
2000
3000
0020
0030
,
0001
0100
0010
0010
,
1000
0010
0100
0100
,
0010
0100
1000
0001
,
1000
0100
0001
0001
,
0020
0130
1000
1000
,
0002
1003
0100
0100
,
0002
0103
2000
3100
,
0001
0010
2002
3003
,
1000
0010
1000
1010
,
0100
0001
0100
0101
,
1000
1000
0010
0000
0010
0010
0001
0000
,
0100
0001
0100
1000
0100
0010
0010
0000
,
0002
0013
0200
0301
,
0200
2300
3020
0032
,
0103
1000
1000
0000
0010
0100
0100
0000
,
0020
0000
1000
0000
1000
0030
0110
0000
,
2000
3000
0010
1000
,
0010
0100
0100
0000
,
0002
0003
0010
0100
,
0010
0001
0001
0000
,
2000
0000
0002
3003
,
0200
0000
2000
3300
,
0022
0030
2000
3000
,
0200
0300
0200
0303
,
0010
0000
0010
0001
,
0100
1000
1000
0000
,
0100
0000
1000
0000
,
0100
0001
0001
0000
,
2002
3003
0100
0010
,
0001
1000
0010
0010
,
0200
0300
0002
0003
,
1000
0100
2000
3000
,
0001
0010
0100
0100
,
0010
1000
0001
0001
,
0200
0310
0020
0031
,
0002
0000
0000
0003
2000
0000
3000
0000
,
0010
0100
0200
0300
,
1000
0001
0002
0003
,
1000
0010
0001
0010
,
0020
0030
1000
0100
,
1000
1000
0010
0100
,
0010
0010
0002
0003
,
2000
3000
0100
0010
,
0220
0330
1000
0000
,
0100
0001
0100
0010
,
0010
0000
0001
0000
,
1000
0000
0100
0001
,
0202
0303
0020
1030
,
0100
1000
2000
3001
,
0100
0001
0200
0310
,
1000
0100
0002
1003
,
0010
0010
0100
0001
,
0100
0000
1000
0010
,
1000
0000
0100
0001
,
0010
1000
0001
0000
,
1001
0000
0000
0000
;

//--------------- dance-single - ----------------
#NOTES:
     dance-single:
     :
     Medium:
     10:
     0.421921,0.597655,0.230862,0.358235,0.095529,371,342,29,45,0,0,0,0,0,0.421921,0.597655,0.230862,0.358235,0.095529,371,342,29,45,0,0,0,0,0:
0000
0000
0000
0000
,
0000
0000
0000
0000
,
0000
0000
0000
0000
,
0000
0000
0000
0000
,
0000
0000
0000
0000
,
0100
1000
0100
0100
,
0001
1000
0001
0001
,
0010
1000
0010
0001
,
1001
0000
1010
0000
0100
0100
0100
0000
,
0010
0000
0011
0000
0001
0000
1000
0100
,
1000
0000
1100
0000
0100
0000
0001
0100
,
0001
0000
0101
0000
0100
0000
0010
0001
,
0010
0000
1000
0100
1000
0000
0110
0000
,
2000
0000
3002
0000
2003
0000
3001
0100
,
0001
0010
0110
1000
,
0010
0000
0100
0001
0100
0000
1000
0010
,
1000
0000
0100
1000
0100
0010
0010
0000
,
0020
0000
2030
0000
3020
0000
1030
0100
,
1000
0000
0010
0000
1000
0001
1000
0000
,
0010
1000
0010
0000
0100
1000
0100
0000
,
0010
0010
0011
1010
,
0020
0000
0200
0000
0330
1000
0001
0000
0000
0000
0100
0000
1100
0000
0100
0000
,
0002
0000
2000
0000
3003
0100
0010
0100
0000
0000
0001
0010
0000
0011
0000
0000
,
0200
0000
2000
0000
3300
0000
0010
0100
0010
0000
0001
0000
1001
0000
1000
0000
,
0200
0000
0300
0010
0020
0000
0031
1000
0000
0001
0000
1000
0000
0110
0000
0000
,
0001
0000
0010
0001
0000
0010
1000
0000
0001
0000
0100
0010
0000
0001
0100
0000
,
1000
0000
0010
0100
0010
0000
0001
1000
0001
0000
0010
0001
0000
1000
1000
0000
,
0010
0000
0100
0000
0010
0000
0001
0010
0001
0000
0100
0000
1000
0000
1000
0100
,
0002
0000
0010
0000
0010
0000
0100
0000
0010
0000
1003
0000
1000
0100
0010
0100
,
0002
0000
0000
0000
0020
0000
0033
1000
,
0100
0000
0000
0000
0100
0000
0010
0000
0100
0000
0000
0001
0000
0000
0010
0000
,
2000
0000
0100
0000
0100
0000
3001
0010
,
0001
0000
0100
1000
0100
0001
0001
0000
,
0220
0000
0030
0000
2000
0000
3300
0010
,
0022
0000
0003
0000
1030
0000
1000
0100
,
0202
0300
2000
0003
,
0010
0010
0020
3030
,
0100
0000
0001
0000
0100
0001
0010
0001
,
0010
0000
1000
0010
1000
0100
0100
0000
,
0010
0000
0001
0000
0010
1000
0100
0000
,
0001
0100
1000
0100
0010
0000
1010
0000
,
0001
0000
0100
1000
0000
0010
0100
0000
,
0010
0001
0010
0100
0000
0001
0001
0000
,
1000
0000
1001
0000
0001
0000
0010
0100
,
0010
0100
1000
0000
1010
0000
0010
0000
,
0100
0000
0100
0000
0001
0100
1000
0100
,
0010
0000
0010
0000
1000
0010
0100
0010
,
0001
0101
0100
1100
,
2002
0000
0000
3003
0010
0000
1000
0100
,
1000
0000
0010
0100
0000
0010
0010
0000
,
1000
0001
1000
0100
0010
0000
0110
0000
,
0100
0000
1000
0100
0000
0001
0100
0000
,
0010
1000
1000
0000
0010
0000
1010
0000
,
1000
0000
0100
0001
0000
0010
0001
0000
,
1000
0010
0010
0000
0200
0000
1300
0000
,
0200
0301
0020
2030
,
3002
0000
2003
0100
3100
0000
0010
0000
,
0101
0010
0100
1000
,
1001
0000
0010
0000
1000
0000
0010
0100
,
0010
0000
0001
0010
0100
0010
0100
0000
,
0010
1000
1010
0000
0002
0000
1000
0000
,
1003
0100
0010
0100
0020
0000
0001
0000
,
0031
0100
1000
0100
2000
0000
3010
0000
,
0100
0001
0100
0000
0010
0100
1000
0100
,
0010
0001
0011
0000
0002
0000
0100
0000
,
0013
0100
0020
1000
,
0031
1000
0002
0103
,
2000
3100
0200
0300
,
0220
0330
0000
0000
;

//--------------- dance-single - ----------------
#NOTES:
     dance-single:
     :
     Hard:
     13:
     0.509489,0.654375,0.238823,0.445803,0.250764,448,418,30,56,0,0,0,0,0,0.509489,0.654375,0.238823,0.445803,0.250764,448,418,30,56,0,0,0,0,0:
0000
0000
0000
0000
,
0000
0000
0000
0000
,
0000
0000
0000
0000
,
0000
0000
0000
0000
,
0000
0000
0000
0000
,
1000
0001
0110
0010
,
0100
0000
0001
0000
1001
0000
0010
1000
,
1000
0000
0100
0001
0101
0000
0001
0010
,
0001
0100
0010
0000
1000
0001
0001
0000
,
1200
0000
0301
0000
0010
0001
0100
0010
,
0120
0000
1030
0000
0001
0100
1000
0100
,
0012
0000
1003
0000
0010
1000
0100
0001
,
2010
0000
3100
0001
0210
0000
1300
0001
,
2000
0000
0000
0000
0010
0000
0000
0000
3001
0000
0000
0000
0010
0100
0010
0000
,
0001
0100
1010
0100
,
0010
0001
0010
0000
1000
0010
1000
0000
,
0100
0010
0100
1000
0001
0010
0001
0000
,
0020
0000
0000
0000
0001
0000
0000
0000
0130
0000
0000
0000
1000
0100
1000
0000
,
0001
0010
1000
0000
0100
0001
0010
0000
,
0010
1000
0010
0100
0001
0010
1000
0000
,
0200
0000
0000
0000
0310
0001
0010
1000
,
0100
0001
0101
1000
0020
0030
0220
0330
,
1000
0000
0100
0000
1100
0000
0001
0000
0010
0000
0001
0200
0000
0002
0300
0000
,
0013
0000
1000
0000
1010
0000
0100
0001
0200
0000
0302
0000
0023
0000
2030
0000
,
3100
0000
0001
0010
0001
0000
0100
0010
0000
1000
0000
0100
0000
1001
0000
0000
,
0010
0001
0100
0002
0000
0000
1000
0000
1003
0010
0100
0020
0000
0000
0001
0000
,
0130
0001
0000
0000
0110
0000
1000
0100
2000
0000
0000
0002
3000
0000
0010
0000
,
0103
1000
0010
0200
0001
0000
1000
0000
0301
0010
1000
0020
1000
0030
0001
0100
,
2002
0000
0003
0000
0020
0000
0030
0000
0002
0000
3003
0010
0001
0100
0010
1000
,
0200
0000
0000
0000
0001
0000
0000
0000
0310
0000
0000
0000
0010
1000
0010
0000
,
0001
0100
0010
0000
1100
0000
0100
0010
,
0100
1000
0001
0000
0010
1000
0100
0000
,
0001
0010
0100
0010
0000
1000
1010
0000
,
0200
0000
1000
0000
1000
0000
0301
0010
,
0002
0000
0100
0000
0100
0010
0103
1000
,
0020
0001
0100
1000
,
0001
0000
1000
0000
0100
0100
0100
0000
,
1030
0000
0000
0000
0100
0010
0100
0001
0000
0011
0000
1000
0001
2000
0000
0000
,
3010
0001
0000
0000
0100
0010
0100
1000
0000
0000
1001
0000
0000
1200
0000
0000
,
0310
0000
0001
0000
0010
1000
0000
0100
0000
0101
0000
0010
0100
0020
0000
0000
,
1030
0000
0100
0000
0001
0100
0000
0010
0000
0110
0000
1000
0100
1000
0002
0000
,
0013
0000
1000
0000
0100
0000
2000
0000
0000
0000
0010
0000
3010
0000
0001
0100
,
0001
0010
1000
0010
0100
0001
0010
1000
,
0200
0000
0000
0002
0300
0000
0020
0000
0003
0000
0000
0000
2030
0000
0000
0000
,
0100
0200
3000
0010
0000
0001
0001
0300
,
0010
0000
0000
0001
0000
0000
1000
0000
0000
0010
0000
0000
0100
0000
1000
0000
,
0100
0000
0000
0101
0000
0000
0010
0000
1000
0000
0100
0000
1000
0000
0001
0000
,
0200
0000
1300
0200
0000
0301
0200
0000
,
0020
0000
0000
0000
0300
0000
0031
1000
0002
0000
0000
0000
0103
0000
0010
0000
,
0100
1000
0100
0020
0000
0001
0031
1000
,
0001
0010
0001
0200
0000
1000
0310
1000
,
0001
0000
0000
1000
0000
0000
1001
0000
0000
0000
0010
0000
0010
0000
0100
0000
,
0010
1000
0001
1000
0100
0000
0011
0000
,
0101
0001
0010
0002
0000
1000
2003
0100
,
3100
0000
0010
0000
0000
0100
0000
0000
0001
0000
0010
0000
0100
0000
0000
0000
,
1000
0001
0010
0000
0200
0000
0301
0010
,
1000
0010
0001
0100
2000
0000
0100
0000
,
0010
0000
0001
0000
3010
0000
0100
1000
,
0100
0000
0010
0000
0000
0011
0000
0000
1000
0000
0001
0000
1000
0010
0000
0100
,
0000
0001
0000
0000
0010
0000
1000
0000
0200
0000
0000
0000
0001
0000
0000
0000
,
0010
0000
2300
0000
3010
0100
0010
0001
,
0000
0001
0100
1000
0100
0010
1000
0001
,
0100
0010
0100
0000
1000
0001
1000
1000
,
0010
1000
0010
0000
0100
0010
0100
0000
0001
0010
0001
0000
0010
1000
0010
0000
,
0100
0001
0100
1000
0100
0000
0000
0000
0010
0000
0000
0000
0001
0000
0000
0000
,
1010
0000
0100
1000
0100
0010
0001
0000
,
1000
0010
0001
0000
0010
1000
1000
0000
,
1001
0010
0001
0010
0200
0000
0000
0000
,
0002
0000
0303
0000
;
