#VERSION:0.83;
#TITLE:Cocytus;
#SUBTITLE:;
#ARTIST:FISH BOYS;
#TITLETRANSLIT:;
#SUBTITLETRANSLIT:;
#ARTISTTRANSLIT:;
#GENRE:;
#ORIGIN:;
#CREDIT:;
#BANNER:Cocytus.png;
#BACKGROUND:Cocytus-bg.png;
#PREVIEWVID:;
#JACKET:;
#CDIMAGE:;
#DISCIMAGE:;
#LYRICSPATH:;
#CDTITLE:;
#MUSIC:Cocytus.mp3;
#OFFSET:0.033851;
#SAMPLESTART:79.320000;
#SAMPLELENGTH:15.000000;
#SELECTABLE:YES;
#BPMS:0.000=125.000,
240.000=110.000,
241.000=100.000,
242.000=95.000,
243.000=88.000,
244.000=67.000;
#STOPS:;
#DELAYS:;
#WARPS:;
#TIMESIGNATURES:0.000=4=4;
#TICKCOUNTS:0.000=4;
#COMBOS:0.000=1;
#SPEEDS:0.000=1.000=0.000=0;
#SCROLLS:0.000=1.000;
#FAKES:;
#LABELS:0.000=Song Start;
#BGCHANGES:;
#KEYSOUNDS:;
#ATTACKS:
;

//---------------dance-single - ----------------
#NOTEDATA:;
#CHARTNAME:;
#STEPSTYPE:dance-single;
#DESCRIPTION:;
#CHARTSTYLE:;
#DIFFICULTY:Hard;
#METER:11;
#RADARVALUES:0.365626,0.430140,0.234090,0.468179,0.050719,328.000000,298.000000,30.000000,60.000000,0.000000,0.000000,0.000000,0.000000,0.000000,0.365626,0.430140,0.234090,0.468179,0.050719,328.000000,298.000000,30.000000,60.000000,0.000000,0.000000,0.000000,0.000000,0.000000;
#CREDIT:;
#NOTES:
0000
0000
0000
0000
0000
0000
0100
0002
,
0000
0000
0000
0000
0003
0000
0010
0200
,
0000
0000
0000
0000
0300
0000
0001
2000
,
0000
0000
0000
0000
3000
0010
0001
0020
,
0000
0000
0000
0000
0030
0000
0100
0002
,
0000
0000
0003
0000
0011
0000
0010
2000
,
0000
0000
3000
0000
1001
0000
1000
0020
,
0000
0000
0030
0000
0101
1000
0010
1000
,
0100
0001
0010
0001
0000
0000
1000
0200
,
0000
0010
0001
0010
0301
0000
0010
2000
,
0000
0001
0100
0001
3100
0000
0001
0020
,
0000
0100
1000
0100
1030
0001
0100
0002
,
0000
1000
0010
1000
0013
0000
0100
2000
,
0100
0010
3001
0010
0110
0000
0010
0002
,
0010
0100
1003
0100
1010
0000
0001
0200
,
0001
1000
0310
1000
1001
0010
0100
0010
,
0001
0100
0010
1000
0000
0000
0100
0001
,
0020
0000
1030
0100
2000
0000
0000
0200
,
0000
0000
0000
3300
,
0001
0000
0010
1000
0200
0000
0000
0002
,
0000
0000
0000
0303
,
0010
0000
0100
0001
0020
0000
0000
2000
,
0000
0000
3030
0100
0001
0010
0001
0000
,
2001
0000
0000
0000
0010
3000
0001
0010
,
0100
0000
0001
0000
0010
0000
1010
0000
0100
0000
1000
0000
,
0201
0000
0000
0000
0010
0300
1000
0010
,
0100
0001
0001
0000
1200
0000
1300
0001
,
0021
0000
0001
0000
1000
0030
0100
0010
,
1000
0100
0100
0000
1002
0000
0103
0000
,
2010
0000
0010
0000
0100
3000
0010
0001
,
0010
0100
1000
0000
0101
1000
0100
0000
,
2000
0000
0001
0000
0010
0000
0010
3000
,
0001
0100
0001
0000
0210
0000
0301
0000
,
1002
0010
0100
0100
,
1003
0010
0100
0000
1000
0100
0001
0010
,
0200
1000
1000
0320
,
0002
0033
2002
3003
,
0110
0000
0210
0000
0010
0001
0010
0300
,
1000
0100
0001
0100
1000
0010
0001
0000
,
0100
0010
0100
0010
0001
1000
0001
0010
,
0100
0001
0010
0100
1000
0010
0100
0001
,
2000
0000
0000
0000
3000
0000
0010
0001
0010
0000
0000
0100
0000
0000
0010
0000
,
1010
0000
0000
0001
0000
0000
0200
0000
0000
0000
1000
0000
0000
0000
1000
0000
,
0300
0010
0001
0010
0100
1000
0001
0010
,
1000
0001
1000
0001
0010
1000
0100
0010
,
0002
0000
0000
0000
0003
0000
0100
1000
0100
0000
0000
0010
0000
0000
0001
0000
,
0101
0000
0000
0010
0000
0000
0002
0000
0000
0000
0100
0000
0000
0000
0100
0000
,
0003
1000
0010
0100
0000
0100
1000
0001
,
0010
0100
0010
1000
0001
0010
0100
1000
,
0200
0000
0000
0000
0300
0000
1000
0001
1000
0000
0000
0010
0000
0000
0001
0000
,
0110
0000
0000
1000
0000
0000
0020
0000
0000
0000
0001
0000
0000
0000
0001
0000
,
0030
0100
1000
0100
0010
0001
1000
0010
,
0220
0000
0000
0000
0330
0000
2000
0200
,
0000
0000
3300
0000
0011
0000
0020
2000
,
0000
0000
3030
0000
0101
0000
0200
0020
,
0000
0000
0330
0000
1001
0010
0001
0200
,
2000
0000
3300
0000
0011
0000
0200
0002
,
0000
0000
0303
0000
1010
0000
0002
2000
,
0000
0000
3003
0000
0110
0000
0020
0002
,
0000
0000
0033
0000
1100
0001
0010
0001
,
0100
0010
1000
0100
0000
0010
0100
0002
,
2000
3003
0000
0000
;

//---------------dance-single - ----------------
#NOTEDATA:;
#CHARTNAME:;
#STEPSTYPE:dance-single;
#DESCRIPTION:;
#CHARTSTYLE:;
#DIFFICULTY:Medium;
#METER:7;
#RADARVALUES:0.246352,0.310657,0.101439,0.304317,0.000000,221.000000,208.000000,13.000000,39.000000,0.000000,0.000000,0.000000,0.000000,0.000000,0.246352,0.310657,0.101439,0.304317,0.000000,221.000000,208.000000,13.000000,39.000000,0.000000,0.000000,0.000000,0.000000,0.000000;
#CREDIT:;
#NOTES:
0000
0000
0000
0000
0000
0000
0001
1000
,
0000
0000
0000
0000
0000
0000
1000
0010
,
0000
0000
0000
0000
0000
0000
0010
0001
,
0000
0000
0000
0000
0000
0001
0100
0001
,
0000
0000
0000
0000
0000
0000
0010
0100
,
0000
0000
0000
0000
0000
0000
0100
0010
,
0000
0000
0000
0000
0000
0000
0010
1000
,
0000
0000
0000
0000
0000
1000
0001
1000
,
0100
0000
0001
0100
0000
0000
0001
0020
,
0000
0000
1000
0000
1030
0000
0010
2000
,
0000
0000
0100
0000
3100
0000
1000
0002
,
0000
0000
0010
0000
0013
0000
0001
0200
,
0000
0000
1000
0000
1300
0000
0100
0002
,
0100
0000
1000
0000
1003
0000
0010
0200
,
0010
0000
0001
0000
0301
0000
0010
2000
,
0010
0000
0100
0000
3100
0010
1000
0010
,
0100
0000
0001
1000
0000
0000
1100
0000
,
2000
0100
3002
0000
,
0020
0030
0020
0033
,
0200
0001
0320
0000
,
2000
3000
2000
3030
,
0002
1000
0203
0000
,
0002
0303
0100
0001
,
2002
0000
3003
0000
,
0010
0010
0100
1000
,
0200
0010
0310
1000
,
0001
0010
0200
1300
,
0002
0010
0013
1000
,
0100
0010
0200
0301
,
0002
0000
0010
0000
1000
0003
0010
0000
,
0100
0001
0010
1000
,
0200
0001
0310
0001
,
1000
0010
2000
3001
,
0020
0001
1030
0001
,
0100
0000
0100
0000
1000
0100
1000
0000
,
0002
0000
0100
0000
,
0203
0000
0020
0330
,
1000
1000
0010
0010
,
0001
0100
0010
0100
,
0001
0001
1000
0100
,
0010
0001
0100
1000
,
0220
0330
0001
0001
,
0100
1000
0010
0100
,
0110
0001
1000
0001
,
1010
1000
0010
0001
,
0022
0033
0100
0100
,
0010
0001
0100
0001
,
1001
0010
1000
0010
,
1100
1000
0010
0100
,
0202
0303
0010
0010
,
1000
0100
0001
0100
,
0110
0100
1100
1000
,
2020
0000
0000
0000
3030
0000
0100
0010
,
0000
0000
0000
0000
0000
0000
0010
1000
,
0000
0000
0000
0000
0000
0000
1000
0001
,
0000
0000
0000
0000
0000
0001
0100
0001
,
0000
0000
0000
0000
0000
0000
0100
1000
,
0000
0000
0000
0000
0000
0000
0010
0100
,
0000
0000
0000
0000
0000
0000
1000
0001
,
0000
0000
0000
0000
0000
0010
0001
0010
,
0100
0000
1000
0100
0000
0010
0100
0000
,
1000
1001
0000
0000
;

//---------------dance-single - ----------------
#NOTEDATA:;
#CHARTNAME:;
#STEPSTYPE:dance-single;
#DESCRIPTION:;
#CHARTSTYLE:;
#DIFFICULTY:Easy;
#METER:4;
#RADARVALUES:0.132651,0.191173,0.031212,0.218484,0.000000,119.000000,115.000000,4.000000,28.000000,0.000000,0.000000,0.000000,0.000000,0.000000,0.132651,0.191173,0.031212,0.218484,0.000000,119.000000,115.000000,4.000000,28.000000,0.000000,0.000000,0.000000,0.000000,0.000000;
#CREDIT:;
#NOTES:
0000
0000
0000
0100
,
0010
0000
0000
1000
,
0010
0000
0000
0001
,
1000
0000
0000
0001
,
0001
0000
0000
0010
,
0001
0000
0000
1000
,
0010
0000
0000
0100
,
0010
0000
0000
0001
,
1000
1000
0000
0100
,
0200
0000
0300
0010
,
0020
0000
0030
0001
,
0002
0000
0003
1000
,
2000
0000
3000
0010
,
0020
0000
0030
1000
,
2000
0000
3000
0001
,
0002
0000
0003
0010
,
0100
0010
0000
1000
,
1000
0000
0100
0000
,
2000
0000
3000
0000
,
0001
0000
1000
0000
,
0002
0000
0003
0000
,
0010
0000
0100
0000
,
0020
0030
0001
0000
,
2002
0000
3003
0000
,
0010
0000
0100
0000
,
0200
0000
0300
0000
,
1000
0000
0001
0000
,
0002
0000
0003
0000
,
0010
0000
1000
0000
,
2000
0000
3000
0000
,
0100
0000
0001
0000
,
0002
0000
0000
0000
,
0003
0000
1000
0000
,
2000
0000
0000
0000
,
3000
0000
0010
0010
,
0200
0000
0300
0000
,
1000
0000
0010
0000
,
0220
0000
0330
0000
,
0010
0000
0010
0000
,
1000
0000
1000
0000
,
0010
1000
0010
0000
,
0001
0000
0001
0000
,
1000
0010
1000
0000
,
0100
0000
0100
0000
,
0010
0001
0010
1000
,
0100
0000
0100
0000
,
0001
0010
0001
0000
,
1000
0000
1000
0000
,
0010
0100
1000
0100
,
0001
0000
0001
0000
,
0010
1000
0010
0100
,
1000
0000
0001
0000
,
1001
0000
0000
0000
,
0200
0000
0300
0000
,
0020
0000
0030
0000
,
2000
0000
3000
0000
,
0001
0000
1000
0000
,
0002
0000
0003
0000
,
0020
0000
0030
0000
,
0200
0000
0300
0000
,
1000
0000
0010
0000
,
0220
0330
0000
0000
;

//---------------dance-single - ----------------
#NOTEDATA:;
#CHARTNAME:;
#STEPSTYPE:dance-single;
#DESCRIPTION:;
#CHARTSTYLE:;
#DIFFICULTY:Beginner;
#METER:1;
#RADARVALUES:0.093636,0.142795,0.046818,0.023409,0.000000,84.000000,78.000000,6.000000,3.000000,0.000000,0.000000,0.000000,0.000000,0.000000,0.093636,0.142795,0.046818,0.023409,0.000000,84.000000,78.000000,6.000000,3.000000,0.000000,0.000000,0.000000,0.000000,0.000000;
#CREDIT:;
#NOTES:
// measure 0
0000
0000
0000
0000
,  // measure 1
1000
0000
0000
0000
,  // measure 2
1000
0000
0000
0000
,  // measure 3
0001
0000
0000
0000
,  // measure 4
0001
0000
0000
0000
,  // measure 5
0010
0000
0000
0000
,  // measure 6
0010
0000
0000
0000
,  // measure 7
0100
0000
0000
0000
,  // measure 8
0100
0000
0000
0001
,  // measure 9
0001
0000
0000
1000
,  // measure 10
1000
0000
0000
0001
,  // measure 11
0001
0000
0000
1000
,  // measure 12
1000
0000
0000
0010
,  // measure 13
0010
0000
0000
0100
,  // measure 14
0100
0000
0000
0010
,  // measure 15
0010
0000
0000
0100
,  // measure 16
0100
0000
0000
0000
,  // measure 17
2000
0000
0000
0000
,  // measure 18
3000
0000
0000
0000
,  // measure 19
0002
0000
0000
0000
,  // measure 20
0003
0000
0000
0000
,  // measure 21
0200
0000
0000
0000
,  // measure 22
0300
0000
0000
0000
,  // measure 23
1001
0000
0000
0000
,  // measure 24
0000
0000
0010
0000
,  // measure 25
0010
0000
0000
0000
,  // measure 26
0000
0000
0100
0000
,  // measure 27
0100
0000
0000
0000
,  // measure 28
0000
0000
1000
0000
,  // measure 29
1000
0000
0000
0000
,  // measure 30
0000
0000
0001
0001
,  // measure 31
0001
0000
0000
0000
,  // measure 32
0000
0000
0100
0000
,  // measure 33
0100
0000
0000
0000
,  // measure 34
0000
0000
0010
0010
,  // measure 35
0010
0000
0000
1000
,  // measure 36
1000
0000
0001
0000
,  // measure 37
1001
0000
0000
0000
,  // measure 38
0100
0000
0000
0000
,  // measure 39
0010
0000
0000
0000
,  // measure 40
0100
0000
0000
0000
,  // measure 41
0110
0000
0000
0000
,  // measure 42
0001
0000
0001
0000
,  // measure 43
0001
0000
1000
0000
,  // measure 44
0001
0000
1000
0000
,  // measure 45
1001
0000
0000
0000
,  // measure 46
0010
0000
0010
0000
,  // measure 47
0100
0000
0010
0000
,  // measure 48
0100
0000
0010
0000
,  // measure 49
0110
0000
0000
0000
,  // measure 50
1000
0000
1000
0000
,  // measure 51
0001
0000
0001
0000
,  // measure 52
1001
0000
0000
0000
,  // measure 53
0010
0000
0000
0000
,  // measure 54
0100
0000
0000
0000
,  // measure 55
0010
0000
0000
0000
,  // measure 56
0100
0000
0000
0000
,  // measure 57
1000
0000
0000
0000
,  // measure 58
0001
0000
0000
0000
,  // measure 59
1000
0000
0000
0000
,  // measure 60
0010
0000
0000
0000
,  // measure 61
0010
0000
0000
0000
;
