#VERSION:0.83;
#TITLE:Clione;
#SUBTITLE:;
#ARTIST:kors k;
#TITLETRANSLIT:;
#SUBTITLETRANSLIT:;
#ARTISTTRANSLIT:;
#GENRE:;
#ORIGIN:;
#CREDIT:;
#BANNER:Clione.png;
#BACKGROUND:Clione-bg.png;
#PREVIEWVID:;
#JACKET:;
#CDIMAGE:;
#DISCIMAGE:;
#LYRICSPATH:;
#CDTITLE:;
#MUSIC:Clione.ogg;
#OFFSET:-0.612601;
#SAMPLESTART:41.165539;
#SAMPLELENGTH:12.972973;
#SELECTABLE:YES;
#BPMS:0.000=148.000,
36.000=74.000,
52.000=148.000,
148.000=74.000,
166.000=148.000;
#STOPS:225.750=0.405;
#DELAYS:;
#WARPS:;
#TIMESIGNATURES:0.000=4=4;
#TICKCOUNTS:0.000=4;
#COMBOS:0.000=1;
#SPEEDS:0.000=1.000=0.000=0;
#SCROLLS:0.000=1.000;
#FAKES:;
#LABELS:0.000=Song Start;
#BGCHANGES:20.000=Clione.avi=1.000=0=0=0=StretchNoLoop====,
99999=-nosongbg-=1.000=0=0=0 // don't automatically add -songbackground-
;
#KEYSOUNDS:;
#ATTACKS:
;

//---------------dance-single - ----------------
#NOTEDATA:;
#CHARTNAME:;
#STEPSTYPE:dance-single;
#DESCRIPTION:;
#CHARTSTYLE:;
#DIFFICULTY:Hard;
#METER:11;
#RADARVALUES:0.375816,0.423883,0.173182,0.412337,0.032987,319.000000,298.000000,21.000000,50.000000,0.000000,0.000000,0.000000,0.000000,0.000000,0.375816,0.423883,0.173182,0.412337,0.032987,319.000000,298.000000,21.000000,50.000000,0.000000,0.000000,0.000000,0.000000,0.000000;
#CREDIT:;
#NOTES:
0000
0000
0000
0000
,
0000
0000
0000
0000
,
0000
0000
0000
0000
,
0000
0000
0000
0000
,
0000
0000
0000
0000
,
1000
0100
1000
0000
0010
1000
0010
0000
,
0100
0001
0100
0000
0010
0001
0010
0000
,
0100
0010
1000
0000
1000
0001
0010
0000
,
0100
1000
0100
0001
0010
0100
0010
0000
,
2010
0000
0002
3000
0013
0100
0220
0330
,
0201
0000
2000
0300
3001
0010
0022
0033
,
1020
0000
1000
0000
0200
0300
0002
0003
,
0200
0000
0000
0000
0000
0000
0330
0000
1000
1000
1000
0010
0100
0001
0100
0000
,
0020
0000
0000
0000
0000
0000
2000
0000
0030
0000
0000
0000
3000
0000
0001
0010
,
0002
0000
0000
0200
0003
0000
1300
0000
,
0120
0000
0000
0200
0030
0000
0302
0000
,
0020
0030
1000
0103
,
2000
0001
0010
0001
,
3020
0000
0000
0000
0100
0000
0000
0000
0100
0000
0000
0000
1030
0000
0100
1000
,
0200
0000
0010
0010
,
0001
0000
1000
0000
0010
0010
0310
0000
,
0100
1000
0100
0010
0100
0010
0001
0000
,
1000
0010
1000
0010
0100
0100
0001
0000
,
1000
0010
1000
0001
0100
0001
0100
0000
,
0010
1000
0010
0100
0010
0010
0100
0000
,
1000
0000
1100
0000
0001
0100
0001
0000
,
0010
0000
0110
0000
0010
0001
0010
0000
,
1000
0000
1001
0000
1000
0100
1000
0000
,
0001
1000
0010
0100
0010
0000
0011
0000
,
2000
0000
0000
0000
0000
0000
0002
0000
3000
0000
0000
0000
0003
0000
0010
0100
,
0020
0000
0000
2000
0030
0000
3100
0000
,
0002
0000
0000
0020
0003
0000
0200
0030
,
0002
0300
0010
1003
,
0020
0001
0100
1000
,
0230
0000
0000
0000
0001
0000
0000
0000
0001
0000
0000
0000
0310
0000
1000
0001
,
2000
0000
0001
0100
,
0010
0000
0100
0000
3001
0000
0010
1000
,
0001
0000
1000
0000
0010
1000
1010
0000
,
0100
0000
0001
0000
1000
0100
1100
0000
,
0001
0010
0100
0000
0100
1000
0010
0000
,
0100
0010
1000
0001
0100
0010
1001
0000
,
2000
0000
0010
3010
0002
0000
0100
0000
,
1003
0100
0200
0000
,
0301
0000
0100
1000
0020
0000
1000
0000
,
1030
0000
0001
0010
2000
0000
0100
0000
,
0010
0000
3001
0000
0002
0000
0000
2000
,
0003
0000
3000
0010
0020
0000
0000
0000
,
1000
0100
1000
1000
,
0001
0030
0100
0001
,
1000
0010
1000
0000
0100
0000
0100
0001
,
0010
0000
0011
0000
1000
0100
1000
0100
,
0010
0000
0100
0010
0100
0001
1000
0100
,
0010
0000
1001
0000
1000
0001
0100
0000
,
0010
1000
0100
0000
0001
1000
0010
0001
,
0100
0000
1100
0000
0100
0000
0010
1000
,
0100
0010
0001
0010
1000
0100
1000
0000
,
0011
0000
0110
0000
0001
0010
1000
0010
,
0100
0000
0100
0001
1000
0100
0010
0000
,
0011
0000
0000
0000
1000
0000
0001
0000
0000
0001
0000
0000
0010
0000
0100
0000
,
0010
0100
0020
0000
0000
0000
0230
0000
,
0310
0000
1000
0100
2000
0000
3100
0010
,
0200
0000
0301
0010
0002
0000
0013
1000
,
0010
2002
0003
0020
,
0030
0000
0100
0000
0010
0000
0100
0100
,
3100
1001
0000
0000
;

//---------------dance-single - ----------------
#NOTEDATA:;
#CHARTNAME:;
#STEPSTYPE:dance-single;
#DESCRIPTION:;
#CHARTSTYLE:;
#DIFFICULTY:Challenge;
#METER:14;
#RADARVALUES:0.556066,0.847765,0.255649,0.437077,0.498928,472.000000,441.000000,31.000000,53.000000,0.000000,0.000000,0.000000,0.000000,0.000000,0.556066,0.847765,0.255649,0.437077,0.498928,472.000000,441.000000,31.000000,53.000000,0.000000,0.000000,0.000000,0.000000,0.000000;
#CREDIT:;
#NOTES:
0000
0000
0000
0000
,
1001
1000
1000
1000
,
2100
0000
3100
0000
0100
0000
0100
0100
,
0100
0000
0001
0000
0010
0000
0001
0000
1000
0000
0100
1000
0000
1000
0010
0100
,
0000
0000
0100
0000
0001
0000
0010
0000
0001
0000
1000
0001
0000
0001
1000
0000
,
1010
0100
0001
0100
0010
1000
0001
0000
,
0210
0000
0010
0000
1300
0000
0001
0000
0100
0000
0010
0000
0001
0000
0001
0010
,
1000
0000
0100
0000
0010
0000
0100
0000
0001
0000
1000
0100
0000
0100
0010
0000
,
0001
1000
0001
0000
0010
0000
0010
0000
1000
0100
1000
0000
0010
0100
0010
0001
,
0200
0000
0000
0000
0000
0000
1000
0000
0000
0000
0000
0000
0300
0000
0010
0001
0020
0000
0000
0000
0000
0000
0000
0000
0000
0000
0000
0000
0030
0000
1000
0000
,
0002
0000
0000
0000
2003
0000
0000
3002
0000
0000
0203
0000
0000
0320
0000
0001
,
0230
0000
0001
0300
2000
0000
3002
0000
,
0023
0000
1000
0000
0100
0100
0100
0130
,
0102
0000
0000
0000
1000
0000
0023
0000
1000
0000
0000
0000
1030
0000
1000
0001
,
0200
0000
0010
0302
0010
0000
2003
0010
,
3020
0000
0100
2030
0100
3000
0102
0000
,
0203
0000
0000
0000
1000
0000
0000
0000
1300
0000
0000
0010
0100
0000
0100
0000
,
0102
1000
0010
0100
,
0203
0000
0000
0000
1000
0000
0000
0000
0010
0000
0000
0000
1300
0000
0001
0010
,
2000
0010
0100
0001
,
0100
0000
0000
0000
0010
0000
0000
0000
3100
0000
0000
0100
0001
0000
0010
0000
,
1100
0000
0100
0000
0000
0010
0000
0000
0001
0000
0000
0100
0000
0000
0010
0000
,
0001
0000
0100
0000
0000
0010
0000
0000
1000
0000
0000
1000
0000
0000
0100
0000
,
0001
0000
0010
0000
0000
0001
0000
0000
0100
0000
0000
0001
0000
0000
0010
0000
,
1000
0000
0100
0000
0000
0100
0000
0000
0010
0000
0000
1000
0000
0000
0001
0000
,
0110
0000
0010
0000
1000
0001
0000
0100
0010
0000
1000
0001
0000
0100
0010
0000
,
0001
0000
0010
0000
0001
1000
0000
0010
0100
0000
0100
0001
0000
0010
0001
0000
,
1000
0000
0010
0000
0100
0001
0000
1000
0001
0000
1000
0100
0000
0010
0001
0000
,
0100
0000
0001
0000
0010
0001
0000
1000
0001
0000
0100
0010
0000
0100
0001
0000
,
2000
0000
0000
0000
0000
0000
0020
0000
0000
0000
0000
0000
3030
0000
0100
0001
,
0200
0000
0000
0020
0300
0000
2000
0030
,
3002
0000
0000
0200
0003
0000
0320
0000
,
0230
0010
0010
0310
,
1002
0000
1000
0000
0000
1000
0000
0000
1000
0000
0000
1000
0003
0000
1000
0000
,
0201
0000
0001
0000
0000
0001
0000
0000
0001
0000
0000
0001
0300
0000
0001
0010
,
2000
0000
0100
0000
0000
0010
0000
0000
0001
0000
0000
0010
3000
0000
0010
0000
,
0100
0000
1000
0000
0100
0000
0001
0000
0010
0000
1000
0000
0001
1000
0001
1000
,
0002
0000
0000
1000
0000
1000
0003
0000
0200
0000
0000
1300
0000
1000
0020
0000
,
2030
0000
0000
0001
0000
0002
0000
0000
3003
0000
0000
0102
0000
0100
0003
1000
,
0020
0000
0000
0001
0030
0001
0100
0010
2000
0000
0000
0100
0000
0100
3000
0010
,
0002
0000
0000
0010
0000
0010
0003
0000
1000
0000
0001
0010
0100
0010
0001
0100
,
2000
0000
0000
0000
3000
0000
0000
0000
0010
0000
0001
0100
0010
0000
0001
1000
0010
0000
0000
0000
0000
0000
0000
0000
0100
0000
0000
0000
0010
0000
0000
0000
,
0100
0000
0001
0000
1001
0000
0000
0000
1010
0000
0000
0000
0100
0001
0100
0010
,
0100
1000
0010
0100
0001
0000
0011
0000
0011
0000
0000
0000
1000
0000
1000
0010
,
0100
0000
0100
1000
0010
0000
1010
0000
0110
0000
0000
0000
0100
0000
0010
0000
,
0001
1000
0010
0000
2100
0000
3100
0201
,
0000
0001
0300
0011
2001
0000
0010
0000
,
0100
0000
0010
0000
0001
0001
0001
0001
,
0001
0001
3001
0000
0100
0010
1000
0000
,
0001
0000
0100
0000
0010
0000
0000
0000
1000
0000
1000
0000
0100
0000
0000
1010
,
0000
0001
0110
0000
0100
0001
1000
0010
,
0100
0000
0000
1001
0000
0000
0001
0000
0100
0000
1000
0000
0010
0000
0100
0000
,
0001
0000
0000
1001
0000
0000
0000
0000
0100
0000
0001
0000
0000
1100
0000
0000
,
0010
0000
0000
0101
0000
0000
0001
0000
1000
0000
0010
0000
0100
0000
0001
0000
,
0100
0000
0000
0110
0000
0000
0000
0000
1000
0000
0001
0000
0000
0100
0000
0000
,
1000
0000
0000
0100
0000
0000
0010
0000
0000
0100
0000
0000
0001
0000
0000
0010
,
0000
0000
0100
0000
0000
0001
0010
0001
1000
0010
0100
0010
0100
0001
1000
0010
,
0100
0001
1000
0010
0001
0100
1000
0100
0010
1000
0001
1000
0001
0100
0010
0100
,
0001
0010
0100
0000
1000
0100
0001
1000
0100
0001
1000
0100
0001
1000
0100
0001
,
1000
0100
0001
0010
2000
0000
0000
0000
0000
0000
0000
0000
3200
0000
0000
0000
,
0300
0000
0100
0001
0010
0100
0001
0001
,
0110
0100
1000
0100
1000
0010
0001
0100
,
1010
0000
0010
1000
0002
0000
0000
0000
0000
0000
0000
0000
0000
0000
0000
0000
,
0000
1000
0100
1000
,
0100
0003
0000
0000
;

//---------------dance-single - ----------------
#NOTEDATA:;
#CHARTNAME:;
#STEPSTYPE:dance-single;
#DESCRIPTION:;
#CHARTSTYLE:;
#DIFFICULTY:Medium;
#METER:7;
#RADARVALUES:0.327513,0.395844,0.098961,0.288636,0.000000,278.000000,266.000000,12.000000,35.000000,0.000000,0.000000,0.000000,0.000000,0.000000,0.327513,0.395844,0.098961,0.288636,0.000000,278.000000,266.000000,12.000000,35.000000,0.000000,0.000000,0.000000,0.000000,0.000000;
#CREDIT:;
#NOTES:
0000
0000
0000
0000
,
0000
0000
0000
0000
,
0000
0000
0000
0000
,
0000
0000
0000
0000
,
0000
0000
0000
0000
,
1000
0010
0100
0010
,
0001
0000
0100
0000
0001
0000
1000
0001
,
1000
0100
0001
0100
,
0010
0000
0100
0000
0001
0010
0100
0010
,
0200
1000
0001
0301
,
0020
0100
1000
1030
,
0002
0010
0100
0013
,
2000
0000
0001
0000
0100
0001
3010
0001
,
0010
1000
0100
1000
,
0100
0000
0001
0000
0010
0000
1000
0100
,
1000
0001
0010
1000
,
0100
0000
1000
0000
0010
0000
0010
0001
,
0100
0000
1000
0000
0001
0000
0010
1000
,
0001
0000
0100
0000
0100
0000
0001
0100
,
0010
1000
0001
1000
,
0010
1000
0100
1000
0010
0000
1001
0000
,
0200
0010
0010
1300
,
0002
1000
0100
1003
,
0020
0100
1000
1000
,
0001
1000
0130
0110
,
2000
3100
2000
3010
,
0200
0310
0200
0301
,
0020
1000
1030
0000
0002
1000
1003
0000
,
0200
0010
0001
0010
0301
0000
1010
0000
,
0002
0000
1000
1003
,
0020
0000
0100
0130
,
2000
3001
0002
0013
,
0200
1000
0001
0310
,
0001
0010
1000
0010
,
0100
0001
0100
1000
,
2000
0100
0001
0010
,
0001
0001
3010
0001
,
0022
0003
1000
0130
,
0202
0300
1000
0013
,
2000
0100
3010
0000
0020
0100
0031
0000
,
0002
0010
1000
0100
0013
0000
1001
0000
,
0100
0010
1000
0000
1000
0000
0010
0000
,
0100
0100
0001
0010
,
1000
0000
0010
0100
0010
0000
1000
0000
,
0100
0000
0010
1000
0100
0000
0010
0000
,
1000
0000
0010
0001
1000
0001
0010
0000
,
0100
0000
0100
0001
0010
0000
1000
0000
,
0010
0001
0010
0000
0100
0001
0100
1000
,
0100
0110
2000
0100
,
0010
3001
0200
0001
,
0010
0301
0020
1000
,
0100
0031
2000
0001
,
0010
0000
3010
0000
0100
0000
0100
0010
,
0001
0000
0011
0000
1000
0000
1000
0010
,
0001
0000
0110
0000
0010
1000
0001
0000
,
0100
0010
0001
0000
0010
0100
0010
1000
,
0001
1001
0001
0100
,
0010
0100
1000
0010
,
0001
0000
0100
1000
0010
0000
0010
0100
,
1000
0001
0100
0010
,
1100
0020
0100
1000
,
0130
2000
0010
0001
,
3010
0220
0000
0000
,
0030
1000
0010
1000
,
1300
0000
0000
0000
;

//---------------dance-single - ----------------
#NOTEDATA:;
#CHARTNAME:;
#STEPSTYPE:dance-single;
#DESCRIPTION:;
#CHARTSTYLE:;
#DIFFICULTY:Easy;
#METER:5;
#RADARVALUES:0.217950,0.397390,0.082467,0.305129,0.000000,185.000000,175.000000,10.000000,37.000000,0.000000,0.000000,0.000000,0.000000,0.000000,0.217950,0.397390,0.082467,0.305129,0.000000,185.000000,175.000000,10.000000,37.000000,0.000000,0.000000,0.000000,0.000000,0.000000;
#CREDIT:;
#NOTES:
0000
0000
0000
0000
,
0000
0000
0000
0000
,
0000
0000
0000
0000
,
0000
0000
0000
0000
,
0000
0000
0000
0000
,
1000
0000
0001
0000
,
0010
0100
0010
0000
,
0001
0000
0100
0000
,
0010
0001
0010
0000
,
2000
3000
0200
0300
,
0002
0003
0020
0030
,
0200
1300
2000
3010
,
0002
0013
0020
0130
,
0200
0300
0001
0001
,
0002
0003
0010
0010
,
0020
0030
1000
1000
,
2000
3000
0100
0100
,
2000
3000
0010
0001
,
0002
0003
0010
0100
,
2000
3000
0100
0010
,
0001
0010
0200
0300
,
1000
0100
1000
0010
,
0100
0001
0010
0000
,
0010
0001
0010
1000
,
0100
0010
1000
0000
,
0100
1000
0100
0001
,
0010
1000
0001
0000
,
0001
0100
0010
0100
,
0001
1000
0010
0000
,
2000
3000
0100
0001
,
0100
0000
1001
0000
,
0002
0003
0100
0010
,
1000
0000
0110
0000
,
0200
0000
0000
0300
,
0002
0000
0000
0003
,
0020
0000
0000
0030
,
1000
0100
0001
0001
,
1000
0001
1000
1001
,
0100
0010
0100
0110
,
1000
0010
1000
0000
0100
1000
0100
0000
,
0010
0001
0100
0001
0010
0000
1001
0000
,
0200
0300
2000
0000
,
3000
0000
0020
0030
,
2000
3000
0001
1000
,
0002
0003
0010
0010
,
0200
0300
1000
1000
,
0020
0030
1000
0100
,
0001
0010
0100
0000
,
2002
3003
0010
0000
,
0100
1000
0100
0000
,
0010
0001
0010
0000
,
1000
0100
0010
0001
,
0010
0000
0100
1000
,
0200
0300
1000
0010
,
2000
3000
0001
0010
,
0100
0010
2000
3000
,
2002
3003
0000
0010
,
0100
0010
0000
1000
,
0001
1000
0000
0010
,
1000
0100
1000
0010
,
0000
0100
0000
0110
,
0000
1000
0000
1001
,
0000
0010
1000
0100
,
0010
0100
0000
2002
,
0000
3003
0000
0000
;

//---------------dance-single - ----------------
#NOTEDATA:;
#CHARTNAME:;
#STEPSTYPE:dance-single;
#DESCRIPTION:;
#CHARTSTYLE:;
#DIFFICULTY:Beginner;
#METER:3;
#RADARVALUES:0.129592,0.231012,0.057727,0.107208,0.000000,110.000000,103.000000,7.000000,13.000000,0.000000,0.000000,0.000000,0.000000,0.000000,0.129592,0.231012,0.057727,0.107208,0.000000,110.000000,103.000000,7.000000,13.000000,0.000000,0.000000,0.000000,0.000000,0.000000;
#CREDIT:;
#NOTES:
// measure 0
0000
0000
0000
0000
,  // measure 1
0000
0000
0000
0000
,  // measure 2
0000
0000
0000
0000
,  // measure 3
0000
0000
0000
0000
,  // measure 4
0000
0000
0000
0000
,  // measure 5
1000
0000
0001
0000
,  // measure 6
1000
0000
1000
0000
,  // measure 7
0100
0000
0010
0000
,  // measure 8
0100
0000
0100
0000
,  // measure 9
0020
0000
0000
0030
,  // measure 10
0200
0000
0000
0300
,  // measure 11
2000
0000
0000
3000
,  // measure 12
0002
0000
0000
0003
,  // measure 13
0100
0000
0010
0000
,  // measure 14
0100
0000
1000
1000
,  // measure 15
1000
0000
0001
0000
,  // measure 16
1000
0000
0010
0010
,  // measure 17
0010
0000
1000
0000
,  // measure 18
0010
0000
0100
0100
,  // measure 19
0100
0000
0001
0000
,  // measure 20
0100
0000
0110
0000
,  // measure 21
0001
0000
0010
0000
,  // measure 22
0001
0000
1000
1000
,  // measure 23
1000
0000
0100
0000
,  // measure 24
0010
0000
0100
0100
,  // measure 25
0100
0000
0001
0000
,  // measure 26
1000
0000
0001
0001
,  // measure 27
0001
0000
0010
0000
,  // measure 28
0100
0000
0010
0010
,  // measure 29
0020
0000
0000
0000
,  // measure 30
0030
0000
0000
0000
,  // measure 31
1000
0000
0000
0000
,  // measure 32
0001
0000
0000
0000
,  // measure 33
1001
0000
0000
0000
,  // measure 34
0100
0000
0000
0000
,  // measure 35
0110
0000
0000
0000
,  // measure 36
0000
0000
0000
0000
,  // measure 37
2000
3000
0100
0100
,  // measure 38
0002
0003
1000
1000
,  // measure 39
0020
0030
0001
0001
,  // measure 40
0200
0300
0010
0010
,  // measure 41
0110
0000
1001
0000
,  // measure 42
0000
0100
0100
0000
,  // measure 43
0000
0001
0001
0000
,  // measure 44
0000
0010
0010
0000
,  // measure 45
0000
0000
1000
0000
,  // measure 46
0001
0000
1001
0000
,  // measure 47
0000
0000
0000
0000
,  // measure 48
0000
0000
0020
0000
,  // measure 49
0030
0000
2000
0000
,  // measure 50
3000
0000
0002
0000
,  // measure 51
0003
0000
0200
0000
,  // measure 52
0300
0000
1000
0000
,  // measure 53
1000
0000
0001
0000
,  // measure 54
0001
0000
0010
0000
,  // measure 55
0010
0000
0100
0000
,  // measure 56
0100
0000
0000
0100
,  // measure 57
0000
0001
0000
0100
,  // measure 58
0000
0010
0000
1000
,  // measure 59
1000
1000
0000
0001
,  // measure 60
0000
0100
0000
0000
,  // measure 61
0000
0010
0000
0000
,  // measure 62
0000
0110
0000
0000
;
