#VERSION:0.83;
#TITLE:Chocolate Dancing;
#SUBTITLE:;
#ARTIST:Yocke feat. Mayu;
#TITLETRANSLIT:;
#SUBTITLETRANSLIT:;
#ARTISTTRANSLIT:;
#GENRE:;
#ORIGIN:;
#CREDIT:;
#BANNER:Chocolate Dancing.png;
#BACKGROUND:Chocolate Dancing-bg.png;
#PREVIEWVID:;
#JACKET:;
#CDIMAGE:;
#DISCIMAGE:;
#LYRICSPATH:;
#CDTITLE:;
#MUSIC:Chocolate Dancing.ogg;
#OFFSET:-0.638470;
#SAMPLESTART:22.000000;
#SAMPLELENGTH:12.000000;
#SELECTABLE:YES;
#BPMS:0.000=90.000;
#STOPS:;
#DELAYS:;
#WARPS:;
#TIMESIGNATURES:0.000=4=4;
#TICKCOUNTS:0.000=4;
#COMBOS:0.000=1;
#SPEEDS:0.000=1.000=0.000=0;
#SCROLLS:0.000=1.000;
#FAKES:;
#LABELS:0.000=Song Start;
#BGCHANGES:0.000=Chocolate Dancing.avi=1.000=0=0=0=StretchNoLoop====,
99999=-nosongbg-=1.000=0=0=0 // don't automatically add -songbackground-
;
#KEYSOUNDS:;
#ATTACKS:
;

//---------------dance-single - ----------------
#NOTEDATA:;
#CHARTNAME:;
#STEPSTYPE:dance-single;
#DESCRIPTION:;
#CHARTSTYLE:;
#DIFFICULTY:Hard;
#METER:12;
#RADARVALUES:0.405363,0.442966,0.246346,0.264594,0.205288,311.000000,284.000000,27.000000,29.000000,0.000000,0.000000,0.000000,0.000000,0.000000,0.405363,0.442966,0.246346,0.264594,0.205288,311.000000,284.000000,27.000000,29.000000,0.000000,0.000000,0.000000,0.000000,0.000000;
#CREDIT:;
#NOTES:
// measure 0
0000
0000
0000
0000
,  // measure 1
0000
0000
0000
0000
,  // measure 2
0000
0000
0000
0000
,  // measure 3
0000
0000
0000
0000
,  // measure 4
1000
0000
0000
1000
0000
0000
1001
0000
0000
0010
0000
0100
0010
0000
0000
0010
0000
0000
1010
0000
0000
0100
0000
0001
,  // measure 5
0100
0000
0000
0100
0000
0000
0110
0000
0000
0001
0000
1000
0001
0000
0000
0001
0000
0000
0011
0000
0000
0000
0000
0000
,  // measure 6
0100
0000
0000
1000
0000
0000
1010
0000
0000
0001
0000
0100
0001
0000
0000
0010
0000
0000
1010
0000
0000
1000
0000
0000
,  // measure 7
0100
0000
0000
0000
0000
0010
0100
0000
0000
0000
0000
0010
0100
0000
0000
0000
0000
0010
0001
0000
0001
0000
0001
0000
,  // measure 8
2000
0000
0000
0010
0000
0000
3001
0000
0000
0010
0000
0100
0010
0000
0000
0001
0000
0000
1001
0000
0000
0100
0000
0001
,  // measure 9
0100
1000
1000
0010
0002
0000
1000
0003
,  // measure 10
0010
0000
0000
0100
0000
0000
0001
0000
0000
0010
0000
0100
0010
0000
0000
1000
0000
0000
1100
0000
0000
0001
0000
0010
,  // measure 11
0001
0100
0010
0100
2000
3000
0001
0100
,  // measure 12
0010
1100
0100
1001
,  // measure 13
1000
0000
0011
0000
0010
1000
0100
0010
,  // measure 14
0100
0001
0001
0010
1000
0010
0110
1000
,  // measure 15
0001
0100
0100
1000
0200
0000
0301
0010
,  // measure 16
0002
0000
0023
0000
0230
0000
0010
0300
,  // measure 17
1000
0001
0001
0100
0000
0100
1100
0000
,  // measure 18
0001
0000
0000
0010
0000
0001
0010
0000
0000
0100
0000
0001
0100
0000
0000
1000
0000
0010
1000
0000
0000
0010
0000
1000
,  // measure 19
0020
0030
0101
0000
2000
3000
0011
0000
,  // measure 20
0020
0000
2030
0000
3002
0000
1003
0010
,  // measure 21
0010
1000
0100
0010
0100
0001
1001
0000
,  // measure 22
0100
0000
0000
0010
0000
1000
0010
0000
0000
0001
0000
0010
0001
0000
0000
0100
0000
0001
0100
0000
0000
1000
0000
0000
,  // measure 23
0210
0000
1300
0001
0002
0000
0010
0003
,  // measure 24
1000
0010
1000
0010
0100
0010
0100
0001
0100
0001
0010
0001
0020
0000
0000
1000
0000
0000
0000
0000
0000
1000
0000
0000
,  // measure 25
0000
1000
0130
0010
0200
0001
0000
0001
,  // measure 26
0300
0001
0011
0010
2000
0100
0000
0100
,  // measure 27
0000
0100
3001
1000
0002
0010
0000
0010
,  // measure 28
1003
0000
0000
0010
0000
0000
1001
0000
1000
0000
0001
0000
2000
0000
0000
0010
0000
0000
3100
0000
0000
0001
0000
0010
,  // measure 29
0001
0100
0101
1000
0010
0001
0010
1000
,  // measure 30
0100
0000
0000
1000
0000
0000
0010
0000
0000
0010
0000
0000
0200
0000
0000
0001
0000
0000
1300
0000
0000
0100
0000
0001
,  // measure 31
0100
1000
1010
0010
1000
0010
0100
0001
,  // measure 32
0100
0010
0011
0000
0200
0000
0301
0010
,  // measure 33
0001
1000
1000
0100
0102
0000
0013
1000
,  // measure 34
0020
0000
0130
0001
2000
0000
3010
0001
,  // measure 35
0100
0010
0011
1000
0002
0100
0100
0003
,  // measure 36
1000
0000
0000
0100
0000
0000
1010
0000
0110
0000
0110
0000
0100
0000
0000
0010
0000
0000
1000
0000
0000
0100
0000
0000
,  // measure 37
0010
0000
0000
0001
0000
0000
1000
0000
0000
0100
0000
0000
0020
0000
0000
0000
0000
1030
0001
0000
0000
1000
0000
0000
,  // measure 38
0200
0000
0000
0000
0000
0310
0001
0000
0000
0010
0000
0001
2000
0000
0000
0000
0000
3100
0010
0000
0000
1000
0000
0000
,  // measure 39
0000
0000
0000
0100
0000
1000
0010
0000
0000
0100
0000
0010
0200
0000
0000
0000
0000
0310
0001
0000
0000
0010
0000
0000
,  // measure 40
0100
0000
0000
0000
0000
0000
0001
1000
0001
0010
0100
1000
0000
0000
0000
0000
0000
0000
0000
0000
0000
0000
0000
0000
;

//---------------dance-single - ----------------
#NOTEDATA:;
#CHARTNAME:;
#STEPSTYPE:dance-single;
#DESCRIPTION:;
#CHARTSTYLE:;
#DIFFICULTY:Medium;
#METER:7;
#RADARVALUES:0.232008,0.239446,0.054744,0.155107,0.018248,178.000000,172.000000,6.000000,17.000000,0.000000,0.000000,0.000000,0.000000,0.000000,0.232008,0.239446,0.054744,0.155107,0.018248,178.000000,172.000000,6.000000,17.000000,0.000000,0.000000,0.000000,0.000000,0.000000;
#CREDIT:;
#NOTES:
0000
0000
0000
0000
,
0000
0000
0000
0000
,
0000
0000
0000
0000
,
0000
0000
0000
0000
,
0100
1000
0100
0000
0001
0100
0001
0000
,
0010
0001
0010
0000
1000
0010
1000
0000
,
0001
1000
0001
0000
0010
0100
0010
0000
,
0100
0000
0000
0100
0000
0000
0100
0000
0000
0001
1000
0001
,
2000
0000
3100
0000
0010
0001
0010
0000
,
0100
0000
0001
0000
0010
1000
0010
0000
,
0002
0000
1003
0000
0100
0001
0100
0000
,
0010
0100
1000
1001
,
0010
0010
0100
0100
,
0010
0000
0100
0000
0001
1000
0001
0000
,
0100
0000
1000
0000
0100
0000
1000
0010
,
1000
0000
0001
0100
0100
0000
1100
0000
,
0010
0001
0100
1000
,
0100
0000
0100
0000
0001
0100
0001
0000
,
1000
0010
1000
0100
,
0002
0000
0100
0000
0103
0010
0010
0000
,
0001
0100
1000
0010
,
1000
0000
1000
0000
0001
0100
0001
0000
,
0010
0010
1000
0010
,
0200
1000
0001
0301
,
1000
0010
1000
0010
0200
0000
0001
0000
,
0001
0320
2030
0100
,
0100
0000
3001
0100
0002
0000
0010
0000
,
0010
2003
3200
1000
,
1300
1001
0020
1000
,
0130
0000
1000
0000
0001
0100
0001
0000
,
1000
0001
1000
0000
0010
0000
0001
0000
,
0010
0000
1000
0000
0010
1000
1000
0000
,
0101
1100
0020
0001
,
0100
0130
1000
0100
,
0010
0100
2000
0010
,
0001
3001
0100
1000
,
0100
0000
0000
0010
0100
0010
0200
0000
0000
1300
0000
0000
,
0100
0010
0020
0031
,
2000
3001
0020
1030
,
0001
0100
0010
0010
,
0001
0000
1001
0100
0000
0000
0000
0000
;

//---------------dance-single - ----------------
#NOTEDATA:;
#CHARTNAME:;
#STEPSTYPE:dance-single;
#DESCRIPTION:;
#CHARTSTYLE:;
#DIFFICULTY:Easy;
#METER:4;
#RADARVALUES:0.172051,0.184189,0.036496,0.182478,0.000000,132.000000,128.000000,4.000000,20.000000,0.000000,0.000000,0.000000,0.000000,0.000000,0.172051,0.184189,0.036496,0.182478,0.000000,132.000000,128.000000,4.000000,20.000000,0.000000,0.000000,0.000000,0.000000,0.000000;
#CREDIT:;
#NOTES:
0000
0000
0000
0000
,
0000
0000
0000
0000
,
0000
0000
0000
0000
,
0000
0000
0000
0000
,
1000
0001
1000
1000
,
0100
1000
0100
0100
,
0010
0100
0010
0010
,
0002
0000
0003
1001
,
1000
0010
1000
0100
,
0001
1000
2000
3000
,
0010
0100
0010
0001
,
0100
0010
0020
0030
,
1000
0001
1000
0100
,
0010
0001
0010
0010
,
0001
1000
0001
0010
,
0100
1000
2000
3000
,
0010
0100
0010
0001
,
0100
0100
1000
0010
,
0100
0010
0100
1000
,
0002
0003
0020
0030
,
0100
0010
0100
1000
,
0001
0001
0010
0001
,
2000
3000
0020
0030
,
1000
0100
0200
0300
,
2002
3003
0010
0000
,
0100
0001
0100
0000
,
1000
1000
0001
0000
,
0010
1000
0010
0000
,
0100
0110
2000
3001
,
0100
0001
0010
0100
,
0001
0001
0020
1030
,
0100
1000
0001
0001
,
0010
0010
0200
0300
,
1000
0001
0020
0030
,
0001
0100
0002
0003
,
0100
0010
2000
3000
,
0001
1001
0200
0310
,
0010
0100
2000
3100
,
0100
1000
0002
0013
,
0010
0001
1000
0100
,
0001
0000
0010
0010
0000
0000
0000
0000
;

//---------------dance-single - ----------------
#NOTEDATA:;
#CHARTNAME:;
#STEPSTYPE:dance-single;
#DESCRIPTION:;
#CHARTSTYLE:;
#DIFFICULTY:Beginner;
#METER:1;
#RADARVALUES:0.084722,0.110171,0.036496,0.072991,0.000000,65.000000,61.000000,4.000000,8.000000,0.000000,0.000000,0.000000,0.000000,0.000000,0.084722,0.110171,0.036496,0.072991,0.000000,65.000000,61.000000,4.000000,8.000000,0.000000,0.000000,0.000000,0.000000,0.000000;
#CREDIT:;
#NOTES:
0000
0000
0000
0000
,
0000
0000
0000
0000
,
0000
0000
0000
0000
,
0000
0000
0000
0000
,
0010
0000
0010
0000
,
0100
0000
0100
0000
,
1000
0000
1000
0000
,
0001
0000
0001
0000
,
1001
0000
0000
0000
,
0010
0000
0100
0000
,
0010
0000
0000
0000
,
0001
0000
1000
0000
,
0001
0000
0000
0000
,
0010
0000
0000
0000
,
1000
0000
0000
0000
,
0100
0000
0000
0000
,
2000
0000
3000
0000
,
0020
0000
0030
0000
,
0100
0000
0001
0000
,
0010
0000
1000
0000
,
0200
0000
0300
0000
,
0002
0000
0003
0000
,
1000
0000
0001
0000
,
1000
0000
0001
0000
,
0000
0000
0110
0000
,
0010
0000
0010
0000
,
0100
0000
0100
0000
,
1000
0000
1000
0000
,
0001
0000
0002
0003
,
0000
0100
0200
0300
,
0000
0010
0020
0030
,
0000
1000
2000
3000
,
0000
0000
0100
0000
,
1000
0000
0010
0000
,
0100
0000
0001
0000
,
1000
0000
0010
0000
,
0110
0000
1000
0000
,
1000
0000
0001
0000
,
0001
0000
0010
0000
,
0010
0000
0100
0000
,
0000
1001
0000
0000
;
