#VERSION:0.83;
#TITLE:Chippin Break;
#SUBTITLE:;
#ARTIST:alpha;
#TITLETRANSLIT:;
#SUBTITLETRANSLIT:;
#ARTISTTRANSLIT:;
#GENRE:;
#ORIGIN:;
#CREDIT:;
#BANNER:Chippin Break.png;
#BACKGROUND:Chippin Break-bg.png;
#PREVIEWVID:;
#JACKET:;
#CDIMAGE:;
#DISCIMAGE:;
#LYRICSPATH:;
#CDTITLE:;
#MUSIC:Chippin Break.mp3;
#OFFSET:-0.342041;
#SAMPLESTART:63.488998;
#SAMPLELENGTH:12.000000;
#SELECTABLE:YES;
#DISPLAYBPM:190.000000;
#BPMS:0.000=95.000,
20.000=190.000;
#STOPS:;
#DELAYS:;
#WARPS:;
#TIMESIGNATURES:0.000=4=4;
#TICKCOUNTS:0.000=4;
#COMBOS:0.000=1;
#SPEEDS:0.000=1.000=0.000=0;
#SCROLLS:0.000=1.000;
#FAKES:;
#LABELS:0.000=Song Start;
#BGCHANGES:;
#KEYSOUNDS:;
#ATTACKS:
;

//---------------dance-single - ----------------
#NOTEDATA:;
#CHARTNAME:;
#STEPSTYPE:dance-single;
#DESCRIPTION:;
#CHARTSTYLE:;
#DIFFICULTY:Hard;
#METER:14;
#RADARVALUES:0.660348,0.704664,0.451936,0.420221,0.067394,583.000000,526.000000,57.000000,53.000000,0.000000,0.000000,0.000000,0.000000,0.000000,0.660348,0.704664,0.451936,0.420221,0.067394,583.000000,526.000000,57.000000,53.000000,0.000000,0.000000,0.000000,0.000000,0.000000;
#CREDIT:;
#NOTES:
// measure 0
0000
0000
0000
0000
,  // measure 1
0000
0000
0000
0000
,  // measure 2
0000
0000
0000
0000
,  // measure 3
0000
0000
0000
0000
,  // measure 4
0000
0000
0000
0000
,  // measure 5
0120
0000
0031
0100
1000
0100
0010
0001
,  // measure 6
0010
0100
0001
0010
1000
0100
0010
0200
,  // measure 7
0000
0010
0001
0000
0010
1000
1300
0000
,  // measure 8
0001
0100
0010
1000
0100
0000
1100
0000
,  // measure 9
0001
1000
0010
0000
0010
0100
0001
0000
,  // measure 10
1000
0100
0010
0100
0010
0001
0001
0000
,  // measure 11
0100
0010
0001
0000
0010
0100
1000
0000
,  // measure 12
0010
1000
0100
0010
0010
0100
0101
0000
,  // measure 13
2000
0000
0001
0000
3001
0010
0100
0010
,  // measure 14
0100
0000
1000
0100
1000
0100
0010
0001
,  // measure 15
0000
0010
0100
0010
0001
1000
0010
0100
,  // measure 16
0000
0100
0010
1000
0001
1000
1000
0000
,  // measure 17
0020
0000
1000
0000
1030
0001
0100
0001
,  // measure 18
0010
0000
0010
0100
0010
0001
1000
0001
,  // measure 19
0000
1000
0100
0001
0100
1000
0010
0000
,  // measure 20
0100
0100
0010
0010
1000
0100
1001
0000
,  // measure 21
0210
0000
0001
0000
1300
0010
0001
0010
,  // measure 22
0100
0000
1000
0010
0001
0010
0100
0000
,  // measure 23
0001
0010
1000
0100
0001
0100
0010
1000
,  // measure 24
0100
1000
0100
0010
0010
0100
0001
0000
,  // measure 25
2001
0000
0100
0000
3001
0010
0001
0100
,  // measure 26
0010
0000
0100
0001
0100
0010
1000
0000
,  // measure 27
0100
0010
0100
0001
0001
0010
1000
0010
,  // measure 28
0012
0000
1003
2010
0000
0000
3100
0000
,  // measure 29
1001
0000
0100
0000
0100
0001
1000
0000
,  // measure 30
0200
0000
0000
0000
0310
0000
0000
0000
0001
1000
0001
1000
0001
0000
0000
0000
,  // measure 31
0010
0001
0010
0010
0100
1000
0100
0001
,  // measure 32
0000
0010
1000
0001
1000
0100
0010
0100
,  // measure 33
1100
0000
0010
0000
0010
0001
0100
0000
,  // measure 34
2000
0000
0000
0000
3010
0000
0000
0000
0100
0001
0100
0001
0100
0000
0000
0000
,  // measure 35
1020
0000
0100
0000
0130
1000
0010
1000
,  // measure 36
0001
0000
0001
0010
1000
0100
0010
0100
,  // measure 37
2000
0000
0001
0000
3001
0100
0010
0100
,  // measure 38
1100
0000
0010
2020
0000
0000
3030
0000
,  // measure 39
0101
0010
0001
0010
,  // measure 40
0022
0000
0003
0000
1000
1000
1030
0000
,  // measure 41
0100
0010
1000
0100
1000
0010
0001
0100
,  // measure 42
0010
1000
0001
0100
0010
0100
0100
0001
,  // measure 43
0010
0000
1000
0000
1000
0100
0001
0000
,  // measure 44
0202
0303
2002
3003
,  // measure 45
0012
0000
0103
0010
1000
0100
0010
0001
,  // measure 46
1100
0000
0101
0000
0110
0001
0010
0001
,  // measure 47
0200
1000
0310
1000
0200
0010
1300
0010
,  // measure 48
0020
0000
1000
0000
2030
0000
0001
0000
3001
0000
0010
0000
0010
0100
0010
0000
,  // measure 49
0201
0000
0310
1000
0010
0100
1000
0100
,  // measure 50
0011
0000
0101
0000
1010
0100
0001
0100
,  // measure 51
0020
0000
2030
0000
3010
0100
0001
0000
,  // measure 52
0100
0001
0100
1000
1000
0000
1001
0000
,  // measure 53
2010
0000
3001
0010
0100
0010
1000
0001
,  // measure 54
0110
0000
1001
0000
1100
0010
0001
1000
,  // measure 55
0020
0001
1030
0001
0020
1000
0130
1000
,  // measure 56
2000
0000
0100
0000
3200
0000
0001
0000
0301
0000
1000
0000
1000
0001
1000
0000
,  // measure 57
0210
0000
0301
0010
1000
0100
1000
0010
,  // measure 58
0101
0000
1100
0000
1010
0001
0100
1000
,  // measure 59
0220
0000
0330
0001
0022
0000
0033
1100
,  // measure 60
0000
1010
0000
0001
0102
0000
1003
0000
,  // measure 61
0010
1000
0100
0000
1000
0100
0001
0000
,  // measure 62
0010
0001
0100
0010
1000
0100
0100
0000
,  // measure 63
0010
0000
0001
0010
0001
0000
0000
0000
0100
0000
0010
0000
0001
0000
0010
0000
,  // measure 64
0000
1100
0000
0110
0110
0000
1001
0000
,  // measure 65
0200
0000
0301
0000
1000
0100
0010
0100
,  // measure 66
0000
0000
1000
0001
1000
0000
0010
0000
0100
0000
1000
0000
0001
0000
0010
0000
,  // measure 67
0000
0100
0100
0000
0002
0100
1003
1000
,  // measure 68
0100
0010
0100
0001
0010
0000
1010
0000
,  // measure 69
0002
1000
0003
0010
0200
0010
0300
1000
,  // measure 70
0200
0001
0010
1000
0300
0010
0000
0010
,  // measure 71
0100
0000
0001
0100
0001
0000
0000
0000
0010
1000
0100
1000
0010
0000
0000
0000
,  // measure 72
0000
0101
0000
0011
0011
0000
0110
0000
,  // measure 73
1000
0100
1000
0000
1000
0010
1000
0000
1000
0000
0100
0000
0001
0000
0100
0000
,  // measure 74
0000
0000
0010
0001
0010
0000
0100
0000
0010
0000
1000
0000
0001
0000
1000
0000
,  // measure 75
0201
0000
0310
1000
2010
0000
3100
0101
,  // measure 76
0000
1100
0000
0010
0100
0010
1001
0000
,  // measure 77
1000
0000
0100
0000
1000
0010
0001
0000
,  // measure 78
0100
0010
0100
0001
0010
0001
1000
0000
,  // measure 79
0010
1000
0100
1000
0001
0010
0100
0100
,  // measure 80
0010
0002
0000
0100
0103
0010
1100
0000
,  // measure 81
0220
0000
0330
0000
0100
0001
1000
0001
,  // measure 82
0000
0000
0100
0001
0100
0000
0000
0000
0010
0000
1000
0000
0010
0000
0000
0000
,  // measure 83
0001
1000
0010
1000
0100
0001
0100
1000
,  // measure 84
0010
0010
0100
0001
0100
1000
1000
0000
,  // measure 85
0220
0000
0030
0002
,  // measure 86
0003
2000
0000
3000
,  // measure 87
0301
0010
1000
0010
,  // measure 88
0100
0000
1000
0000
0100
0000
0001
0000
0100
1000
0010
1000
0001
0000
0011
0000
;

//---------------dance-single - ----------------
#NOTEDATA:;
#CHARTNAME:;
#STEPSTYPE:dance-single;
#DESCRIPTION:;
#CHARTSTYLE:;
#DIFFICULTY:Medium;
#METER:9;
#RADARVALUES:0.433813,0.493265,0.158574,0.634296,0.000000,383.000000,363.000000,20.000000,80.000000,0.000000,0.000000,0.000000,0.000000,0.000000,0.433813,0.493265,0.158574,0.634296,0.000000,383.000000,363.000000,20.000000,80.000000,0.000000,0.000000,0.000000,0.000000,0.000000;
#CREDIT:;
#NOTES:
0000
0000
0000
0000
,
0000
0000
0000
0000
,
0000
0000
0000
0000
,
0000
0000
0000
0000
,
0000
0000
0000
0000
,
0200
1000
0001
1000
,
0310
0000
0010
1000
0010
0000
0100
0001
,
0200
0310
2000
3010
,
0001
1000
0001
0000
0010
0000
0110
0000
,
2000
3001
0200
0301
,
1000
0000
0010
0100
0010
0000
0100
1000
,
0020
0130
2000
3001
,
1000
0000
0010
0000
1000
0010
0010
0000
,
2002
0000
0003
0000
3000
0000
0010
1000
,
0010
0000
0100
1000
0100
0000
0001
0000
,
0010
0100
1000
0100
,
0001
0000
0001
0000
1000
0010
1000
0000
,
0220
0000
0300
0000
0030
0000
0001
0100
,
0001
0000
0010
0001
0010
0000
1000
0000
,
0001
1000
0100
0001
,
0200
0010
0010
0310
,
0002
1003
2000
3100
,
0020
0032
0203
1300
,
1000
0000
0001
0100
0001
0000
0010
0100
,
1000
0100
1000
0000
0001
1000
0001
0000
,
0020
0130
0200
0301
,
2000
3200
0320
0031
,
0001
0000
1000
0100
0001
0100
1000
0000
,
0020
0000
0000
2000
0000
0000
3030
0000
,
0200
1300
0010
1000
,
2002
0000
3003
0000
0100
0001
0100
0000
,
0001
0000
0010
0000
0100
0000
1000
0100
,
0000
0100
0010
0000
1000
0010
1000
0000
,
0020
0031
0100
0010
,
2200
0000
3300
0000
0001
1000
0001
0000
,
0220
0330
1000
0010
,
0001
0000
0001
0000
0010
0100
0020
0000
,
0000
0000
1000
0000
1030
0000
0100
0001
,
0100
0000
0000
2002
0000
0000
3003
0000
,
0010
0001
0100
0001
,
0020
0000
0000
0000
0130
0000
1000
0100
,
2000
3020
0230
0302
,
0203
0320
2030
3020
,
0031
0100
0010
1000
,
2002
0003
0200
3300
,
1000
0010
0100
0001
,
0200
0300
0200
0300
0100
1000
0001
0000
,
0020
1030
0200
0310
,
0002
2003
3001
1010
,
0001
1000
0100
1000
,
0002
0003
0002
0003
0001
0010
0100
0000
,
0020
0000
1000
0000
1030
0000
0010
0100
,
0010
0000
0100
1000
1000
0000
0011
0000
,
0100
0010
0100
0001
,
0020
0030
0020
0030
0010
0100
1000
0000
,
0002
0103
2000
3100
,
0002
0203
0301
0110
,
1000
0010
0001
0010
,
2000
3000
2000
3000
1000
0100
0001
0000
,
1001
0000
0011
0000
,
0010
0100
0202
0303
,
0010
0100
1000
0100
,
0001
0100
0010
0010
,
0100
0000
1000
0010
1000
0000
0100
1000
,
0100
0010
0001
0000
0010
0100
0010
0000
,
0100
0000
0010
0000
0001
0100
0001
0010
,
0000
0000
1000
0001
1000
0010
0100
0000
,
0000
1000
0100
0000
0001
0100
0001
0000
,
0010
0001
0100
0001
0100
0000
1100
0000
,
0001
1000
0100
0010
,
1000
0010
1000
1000
,
0001
0100
0001
0000
0100
0010
0100
0000
,
0000
1000
0000
0001
1000
0000
0011
0000
,
0002
0000
2003
0000
3020
0000
0100
0100
,
0030
1000
0100
0000
0010
1000
0010
0000
,
0200
1300
0200
0301
,
0000
0100
0000
0010
0100
0000
1010
0000
,
0010
0100
1000
0100
,
0010
1000
0001
0001
,
0100
0010
0100
0000
0001
1000
0001
0000
,
0010
0001
0010
0100
0000
1000
1000
0000
,
0022
0003
1000
0100
,
0130
0001
0100
1000
,
0200
0001
0010
0001
,
1300
0010
1000
0001
0010
1000
0010
0000
,
2020
0000
0000
0030
,
0000
3000
0000
0000
,
0200
0320
0230
2300
,
3001
0000
1000
0010
0001
0000
1000
1001
;

//---------------dance-single - ----------------
#NOTEDATA:;
#CHARTNAME:;
#STEPSTYPE:dance-single;
#DESCRIPTION:;
#CHARTSTYLE:;
#DIFFICULTY:Easy;
#METER:6;
#RADARVALUES:0.309220,0.316653,0.095144,0.436079,0.000000,273.000000,261.000000,12.000000,55.000000,0.000000,0.000000,0.000000,0.000000,0.000000,0.309220,0.316653,0.095144,0.436079,0.000000,273.000000,261.000000,12.000000,55.000000,0.000000,0.000000,0.000000,0.000000,0.000000;
#CREDIT:;
#NOTES:
0000
0000
0000
0000
,
0000
0000
0000
0000
,
0000
0000
0000
0000
,
0000
0000
0000
0000
,
0000
0000
0000
0000
,
0002
0003
0100
0010
,
0100
1000
1000
0000
,
0200
0300
0010
1000
,
0001
0100
0100
0000
,
2000
3000
0010
0100
,
0001
0010
0010
0000
,
0020
0030
0100
0001
,
0100
0010
1000
0000
,
2002
3003
0010
0100
,
0010
0001
0001
0000
,
0010
0100
0010
1000
,
0100
1000
0100
0000
,
0220
0330
0100
1000
,
0010
0100
0100
0000
,
0001
0010
0100
0010
,
0001
1000
0001
0000
,
0100
0010
0200
0300
,
0010
1000
0020
0030
,
1000
0001
0100
1000
,
0010
1000
2000
3000
,
0001
0010
0002
0003
,
1000
0001
2000
3000
,
0100
0010
1000
0100
,
0020
0030
0220
0330
,
0010
0100
0001
0100
,
1000
0000
2002
3003
,
1000
0010
0100
0010
,
0001
1000
0100
0010
,
0002
0003
1000
0010
,
0100
0100
0220
0330
,
0001
0010
1000
0010
,
0100
0001
0001
0000
,
1000
0010
0100
1000
,
0100
0000
1001
0000
,
1000
0001
0001
0010
,
2000
0000
0010
3000
,
0010
1000
0001
0100
,
0001
0010
0100
1000
,
0010
0010
0100
0010
,
2000
3000
0220
0330
,
1000
0001
0100
0001
,
1000
1000
0100
0010
,
0200
0300
2000
3000
,
0100
0010
0020
0030
,
1000
0100
1000
0100
,
0010
0010
0001
0100
,
0020
0030
2000
3000
,
1000
0001
2002
3003
,
0010
0100
0010
0001
,
0010
0010
1000
0100
,
2000
3000
0100
0010
,
1000
0100
0200
0300
,
0010
0001
0100
0001
,
0100
0100
1000
0000
,
0020
0030
2000
3000
,
0100
0001
2002
3003
,
0010
0000
1000
0100
,
0001
0001
1000
0000
,
0010
0100
1000
0100
,
1000
0001
0002
0003
,
0100
0000
0001
0010
,
0001
1000
1000
0000
,
0100
0001
0010
1000
,
0001
0010
0020
0030
,
0200
0300
2000
3000
,
0010
0100
0020
0030
,
1000
0010
0001
1000
,
0100
0100
2000
3000
,
0100
0010
1000
0010
,
1000
0100
0001
0010
,
0200
0300
0002
0003
,
0001
0100
0220
0330
,
1000
0010
0001
0000
,
0100
1000
0010
0000
,
1000
0010
0001
1000
,
0010
1000
1000
0000
,
2002
3003
0001
0010
,
0100
0010
0010
0000
,
0200
0300
0020
0030
,
0001
0010
0010
0000
,
0020
0000
0000
0000
,
0000
0000
0000
0030
,
0100
0000
1000
0000
,
1000
0100
0220
0330
;
