#TITLE:Central Station;
#SUBTITLE:;
#ARTIST:Recycle;
#TITLETRANSLIT:;
#SUBTITLETRANSLIT:;
#ARTISTTRANSLIT:;
#GENRE:;
#CREDIT:;
#MUSIC:Central Station.ogg;
#BANNER:Central Station.png;
#BACKGROUND:Central Station-bg.png;
#CDTITLE:;
#SAMPLESTART:12.200;
#SAMPLELENGTH:15.000;
#SELECTABLE:YES;
#OFFSET:-0.048;
#BPMS:0.000=158.000;
#STOPS:171.000=0.190
,178.500=0.190
;
#ORIGIN:;
#PREVIEWVID:;
#JACKET:Central Station-jacket.png;
#CDIMAGE:;
#DISCIMAGE:;
#BGCHANGES:;
#FGCHANGES:;

//--------------- dance-single - ----------------
#NOTES:
     dance-single:
     :
     Beginner:
     4:
     0,0,0,0,0:
0000
0000
0000
0000
,
0000
0000
0000
0000
,
0000
0000
0000
0000
,
0000
0000
0000
0000
,
0000
0000
0000
0000
,
0000
0000
0000
0000
,
0010
0000
0010
0000
,
0020
0000
0030
0000
,
1000
0000
0001
0000
,
1000
0000
1000
0000
,
0001
0000
1000
0000
,
0001
0000
0001
0000
,
0100
0000
0010
0000
,
0100
0000
0100
0000
,
0010
0000
0100
0000
,
0010
0000
0010
0000
,
1000
1000
1000
0000
,
0001
0000
1000
0000
,
0001
0001
0001
0000
,
1000
0000
0001
0000
,
0100
0100
0100
0000
,
0010
0000
0100
0000
,
0010
0010
0010
0000
,
0100
0000
0110
0000
,
0001
0001
0001
0000
,
0001
0000
0001
0000
,
1000
1000
1000
0000
,
1000
0000
1000
0000
,
0010
0010
0010
0000
,
0010
0000
0010
0000
,
0100
0000
0100
0000
,
0100
0000
0100
0000
,
1001
0000
1001
0000
,
0010
0000
0010
0000
,
0020
0000
0030
0000
,
0100
0000
0100
0000
,
0200
0000
0300
0000
,
0001
0000
0001
0000
,
0002
0000
0003
0000
,
1000
0000
1000
0000
,
2000
0000
3000
0000
,
1001
0000
1001
0000
,
0100
0000
0000
0000
0100
0000
0000
0010
,
0000
0000
0000
0010
0000
0000
0000
1000
,
0000
0000
0000
1000
0000
0000
0001
0000
,
0000
0001
0000
1000
,
0000
0001
0000
1000
,
0000
0001
0000
0010
,
0000
0100
0000
0110
,
0000
0110
0000
1000
,
0000
0001
0000
1000
,
0000
1000
0000
0001
,
0000
1000
0000
0001
,
0000
0001
0000
0100
,
0000
0010
0000
0100
,
0000
0100
0000
0010
,
0000
0100
0000
0010
,
0000
0010
0000
0100
,
0100
0100
0000
0100
,
0000
0100
0000
0001
,
0001
0001
0000
0001
,
0000
0001
0000
1000
,
1000
1000
0000
1000
,
0000
1000
0000
0010
,
0010
0010
0000
0010
,
0000
0110
0000
0001
,
0000
1000
0000
0001
,
0000
0001
0000
1000
,
0000
0001
0000
1000
,
0000
1000
0000
0010
,
0000
0100
0000
0010
,
0000
0010
0000
0100
,
0000
0001
0000
1000
,
0000
0001
0000
1000
,
0000
0100
0000
0020
,
0000
0030
0110
0000
;

//--------------- dance-single - ----------------
#NOTES:
     dance-single:
     :
     Easy:
     6:
     0,0,0,0,0:
0000
0000
0000
0000
,
0000
0000
0000
0000
,
0000
0000
0000
0000
,
0000
0000
0000
0000
,
0000
0000
0000
0000
,
0000
0000
0000
0000
,
0010
0000
0010
0000
,
0100
0000
0000
0100
0000
0000
0110
0000
,
1000
0001
2000
3000
,
0002
0003
2000
3000
,
0010
0100
0020
0030
,
0002
0003
0020
0030
,
0100
1000
0200
0300
,
0020
0030
0200
0300
,
1000
0100
1000
0001
,
0100
0000
0000
0100
0000
0000
0110
0000
,
0100
0000
0010
0000
0100
0000
0000
0001
,
0000
0000
0000
1000
0000
0000
0001
0000
,
0100
0000
0100
0000
0010
0000
0000
1000
,
0000
0000
0000
0100
0000
0000
1000
0000
,
0010
0000
0100
0000
0010
0000
0000
0001
,
0000
0000
0000
0010
0000
0000
0010
0000
,
0001
0000
0100
0000
0001
0000
0000
0100
,
0000
0000
0000
0001
0000
0000
0101
0000
,
1000
0100
2000
3000
,
0010
0100
0020
0030
,
0001
1000
0002
0003
,
0010
0001
0020
0030
,
0100
0010
0200
0300
,
1000
0001
2000
3000
,
0010
0000
0100
0000
,
0001
0000
0000
0000
1000
0000
0000
0010
,
0000
0010
0000
0020
0000
0000
0030
0000
,
0100
0000
0100
0000
,
0001
1000
0001
0000
,
1000
0000
1000
0000
,
0010
0100
0010
0000
,
0100
1000
0100
0000
,
0001
0000
0100
0000
,
0010
0000
0010
0000
,
0001
0000
0000
0000
0001
0000
0000
1000
,
0000
1000
0000
2000
0000
0000
3000
0000
,
0100
0000
0010
0000
0100
0000
0000
0001
,
0000
1000
0000
0001
0000
0001
0000
0010
,
0000
0001
0000
0010
0000
0000
0100
0000
,
0010
0100
0110
1000
,
0001
0100
0010
0100
,
0100
0010
0001
0100
,
0000
0100
0000
0000
0100
0000
0010
0000
,
0000
0010
0000
0000
0110
0000
0001
0000
,
0010
0001
0010
0100
,
1000
0100
1100
0010
,
1000
0001
0100
0010
,
0001
1000
1001
0001
,
1000
0010
0100
0001
,
0010
0001
0011
0010
,
0100
1000
0100
0010
,
0010
0200
0300
0001
,
0100
0010
1000
0010
,
0100
0001
0001
0010
,
0100
1000
0100
0001
,
0010
0100
0100
1000
,
0100
0001
0100
0010
,
0100
0001
0001
1000
,
0010
0100
0001
0100
,
0100
0200
0300
0010
,
1000
0010
0100
0001
,
0000
0010
0000
0000
0001
0000
0100
0000
,
1000
0100
0001
0010
,
0000
0100
0000
0000
0010
0000
0100
0000
,
1000
0100
0001
0100
,
0000
0001
0000
0000
0100
0000
0010
0000
,
0001
0010
0010
1000
,
0010
1000
1000
0100
,
1000
0100
0100
0001
,
0000
1000
0000
0000
1001
0000
0000
0000
;

//--------------- dance-single - ----------------
#NOTES:
     dance-single:
     :
     Medium:
     8:
     0,0,0,0,0:
0000
0000
0000
0000
,
0000
0000
0000
0000
,
0000
0000
0000
0000
,
0000
0000
0000
0000
,
0000
0000
0000
0000
,
0000
0000
0000
0000
,
1000
0000
0000
1000
0000
0000
0001
0000
,
0100
0000
0000
0100
0000
0000
0110
0000
,
0010
0000
0001
0000
0010
0000
0100
0010
,
0100
0000
1000
0100
0000
0100
1000
0000
,
0001
0000
0010
0000
0100
0000
0001
0010
,
0001
0000
0010
0100
0000
0100
0010
0000
,
1000
0000
0100
0000
1000
0000
0001
1000
,
0001
0000
1000
0010
0000
0010
1000
0000
,
0100
0010
0100
0010
,
1000
1000
0001
1001
,
0010
0000
0001
0000
0010
0000
1000
0100
,
0000
1000
0010
0000
0100
0000
0010
0000
,
1000
0000
0001
0000
1000
0000
0001
0100
,
0000
0100
0001
0010
0000
0010
0001
0000
,
0100
0000
0010
0000
0100
0000
1000
0001
,
0000
1000
0000
0001
0000
0001
0010
0000
,
0100
0000
0010
0000
0100
0000
1000
0010
,
0000
0010
0100
0000
0100
0000
0110
0000
,
1000
0000
0001
0000
1000
0000
0001
1000
,
0000
1000
0010
0000
0100
0000
0010
0000
,
0100
0000
0001
0000
0010
0000
0001
0010
,
0000
0010
0100
0000
0001
0100
0001
0000
,
1000
0000
0100
0000
1000
0000
0010
1000
,
0000
1000
0100
0000
0010
0000
1000
0001
,
0000
0100
1000
0010
0000
0100
0010
0001
,
0000
0100
0001
0000
0010
0100
0000
1001
,
0000
1001
0000
0120
0000
0000
0130
0000
,
0001
0001
0100
0001
,
0010
0001
0100
0010
,
1000
1000
0001
1000
,
0010
0100
0010
0001
,
0100
0000
0100
0000
0010
0000
0001
0010
,
0000
0100
0000
0010
0000
0100
0000
0001
,
0000
0000
1000
0001
0000
0000
0100
0010
,
0000
0000
0100
0000
0001
0000
0100
0010
,
0000
0010
0000
0200
0000
0300
1001
0000
,
0001
0000
1000
0000
0001
1000
0001
0010
,
0000
0100
0000
0010
0000
0002
0000
0013
,
0000
0100
0000
0010
0100
0010
1000
0000
,
0010
0100
1001
1000
,
0001
0000
0100
0000
0010
1000
0100
0000
,
0010
0000
0100
0010
0001
0000
1000
0000
,
0010
0100
0010
1000
,
1000
0001
1010
0100
,
0010
0000
0100
0000
0010
0100
0001
0000
,
0100
0010
0000
0010
0001
0000
1000
0000
,
0001
0000
0100
0000
0001
1000
0000
1000
,
0000
0010
0000
0010
0001
0000
0100
0000
,
0010
0000
1000
0000
0001
0100
0000
0100
,
0000
0001
0000
0001
0010
0000
1000
0000
,
0001
1000
0000
1000
0010
0000
0100
0000
,
0010
0001
0000
0001
0010
0000
0100
0000
,
0001
1000
0010
0100
,
0010
0100
0000
0100
0001
0000
1000
0000
,
0010
0000
0100
0000
1000
0100
0000
0010
,
0000
0001
0000
0010
0001
0000
0100
0000
,
0001
0010
0100
0010
,
0001
0100
0000
0100
0001
0000
0010
0000
,
0100
0001
0100
1000
,
0100
0001
0000
0001
1000
0000
0100
0000
,
0010
0100
0001
0100
,
0010
0001
0000
0001
0010
0000
0100
0000
,
0001
1000
0010
0001
,
0100
0010
0000
0010
0100
0000
1000
0000
,
0001
0100
1000
0100
,
0010
1000
0000
1000
0010
0000
0001
0000
,
1000
0000
0001
1000
0001
0000
0010
0000
,
0100
0000
0010
0100
0010
0000
0001
0000
,
0010
0000
0001
0010
0001
0000
1000
0000
,
1000
0001
0000
0001
0110
0000
0000
0000
;

//--------------- dance-single - ----------------
#NOTES:
     dance-single:
     :
     Hard:
     14:
     0.578863,0.734486,0.160728,0.025378,0.537171,479,460,19,3,0,0,0,0,0,0.578863,0.734486,0.160728,0.025378,0.537171,479,460,19,3,0,0,0,0,0:
0000
0000
0000
0000
,
0000
0000
0000
0000
,
0000
0000
0000
0000
,
0000
0000
0000
0000
,
0000
0000
0000
0000
,
0000
0000
0000
0000
,
0010
0000
0000
0010
0000
0000
0010
0000
0000
0010
0000
0000
0001
0000
0100
0010
,
0100
0000
0000
0100
0000
0000
0100
0000
0000
0000
1000
0000
1001
0000
0000
0000
,
0010
1000
0001
0200
0000
0300
0001
1000
,
0020
0000
0030
0200
0000
0301
0010
0000
,
0001
1000
0010
0200
0000
0300
0001
2000
,
0000
3020
0000
0032
0000
0013
0110
0000
,
1000
0100
1000
0020
0000
0030
0100
0010
,
2000
0000
0000
0000
0000
0000
3000
0000
0000
0001
0000
0000
0100
0000
0010
0000
1000
0000
1001
0000
0000
0000
0000
0000
,
1000
0100
0010
0001
0000
0010
0100
0020
,
0000
0000
2030
0000
0000
0000
3002
0000
0000
0000
0103
0010
0100
0000
0000
0000
,
1000
0000
0100
0000
0010
0100
0001
0000
0100
0000
0000
0000
0010
0000
0001
0000
,
0000
1000
0000
0100
0000
0100
0001
0000
,
1000
0000
0000
0000
1000
0000
0000
0000
0010
0000
0000
0100
0000
0000
0002
0000
,
0000
0000
0003
2000
0000
3010
0110
0000
,
1000
0000
0001
0000
1000
0001
0100
0000
0001
0000
0000
0000
0100
0000
0010
0000
,
0000
0010
0000
1000
0000
0001
0101
0000
,
0010
0000
0000
0000
0010
0000
0000
0000
1000
0000
0000
0001
0000
0000
0200
0000
,
0000
0000
1300
0000
0010
0000
1000
0000
0000
0000
0001
0001
0100
0000
0000
0000
,
0001
0010
0000
1000
0010
0000
0100
0010
0000
0001
0000
0100
0010
0000
1000
0000
,
0000
0001
0100
0000
0010
0001
0000
0010
0000
1000
0010
0000
1000
0100
1000
0000
,
0001
0100
0000
0010
0100
0000
1000
0100
0000
0010
0000
0100
0010
0000
0100
0000
,
0000
1000
0100
0000
0001
0010
0000
0100
0000
0010
0001
0000
1000
0010
1000
0000
,
0001
0100
0000
0010
0100
0000
1000
0100
0000
0001
0000
1000
0010
0100
0000
0010
,
0000
1000
0100
0000
0001
0100
0000
0001
0000
0010
0001
0000
0100
0010
0000
0010
,
1000
0000
0001
0000
1000
0000
1000
0010
0000
0000
0100
0000
0010
0000
0010
1000
,
0000
0000
0001
0000
0100
0000
0100
0010
0000
1000
0100
0000
0001
0010
1001
0000
,
0000
0000
1001
0000
0000
0000
0110
0000
0000
0000
0010
0010
0100
0000
0000
0000
,
1000
0000
0000
0000
1000
0000
0000
0000
1000
0000
0000
1000
0000
0000
0001
0000
,
0000
0001
0000
0001
0010
0000
0010
0000
,
0100
0000
0000
0000
0100
0000
0000
0000
0100
0000
0000
0100
0000
0000
0001
0000
,
0000
0001
0000
0001
1000
0010
0001
0100
,
0010
0000
0010
0000
1000
0001
0100
0010
,
0000
0001
0100
0010
0000
0000
0100
2000
,
0000
3000
0000
2000
0000
3000
0000
0002
,
0000
0013
0100
0000
0010
0100
0010
1001
,
0000
0000
1001
0000
0000
0000
0110
0000
0000
0000
0100
0100
1000
0000
0000
0000
,
0010
0000
0000
0100
0000
0000
0010
0000
0000
1000
0000
0000
1001
0000
0010
0000
,
0000
0100
0000
0000
0001
0000
0000
0010
0000
0000
2010
0000
0000
0000
3001
0000
,
0000
1000
0000
0000
0010
0000
0000
0100
0000
0000
0110
0000
1000
0000
0000
0001
,
0000
0000
0000
0000
0000
0000
1000
0000
0000
0000
0000
0000
0010
0000
0000
0000
0010
0000
0000
0000
0010
0000
0000
0000
1010
0000
0000
0000
0000
0000
0000
0000
0000
0000
0000
0000
0001
0000
0000
0000
0000
0000
0000
0000
0000
1000
0000
0000
,
0001
0000
1000
0000
0000
0010
0000
0000
0100
0000
0001
0000
0010
0000
0000
1000
,
0010
0000
1000
0000
0000
0001
0000
0000
0101
0000
0000
0000
0010
0000
0000
0100
,
0000
0000
0010
0000
0000
0100
0000
0000
0001
0000
0001
0010
0100
0000
0000
1000
,
0000
0000
0001
0000
0000
1000
0000
0000
1001
0000
0000
0000
0010
0000
0000
0100
,
0000
0000
0010
0000
0000
1000
0000
0000
0010
0000
0001
0000
0000
0010
0000
0000
,
1000
0000
0001
0000
0000
0010
0000
0000
1001
0000
0000
0000
0100
0000
0000
0010
,
0000
0000
0100
0000
0000
0001
0000
0000
0100
0000
0010
0001
0010
0000
0000
0001
,
0000
0000
0010
0000
0000
1000
0000
0000
0011
0000
0000
0000
0100
0000
0000
0010
,
0000
0000
0100
0000
0000
0001
0000
0000
0100
0000
0010
1000
0010
0000
0000
0100
,
0000
0000
0001
0000
0000
0100
0000
0000
1010
0000
0000
0000
1000
0000
0000
0001
,
0000
0000
1000
0000
0000
0010
0000
0000
0100
0000
0001
0010
0001
0000
0000
0100
,
0000
0000
0010
0000
0000
1000
0001
0000
1001
0000
0000
0000
0100
0000
0010
0000
,
0100
0000
0001
0000
1000
0000
0010
0000
0100
0000
0001
0000
0010
0000
0000
0001
,
0000
0000
0010
0000
0000
1000
0100
0000
0001
0000
0000
0000
1000
0000
0010
0000
,
0100
0000
0001
0000
1000
0000
0010
0000
0100
0000
0001
0000
0100
0000
0000
0010
,
0000
0001
0000
0000
0010
0000
0100
0001
,
0100
0000
0010
0000
0001
0000
1000
0000
0010
0000
0100
0000
0001
0000
0000
1000
,
0000
0000
0010
0000
0000
1000
0000
0000
0001
0000
0000
0000
0100
0000
0010
0000
,
1000
0000
0100
0000
0001
0000
0100
0000
0001
0000
0100
0000
1010
0000
0000
1010
,
0000
0000
0101
0000
0000
0101
0000
0000
0010
0000
0000
0000
0100
0000
0001
1000
,
0100
0010
0100
0000
0001
0000
0100
0010
0000
1000
0001
0000
1000
0100
0010
0000
,
0010
0000
0100
0010
0001
0000
0100
0000
0101
0000
0000
0000
1000
0000
1000
0000
,
0010
0100
0000
0001
0100
0001
0010
0000
1000
0000
0100
0001
0010
0000
1000
0010
,
1000
0010
0100
0010
0001
0000
0001
0000
1000
0000
0000
0000
0010
0000
0100
0010
,
0001
0000
0001
0000
0100
0010
0100
0000
1000
0000
1000
0000
0001
0010
0100
0010
,
0100
0000
0000
0000
0000
0000
0010
0000
0000
0000
0000
0000
1000
0000
0000
0000
0001
0000
0000
0000
0100
0000
0000
0000
0010
0000
0000
0000
0000
0000
0000
0000
0000
0000
0000
0000
1000
0000
0000
0000
0000
0000
0000
0000
0000
0001
0000
0000
,
0000
0000
0100
0000
0000
0001
0000
0000
1000
0000
0010
0010
0100
0000
0000
0001
,
0000
0000
1000
0000
0000
0001
0000
0000
0100
0000
0010
0010
1000
0000
0000
0010
,
0000
0000
0100
0000
0000
0010
0000
0000
1000
0000
0001
0001
0100
0000
0000
0100
,
0000
0000
0001
0000
0000
1000
0000
0000
1001
0000
0000
0000
0000
0000
0000
0000
;
