#TITLE:Caterpillar;
#SUBTITLE:;
#ARTIST:Eagle;
#TITLETRANSLIT:;
#SUBTITLETRANSLIT:;
#ARTISTTRANSLIT:;
#GENRE:;
#CREDIT:;
#BANNER:Caterpillar.png;
#BACKGROUND:Caterpillar-bg.png;
#LYRICSPATH:;
#CDTITLE:;
#MUSIC:Caterpillar.ogg;
#OFFSET:-0.461137;
#SAMPLESTART:22.996000;
#SAMPLELENGTH:15.000000;
#SELECTABLE:YES;
#BPMS:0.000000=170.000000
,160.000000=85.000000
,176.000000=170.000000
;
#STOPS:
;
#BGCHANGES:;
#KEYSOUNDS:;
#ATTACKS:;

//---------------dance-single - ----------------
#NOTES:
     dance-single:
     :
     Hard:
     16:
     0.764368,0.872136,0.640100,0.500591,0.484178,652.000000,574.000000,78.000000,61.000000,0.000000,0.000000,0.764368,0.872136,0.640100,0.500591,0.484178,652.000000,574.000000,78.000000,61.000000,0.000000,0.000000:
0000
0000
0000
0000
,
0000
0000
0000
0000
,
0000
0000
0000
0000
,
0000
0000
0000
0000
,
0000
0000
0000
0000
,
0000
0000
0000
0000
,
0000
0000
0000
0000
,
0000
0000
0000
0000
,
0010
0000
1010
0100
0001
0010
1000
0000
,
0101
0000
0011
0000
1001
0000
0010
1000
,
0120
0000
0130
0001
0201
0000
1300
1002
,
0000
0010
0003
2000
0100
0000
3100
0001
,
0100
0000
0011
1000
0100
1000
0001
0010
,
0110
0000
1000
0100
1000
0001
0010
0001
,
0100
0000
0100
0000
1000
0000
1000
0000
0010
1000
0010
0100
0001
0010
1000
0000
,
0002
0000
2003
0000
3020
0000
0230
0000
2300
0000
3002
0000
0023
0100
0000
0000
,
0031
0000
0000
0000
0100
0000
0010
0000
1001
0000
0001
0100
0010
0100
1000
0000
,
0010
0001
1000
0100
1000
0010
1000
0000
0010
0000
0001
0000
0100
0000
0010
0000
,
0001
0000
0000
0000
1001
0000
1000
0010
0001
0000
0001
0010
0100
1000
0100
0000
,
0001
0100
0010
1000
0100
0010
1000
0010
0001
0000
0100
0000
2000
0000
0100
0000
,
3100
0000
0000
0000
0110
0000
0000
0000
0101
0000
0001
0100
0010
0001
0010
0000
,
1000
0100
0010
0100
0001
0010
1000
0010
0001
0000
0100
0000
1000
0000
0010
0000
,
0002
0000
0000
0000
0103
1000
0100
1000
0010
0000
0010
0001
1000
0001
0100
0010
,
1000
0100
0001
0010
0001
0000
0000
0000
1100
0000
0001
0000
0100
0000
0010
0000
,
0200
0000
0000
1000
0300
0000
0101
0000
0010
0000
0100
0010
0001
1000
0100
0000
,
0010
0100
0010
0100
0001
0000
0001
1000
0010
0000
0100
0000
0001
0000
0100
0000
,
1002
0000
0000
0000
0013
0000
1000
0010
1000
0000
0100
0010
0001
1000
0100
0000
,
0010
0001
1000
0010
0100
0000
1000
0000
1100
0000
0010
0000
0100
0000
0100
0000
,
0020
0000
0000
0000
0130
0000
0000
0000
0011
0000
1000
0100
0010
0001
1000
0000
,
0001
1000
0001
1000
0010
0100
1000
0100
0001
0000
0010
0000
1010
0000
0010
0000
,
0200
0000
1300
0010
1000
0001
0100
0000
,
1100
0000
0110
0000
1001
0010
0100
0010
,
0100
0000
0000
0000
0101
0000
0010
0000
1000
0001
0000
1000
0000
1000
0010
0000
,
0100
0001
0000
0100
0000
0100
1000
0000
0010
0000
1000
0000
1020
0000
0000
0000
,
0031
0000
0000
0000
0011
0000
1000
0000
0010
1000
0000
0010
0000
0010
1000
0000
,
0001
1000
0000
0001
0000
0001
0100
0000
1000
0000
0000
0000
2001
0000
0000
0000
,
3010
0001
0100
0010
1000
0100
1000
0001
,
0010
0010
1000
1000
0100
0001
0100
1000
,
0002
0010
0203
0010
2300
0001
3020
0001
,
1030
0100
1000
0000
0010
1000
0010
0000
0100
0010
0100
0000
1001
0000
0000
0000
,
0020
0000
1000
0000
0130
1000
0001
0000
0011
0000
0101
0000
1010
0000
0100
0001
,
2200
0000
3300
0000
0011
0000
0202
0000
0303
0010
0000
1000
0020
0000
0000
0000
,
0130
1000
0100
0010
0001
1000
1001
0001
,
0202
0000
0303
0000
1010
0000
2200
0000
3300
0010
0000
0001
1000
0000
0001
0000
,
0201
0000
0000
0000
0300
0000
0010
0000
1000
0000
0000
0010
0000
0000
1010
0000
,
0000
0000
0100
0000
0000
1000
0000
0000
0110
0000
0000
0001
0000
0000
0010
0000
,
0000
0000
0011
0000
0000
0000
0001
0000
1000
0000
0000
0100
0000
0000
1100
0000
,
0000
0010
0000
0010
0110
0000
1010
0000
,
0001
0000
0000
1000
0001
0000
0010
0000
0100
0000
0000
0010
0100
0000
1000
0000
,
1000
0000
0000
0100
1000
0000
0001
0000
0010
0000
0000
0100
0010
0000
0010
0000
,
0100
1000
1100
1010
,
0010
0001
0010
1000
0100
0000
0110
0000
,
2100
0000
3100
0010
0110
1000
1100
0000
,
0021
0000
0031
1000
1010
0100
0110
0000
,
0101
0000
0010
0000
1010
0000
0001
0000
1000
0010
0100
1000
0001
0100
0010
0000
,
2000
0000
3200
0000
0320
0000
0032
0000
0203
0000
0320
0000
2030
0001
0000
0000
,
3010
0000
0000
0000
0110
0000
0001
0000
1000
0001
0000
0010
0000
0010
0001
0000
,
0100
1000
0000
0100
0000
0100
0010
0000
0001
0020
0000
0002
0000
0000
0033
0000
,
0100
1000
0000
0100
0000
0001
0010
0000
1000
0001
0000
1000
0000
0010
0100
0000
,
0001
0000
1000
0000
0100
0000
0010
0000
0100
0000
0000
0100
0002
0000
0010
0000
,
0013
1000
1010
0100
0001
0010
0011
0100
,
0100
1000
0010
0100
0001
0010
2010
0000
,
3100
0001
0100
0010
1000
0001
1000
0010
,
0200
0000
0000
0000
0300
0000
0001
1000
2002
0000
0000
0000
3003
0000
0000
0000
,
0020
0000
1030
0100
2100
0000
3001
0100
,
0200
0000
0301
1000
0120
0000
0031
1000
,
2000
0000
3100
0001
1020
0000
0130
0001
,
0002
0000
0013
1000
0210
0000
0310
0001
,
0101
0000
0000
0000
1001
0000
0010
0000
1000
0000
0000
1000
0010
0000
0100
0000
,
0110
0000
0000
0000
0101
0000
1000
0000
0010
0000
0000
0010
1000
0000
0100
0000
,
0001
0000
0000
0000
0011
0000
0010
0000
1000
0000
0000
0001
0100
0000
0010
0000
,
1000
0000
0000
0000
1010
0000
0010
0000
0100
0000
0000
0010
0002
0000
0000
0000
,
1003
0000
0000
0010
0100
0000
1000
0000
0001
0000
0010
0100
0010
1000
0001
0000
,
0110
0000
0000
0010
1000
0000
0100
0000
0001
0000
0100
0001
1000
0000
0001
0000
,
0100
0000
0010
1000
0010
0000
0100
0000
0101
0000
0010
0001
0100
0001
1000
0000
,
0010
1000
0100
0010
0100
0000
1000
0010
0001
0000
0100
0010
0100
0010
0001
0000
,
0001
0000
0010
0000
0100
0000
1000
0000
1001
0000
0010
0100
0010
0000
0001
0000
,
0100
0000
0010
0000
0100
0000
0001
0000
1100
0000
0010
0100
0010
0000
0001
0000
,
1000
0000
0100
0000
0010
0000
0100
0000
0011
0000
1000
0010
1000
0000
0100
0000
,
1000
0001
1000
0001
0100
0010
0001
0000
1100
0000
0000
0000
0101
0000
0000
0000
,
2002
0000
0000
0000
,
0000
0000
0000
3003
;

//---------------dance-single - ----------------
#NOTES:
     dance-single:
     :
     Medium:
     11:
     0.494729,0.570243,0.320050,0.320050,0.000000,422.000000,383.000000,39.000000,39.000000,0.000000,0.000000,0.494729,0.570243,0.320050,0.320050,0.000000,422.000000,383.000000,39.000000,39.000000,0.000000,0.000000:
0000
0000
0000
0000
,
0000
0000
0000
0000
,
0000
0000
0000
0000
,
0000
0000
0000
0000
,
0000
0000
0000
0000
,
0000
0000
0000
0000
,
0000
0000
0000
0000
,
0000
0000
0000
0000
,
0002
0000
0010
0000
0013
1000
0100
0000
,
2000
0000
3200
0000
2300
0000
3001
0010
,
0200
0300
1000
1020
,
0000
1000
0030
1000
0002
0000
0103
0000
,
0200
1000
0001
1300
,
0020
0100
0001
1030
,
1000
0001
1000
0000
0010
0100
0010
0000
,
0010
0001
1000
1001
,
0010
0000
0100
0000
1100
0000
0001
0100
,
1000
0100
1000
0000
0001
0000
0100
0010
,
0001
0000
0010
0000
0110
0000
0001
0100
,
0001
0010
0001
0000
1000
0100
1000
0000
,
0100
0000
0010
0000
0011
0000
0001
0100
,
0001
1000
0001
0000
0010
0000
0010
0100
,
0010
0000
0100
0000
1100
0000
0010
0001
,
1000
0000
0100
0010
0100
0001
0010
0000
,
2200
3000
0301
0100
,
0010
0100
0010
0100
0010
0001
1000
0000
,
0100
1000
0100
0000
0011
0000
0001
0100
,
0001
0000
1000
0100
0010
0100
0001
0000
,
0100
0001
0100
0000
0010
1000
0010
0000
,
0100
1000
0010
1000
0001
1000
0010
0000
,
0001
0000
0010
0000
0001
0100
0001
0000
,
0200
0302
2000
3003
,
0010
0000
0010
0000
1000
0000
1000
0001
,
0100
0000
0001
0010
0100
1000
0010
0000
,
1000
0001
1000
0001
0100
0000
0100
0010
,
0001
0010
1000
0000
0001
0100
0001
0000
,
0020
1030
2000
3001
,
0002
0103
0200
1300
,
0010
0001
0100
0000
0001
0100
1000
0000
,
0100
0010
0100
0010
0001
0000
1001
0000
,
2000
0000
3200
0000
0301
1000
0001
0100
,
0002
0000
0023
0000
0130
1000
0100
0000
,
0120
0000
2030
0000
3010
0100
0001
0010
,
0200
0000
0320
0000
0031
1000
0002
0003
,
1010
0000
0011
0000
,
0100
0010
0110
0000
,
1000
1000
0100
0100
,
0001
0010
1010
0000
,
0010
0001
0100
0100
,
1000
0010
0001
0001
,
0010
1000
0010
0000
1000
0001
0100
0001
,
0000
0010
1000
0000
1010
0000
0011
0000
,
0002
0000
0010
0000
1003
0100
1000
0000
,
0200
0000
0001
0000
0310
1000
0010
0000
,
0100
0010
0001
1000
0100
1000
0010
0000
,
0001
1000
0100
0110
,
0100
0000
0001
0000
1010
0000
0100
0001
,
1000
0001
0100
0000
0011
0000
0101
0000
,
1000
0010
1000
0000
1100
0000
0100
0001
,
0100
0010
0100
0000
1001
0000
0101
0000
,
0100
1000
0100
0000
0110
0000
1000
0010
,
1000
0001
1000
0000
0011
0000
0110
0000
,
0001
0010
1000
0100
0010
0001
0100
0000
,
1000
0100
1000
0000
1010
0000
0110
0000
,
2000
0000
3010
0100
0002
0000
1003
0010
,
0200
0000
0310
0001
2000
0001
3010
0000
,
0002
0000
0013
0100
2000
0000
3001
0100
,
0020
0000
0130
0001
0200
0001
1300
0000
,
0010
0100
0010
0100
0001
0000
0001
0100
,
1000
0000
1000
0010
0100
1000
0100
0000
,
0010
1000
0010
0001
1000
0010
0100
0000
,
1000
0001
1000
0010
0001
0000
1001
0000
,
0100
0000
0010
1000
1001
0000
0001
0010
,
0100
1000
0001
0000
0110
0100
0010
0000
,
1000
0000
0010
0001
0101
0000
0100
1000
,
0001
0010
0100
0000
1001
1000
0001
0000
,
0100
0010
0100
0000
0011
0000
0001
1000
,
0001
0000
0100
0010
1100
1000
0010
0000
,
1000
0100
1000
0100
0001
0100
0010
1000
,
0100
1001
1010
0101
,
0220
0000
0000
0000
,
0000
0000
0000
0330
;

//---------------dance-single - ----------------
#NOTES:
     dance-single:
     :
     Challenge:
     16:
     0.702234,0.886292,0.467765,0.106683,0.389804,599.000000,542.000000,57.000000,13.000000,112.000000,0.000000,0.702234,0.886292,0.467765,0.106683,0.389804,599.000000,542.000000,57.000000,13.000000,112.000000,0.000000:
0000
0000
0000
0000
,
0000
0000
0000
0000
,
0000
0000
0000
0000
,
0000
0000
0000
0000
,
0000
0000
0000
0000
,
0000
0000
0000
0000
,
0000
0000
0000
0000
,
0000
0000
0000
0000
,
0101
0000
0100
1000
0010
0000
0001
0100
,
0010
0100
0001
0000
1100
0000
0010
0100
,
0010
0001
1000
0000
0100
1000
0010
1000
,
0000
0001
0010
0100
0010
1000
0100
0000
,
0001
0010
1000
0010
0001
0100
1000
0100
,
1000
0010
1000
0100
0001
0010
0001
1000
,
0010
1000
0010
1000
0100
1000
0100
1000
0001
1000
0001
1000
0100
0010
0100
0000
,
0001
0100
1000
0010
1000
0001
MMMM
0000
,
1000
0000
0000
0000
0010
0000
0100
0000
1100
0000
1000
0001
1000
0010
0100
0000
,
0001
0010
0100
0010
0100
0001
1000
0000
0010
0000
1000
0000
MMMM
0000
0000
0000
,
0100
0000
0000
0000
0001
0000
1000
0000
1001
0000
0100
1000
0010
1000
0100
0000
,
1000
0001
0100
0001
0100
0010
0001
0000
0100
0000
0010
0000
MMMM
0000
0000
0000
,
0101
0000
0000
0000
MMMM
0000
0000
0000
0100
0000
0010
1000
0001
1000
0001
0000
,
0100
0010
1000
0010
0001
1000
0010
0000
1000
0000
0001
0000
0011
0000
0001
0000
,
0100
0000
0000
0000
1000
0000
1000
0010
0100
0000
0100
0010
1000
0010
1000
0000
,
0001
0100
1000
0100
0010
0100
0001
0000
1000
0000
0010
0000
MMMM
0000
0000
0000
,
0020
0000
0000
0000
1030
0000
0000
0000
0110
0000
0001
1000
0001
1000
0010
0000
,
0100
0001
0010
0001
0010
1000
0100
0000
0001
0000
0010
0000
0110
0000
1000
0000
,
MMMM
0000
0000
0000
0100
0010
0100
0010
1000
0000
0010
0001
0010
0001
0100
0000
,
0010
0100
1000
0100
1000
0010
0100
0010
0001
0000
0000
0000
0110
0000
0100
0000
,
MMMM
0000
0000
0000
0002
0000
0000
0000
1003
0000
1000
0100
0010
0100
1000
0000
,
0001
1000
0010
1000
0100
0001
0100
0001
0010
0000
1000
0000
1100
0000
0001
0000
,
2000
0000
3100
0010
0100
1000
0001
0000
,
0011
1100
1001
MMMM
,
0200
0000
0000
0000
0310
0000
0001
0000
1000
0000
0000
1000
0100
0000
0010
0000
,
0100
0000
0000
0100
0001
0000
1000
0000
0010
0000
1000
0000
MMMM
0000
0000
0000
,
0001
0000
0010
0000
1000
0000
0010
0000
0001
0000
0000
0001
0100
0000
1000
0000
,
0010
0000
0000
0010
0001
0000
0100
0000
0010
0000
0010
0000
MMMM
0000
0000
0000
,
0100
0001
0100
1000
0001
0100
0001
0010
,
0100
1000
0010
0001
0100
0010
0001
1000
,
0010
0010
0100
0100
1000
1000
0001
0001
,
1000
0100
1000
0100
0001
0010
0001
0010
0100
0001
1000
0000
MMMM
0000
0000
0000
,
0011
0000
0100
0010
1000
0010
1000
0000
0110
0000
0101
0000
1010
0000
1000
0010
,
0001
0000
0000
0000
1100
0000
0101
0000
0000
1000
0000
0010
2000
0000
0001
0000
,
3001
0000
0100
1000
0100
0001
0010
0000
0011
0000
1001
0000
0101
0000
0010
0001
,
1000
0000
0000
0000
0110
0000
0101
0000
0000
0010
0000
0010
1000
0000
0001
0000
,
0200
0000
0001
0000
0301
1000
0010
0000
,
1000
0000
0010
0100
0010
0000
0100
0010
,
0002
0000
1003
0010
0200
0000
0310
1000
,
0010
0001
0100
0000
2000
0000
3002
0000
,
0023
0000
0100
0000
0130
0000
1000
0100
,
0010
0100
0001
0000
1000
0000
0001
0100
,
0020
1000
1030
0000
0002
0100
0103
0000
,
1000
0100
1000
0010
0001
0000
0110
0000
,
MMMM
0000
1000
0001
0010
1000
0100
0000
,
MMMM
0000
0010
0001
0100
1000
0100
0000
,
MMMM
0000
0000
0000
0001
1000
0001
1000
0010
1000
0010
1000
0100
0010
0100
0000
,
1000
1000
0001
0010
1000
0001
MMMM
0000
,
1100
0000
0000
0000
0110
0000
1000
0000
1010
0000
0000
1000
0010
0000
0001
0000
,
0101
0000
0000
0100
0001
0000
1000
0000
0010
0000
1000
0000
0100
0000
0000
0000
,
1010
0000
0000
0000
1001
0000
0010
0000
0011
0000
0000
0010
0100
0000
0010
0000
,
1010
0000
0000
1000
0100
0000
1000
0000
0001
0000
0100
0000
1000
0000
0000
0000
,
0010
0000
1000
0000
0100
0000
1000
0000
1001
0000
0010
1000
0010
0000
0100
0000
,
0110
0000
1000
0001
1000
0000
0010
0000
0001
0000
0100
0000
0010
0000
0000
0000
,
0101
0000
0010
1000
0010
0000
1000
0000
1010
0000
0100
0001
0100
0000
1000
0000
,
0010
0010
0100
0100
1100
0001
0100
0000
,
1000
0000
MMMM
0100
1100
0000
MMMM
0010
,
0001
0000
0101
0000
MMMM
0100
0010
0000
,
1100
0000
MMMM
0010
0110
0000
MMMM
0001
,
0010
0000
1010
0000
MMMM
0010
1000
0000
,
0101
0000
MMMM
1000
1001
0000
MMMM
0001
,
1000
0000
0011
0000
MMMM
0010
0001
0000
,
1010
0000
MMMM
0010
0011
0000
MMMM
0100
,
1000
0000
0110
0000
MMMM
1000
0010
0000
,
0001
0000
0000
0010
0001
0000
0010
0000
1010
0000
0010
0001
0010
0000
1000
0000
,
0100
0000
0000
0001
0100
0000
1000
0000
0101
0000
0001
1000
0001
0000
0010
0000
,
1000
0000
0000
0001
1000
0000
1000
0000
0011
0000
1000
0100
1000
0000
0001
0000
,
0010
0000
0000
1000
0010
0000
0100
0000
0101
0000
0010
1000
0010
0000
0001
0000
,
1000
0001
0100
0010
1010
0001
0100
0100
,
0001
1000
0010
1000
1100
0010
1000
1000
,
0100
1000
0100
0000
1000
0010
1000
0000
0001
1000
0001
0000
0010
0001
0010
0000
,
0001
1000
0100
0010
0100
1000
0010
0100
1000
0000
0000
0000
MMMM
0000
0011
0000
,
1010
0000
0000
0000
;

//---------------dance-single - ----------------
#NOTES:
     dance-single:
     :
     Easy:
     6:
     0.301292,0.393908,0.164128,0.164128,0.000000,257.000000,237.000000,20.000000,20.000000,0.000000,0.000000,0.301292,0.393908,0.164128,0.164128,0.000000,257.000000,237.000000,20.000000,20.000000,0.000000,0.000000:
0000
0000
0000
0000
,
0000
0000
0000
0000
,
0000
0000
0000
0000
,
0000
0000
0000
0000
,
0000
0000
0000
0000
,
0000
0000
0000
0000
,
0000
0000
0000
0000
,
0000
0000
0000
0000
,
0100
0000
0001
0000
,
0001
0100
1000
0000
,
1000
0010
1000
0100
,
0100
0001
0010
0000
,
0010
0010
0001
0001
,
1000
1000
0100
0100
,
1000
0010
0100
0001
,
2002
0000
0000
3003
,
0020
0030
0100
1000
,
0100
0100
0010
0000
,
0002
0003
0001
0010
,
0100
1000
0001
0000
,
0200
0300
0100
0010
,
1000
0010
0100
0000
,
2000
3000
0100
0010
,
1000
0010
1000
0000
,
0100
0000
0101
1000
,
0010
0100
1000
1000
,
0001
0000
0011
0001
,
0100
1000
0010
0010
,
0100
0000
1010
0010
,
0100
1000
0001
0001
,
0010
0000
0110
1000
,
0100
0100
0010
0000
,
0002
0000
0013
0010
,
0100
0001
1000
0000
,
0020
0000
1030
1000
,
0100
1000
0010
0000
,
0200
0310
1000
0010
,
0002
0103
1000
0010
,
0200
0301
0002
0013
,
1000
0100
0001
0000
,
0110
1000
0100
0100
,
0010
0000
0100
0000
0001
0100
0001
0000
,
1001
0100
0010
0010
,
0100
0000
1000
0000
0100
1000
0100
0000
,
1010
0000
0010
0000
,
0100
0010
0100
0000
,
0010
1000
0100
0010
,
0010
1000
0100
0000
,
0002
0013
0020
0130
,
0200
0301
0002
1003
,
1000
0100
0010
0100
,
1000
0010
0001
0000
,
0200
0000
1300
0010
,
0020
0000
1030
0001
,
1000
0100
1000
0100
,
0220
0000
0000
0330
,
0010
0001
0100
0001
,
1000
0010
1000
0000
,
0100
0100
0010
0001
,
1000
0100
1000
0000
,
1001
0001
0100
0010
,
0001
0010
0001
0000
,
1000
0100
0010
1000
,
1000
0001
0100
0000
,
1000
0000
0110
0000
,
0001
0000
1100
0000
,
0100
0000
1010
0000
,
1000
0000
0101
0000
,
0010
1000
1010
0000
,
0100
0010
0110
0000
,
1000
0100
1100
0000
,
0001
1000
1001
0000
,
0001
0100
0010
0100
,
0010
0010
0001
0000
,
1000
0010
0100
0100
,
0010
1000
0100
0000
,
0010
1000
0010
0010
,
1000
0010
0001
0001
,
0010
0100
1000
0100
,
1000
0100
0110
0000
,
1001
0000
0000
0000
;

//---------------dance-single - ----------------
#NOTES:
     dance-single:
     :
     Beginner:
     4:
     0.207505,0.262605,0.114890,0.073858,0.000000,177.000000,163.000000,14.000000,9.000000,0.000000,0.000000,0.207505,0.262605,0.114890,0.073858,0.000000,177.000000,163.000000,14.000000,9.000000,0.000000,0.000000:
// measure 0
0000
0000
0000
0000
,  // measure 1
0000
0000
0000
0000
,  // measure 2
0000
0000
0000
0000
,  // measure 3
0000
0000
0000
0000
,  // measure 4
0000
0000
0000
0000
,  // measure 5
0000
0000
0000
0000
,  // measure 6
0000
0000
0000
0000
,  // measure 7
0000
0000
0000
0000
,  // measure 8
0010
0000
1000
0000
,  // measure 9
0010
0010
0010
0000
,  // measure 10
0100
0000
0010
0000
,  // measure 11
0100
0100
0100
0000
,  // measure 12
0001
0000
1000
0000
,  // measure 13
0010
0000
0100
0000
,  // measure 14
0001
0000
0001
0000
,  // measure 15
0000
0000
0000
0000
,  // measure 16
0010
0000
0010
0000
,  // measure 17
0100
0100
0100
0000
,  // measure 18
1000
0000
1000
0000
,  // measure 19
0001
0001
0001
0000
,  // measure 20
0010
0000
1000
0000
,  // measure 21
0010
0010
0010
0000
,  // measure 22
0100
0000
0001
0000
,  // measure 23
0100
0100
0100
0000
,  // measure 24
2000
0000
3000
0000
,  // measure 25
0001
0000
0001
0000
,  // measure 26
0010
0000
0100
0000
,  // measure 27
0100
0000
1000
0000
,  // measure 28
0200
0300
0110
0000
,  // measure 29
0010
0000
0010
0000
,  // measure 30
1000
0000
0001
0000
,  // measure 31
1000
1000
2000
3000
,  // measure 32
0010
0000
0100
0000
,  // measure 33
0010
0000
0010
0000
,  // measure 34
0001
0000
1000
0000
,  // measure 35
0001
0000
0001
0000
,  // measure 36
0100
0100
0100
0000
,  // measure 37
1000
1000
1000
0000
,  // measure 38
0010
0010
0010
0000
,  // measure 39
0001
0000
1001
0000
,  // measure 40
0020
0030
0100
1000
,  // measure 41
0200
0300
1000
0001
,  // measure 42
2000
3000
0010
0001
,  // measure 43
0020
0030
0100
0110
,  // measure 44
1000
0000
0001
0000
,  // measure 45
1000
0000
1000
0000
,  // measure 46
0100
0000
0010
0000
,  // measure 47
0100
0000
0100
0000
,  // measure 48
0001
0001
0001
0000
,  // measure 49
1000
1000
1000
0000
,  // measure 50
0010
0000
0100
0000
,  // measure 51
0110
0000
0010
0000
,  // measure 52
1000
1000
1000
0000
,  // measure 53
0001
0001
0001
0000
,  // measure 54
0010
0010
0010
0000
,  // measure 55
0000
0000
0000
0000
,  // measure 56
0100
0000
0001
0000
,  // measure 57
0100
0100
0100
0000
,  // measure 58
1000
0000
0010
0000
,  // measure 59
1000
1000
1000
0000
,  // measure 60
0001
0000
0100
0000
,  // measure 61
1000
0000
0100
0000
,  // measure 62
0010
0000
0010
0000
,  // measure 63
0220
0000
0330
0000
,  // measure 64
1000
0000
1001
0000
,  // measure 65
0001
0000
1001
0000
,  // measure 66
1000
0000
1001
0000
,  // measure 67
0001
0000
1001
0000
,  // measure 68
0010
0000
0110
0000
,  // measure 69
0100
0000
0110
0000
,  // measure 70
0010
0000
0110
0000
,  // measure 71
0100
0000
0110
0000
,  // measure 72
1000
1000
1000
0000
,  // measure 73
0001
0000
1000
0000
,  // measure 74
0010
0010
0010
0000
,  // measure 75
0100
0000
0010
0000
,  // measure 76
0001
0000
1000
0000
,  // measure 77
0001
0000
0010
0000
,  // measure 78
1000
0000
0100
0000
,  // measure 79
0010
0010
0010
0000
,  // measure 80
1001
0000
0000
0000
;
