#TITLE:CHIP'N'RIDDIM;
#SUBTITLE:;
#ARTIST:L.E.D.-G;
#TITLETRANSLIT:;
#SUBTITLETRANSLIT:;
#ARTISTTRANSLIT:;
#GENRE:;
#CREDIT:;
#MUSIC:CHIP'N'RIDDIM.ogg;
#BANNER:CHIP'N'RIDDIM.png;
#BACKGROUND:CHIP'N'RIDDIM-bg.png;
#CDTITLE:;
#SAMPLESTART:52.859;
#SAMPLELENGTH:15.000;
#SELECTABLE:YES;
#OFFSET:-0.128;
#BPMS:0.000=200.000;
#STOPS:172.000=0.900;
#ORIGIN:;
#PREVIEWVID:;
#JACKET:;
#CDIMAGE:;
#DISCIMAGE:;
#BGCHANGES:;
#FGCHANGES:;

//--------------- dance-single - ----------------
#NOTES:
     dance-single:
     :
     Beginner:
     4:
     0,0,0,0,0:
0000
0000
0000
0000
,
0000
0000
0000
0000
,
0000
0000
0000
0000
,
0000
0000
0000
0000
,
1001
0000
0000
0000
,
1000
0000
1000
0000
,
1000
0000
0000
0000
,
0001
0000
0001
0000
,
0001
0000
0000
0000
,
0010
0000
0010
0000
,
0010
0000
0000
0000
,
0100
0000
0100
0000
,
0110
0000
0000
0000
,
0010
0000
0100
0000
,
0010
0000
0000
0000
,
1000
0000
0001
0000
,
1000
0000
0000
0000
,
0010
0000
0001
0000
,
0010
0000
0000
0000
,
0100
0000
1000
0000
,
1001
0000
0000
0000
,
0100
0000
1000
0000
,
0100
0000
0000
0000
,
0001
0000
0010
0000
,
0001
0000
0000
0000
,
1000
0000
0001
0000
,
1000
0000
0000
0000
,
0200
0000
0300
0000
,
0010
0010
0010
0000
,
0100
0100
0100
0000
,
0001
0000
1000
0000
,
0010
0000
0100
0000
,
1000
1000
1000
0000
,
0001
0001
0001
0000
,
1000
0000
0001
0000
,
0100
0000
0010
0000
,
0100
0100
0100
0000
,
1000
1000
1000
0000
,
0010
0000
0001
0000
,
1000
0000
0100
0000
,
0002
0000
0000
0000
,
0003
0000
0000
0000
,
0000
0000
0000
0000
,
1001
0010
0000
0100
,
0000
0010
0000
0010
,
0000
1000
0000
0010
,
0000
1000
0000
1000
,
0000
0001
0000
1000
,
0000
0001
0000
0001
,
0000
0100
0000
0001
,
0000
0100
0000
0100
,
0000
0010
0000
0100
,
0000
0010
0000
0010
,
0000
0001
0000
0010
,
0000
0001
0000
0001
,
0000
1000
0000
0001
,
0000
1000
0000
1000
,
0000
0100
0000
1000
,
0000
0100
0000
0100
,
0000
1000
1000
1000
,
0000
0001
0000
1000
,
0000
0010
0000
0010
,
0000
0100
0000
0010
,
0000
0100
0100
0100
,
0000
1000
0000
0100
,
0000
0001
0000
0001
,
0000
0010
0000
0110
,
0000
0001
0001
0001
,
0000
1000
0000
0010
,
0000
0100
0100
0100
,
0000
1000
0000
0001
,
0000
0010
0010
0010
,
0000
0100
0000
1000
,
0000
0001
0001
0001
,
0000
1000
0000
1001
,
0000
0100
0000
1000
,
0000
0100
0000
0100
,
0000
0001
0000
1000
,
0000
0001
0000
0001
,
0000
0010
0000
0001
,
0000
0010
0000
0010
,
0000
0100
0000
0010
,
0000
0100
0000
0100
,
0000
0010
0000
0100
,
0000
1000
0000
1000
,
0000
0100
0000
0010
,
0000
0001
0000
0001
,
0000
0100
0000
1000
,
0000
0010
0000
0010
,
0000
0001
0000
0010
,
0000
1000
0000
1001
;

//--------------- dance-single - ----------------
#NOTES:
     dance-single:
     :
     Easy:
     7:
     0,0,0,0,0:
0000
0000
0000
0000
,
0000
0000
0000
0000
,
0000
0000
0000
0000
,
0000
0000
0000
0000
,
0001
0000
1000
0000
,
0010
1000
0100
1000
,
0010
0000
0100
0000
,
0001
0001
0010
0000
,
1000
0000
0100
0000
,
1000
0010
1000
0001
,
0100
0000
0010
0000
,
0100
0100
0001
0000
,
1001
0000
1000
0000
,
0001
0100
0001
0000
,
0010
0000
0100
0000
,
0100
0001
0100
0000
,
0010
0000
0100
0000
,
1000
0010
1000
0000
,
0001
0000
0100
0000
,
0001
0010
0001
0000
,
1001
0000
0100
0000
,
0010
0010
0001
0100
,
0010
0000
1000
0000
,
0001
0001
1000
0010
,
0100
0000
0010
0000
,
0100
0100
1000
0001
,
0010
0000
0001
0000
,
1000
0010
1000
0000
,
0110
0000
0001
0001
,
0010
0000
1000
1000
,
0001
0000
0010
0010
,
0001
0100
0010
0000
,
1000
0000
0100
0100
,
1000
0000
0010
0010
,
0100
0000
0001
0010
,
0001
1000
0010
0000
,
1001
0000
0100
0100
,
0001
0000
0010
0010
,
1000
0000
0001
1000
,
0010
1000
0001
0000
,
0200
0000
0300
0000
,
0002
0000
0003
0000
,
2000
0000
3000
0000
,
0110
0100
0100
0010
,
0010
0100
0001
0100
,
0000
1000
1000
0010
,
0010
1000
0001
1000
,
0000
0001
0001
1000
,
1000
0001
0010
0001
,
0000
0100
0100
0010
,
0010
0100
1000
0100
,
0000
1000
0100
1000
,
0010
0100
0001
0001
,
0000
0100
1000
0010
,
1000
0001
0100
0100
,
0000
0010
0001
0010
,
0100
0001
1000
1000
,
0000
0001
1000
0100
,
1000
0001
0010
0010
,
0000
1000
0000
0001
,
0001
1000
0100
1000
,
0000
0010
0000
1000
,
0000
0010
0010
0100
,
0000
0001
0000
1000
,
1000
0001
0100
0010
,
0000
0100
0000
0010
,
0000
1000
1000
0100
,
0000
1001
0000
1000
,
0000
0001
0010
0001
,
1000
0100
0000
0100
,
0000
0010
0100
0010
,
1000
0001
0000
0001
,
0000
1000
0100
1000
,
0001
0010
0000
0010
,
0000
0100
0010
0200
,
0000
0301
0000
1000
,
0000
0010
0100
0001
,
0100
0010
0000
1000
,
0000
0001
0100
0001
,
0000
1000
0000
0010
,
0000
1000
0001
1000
,
0010
0100
0000
0001
,
0000
0100
1000
0100
,
0000
0110
0000
0100
,
0000
0001
0010
0001
,
1000
0010
0000
0100
,
0000
1000
0001
0100
,
0000
1000
0000
0010
,
0000
1000
0001
1000
,
0010
0100
0000
1000
,
0000
0001
1000
1001
;

//--------------- dance-single - ----------------
#NOTES:
     dance-single:
     :
     Medium:
     12:
     0.585923,0.591431,0.026069,0,0,472,469,3,0,0,0,0,0,0,0.585923,0.591431,0.026069,0,0,472,469,3,0,0,0,0,0,0:
0000
0000
0000
0000
,
0000
0000
0000
0000
,
0000
0000
0000
0000
,
0000
0000
0000
0000
,
1001
1000
0010
0100
,
0001
0010
0001
0100
0001
0000
1000
0000
,
0010
1000
0001
0100
,
0010
0100
0001
0100
0020
0000
0000
0000
,
1030
0100
0001
0100
,
0010
1000
0100
1000
0010
0000
0100
0000
,
0001
1000
0010
0100
,
0010
1000
0001
1000
0020
0000
0230
0000
,
0301
0000
1000
0000
0010
0100
0010
0000
,
0100
0000
0001
0000
0010
0001
0010
0001
,
0100
0000
0010
0000
1000
0100
1000
0000
,
0001
0000
0010
0000
0100
0001
0100
0010
,
1000
0000
0001
0000
0100
0010
0100
0000
,
0001
0000
0100
0000
1000
0010
0100
0010
,
0001
0000
0100
0000
0001
0100
0001
0000
,
1000
0010
0100
0010
1000
0000
0001
0000
,
0200
0000
0302
0000
1003
0010
1000
0000
,
0001
0000
0100
0010
0100
0001
2000
0000
,
3020
0000
0230
0000
0301
1000
0001
0000
,
0100
0000
0010
0000
0100
0010
1000
0001
,
0200
0000
0302
0000
1003
0010
1000
0000
,
0010
0000
0001
0100
0001
1000
0010
0000
,
2000
0000
3200
0000
1300
0001
1000
0000
,
0100
0001
0100
0010
0100
0000
1001
0000
,
1000
0000
0010
1000
0000
0001
0000
0100
,
0010
0000
0100
0001
0000
1000
0000
0010
,
0100
0000
0001
1000
0000
0010
0000
0100
,
0001
0000
0100
0000
0010
0100
0001
0000
,
1000
0000
0010
1000
0000
0001
0000
0100
,
0010
0000
0100
0001
0000
1000
0000
0001
,
1000
0000
0010
0100
0000
0001
0000
1000
,
0010
0000
0001
0000
0010
0001
0010
0000
,
0110
0000
0100
1000
0000
0010
0000
1000
,
0001
0000
0100
0010
0000
0100
0000
0001
,
1000
0000
0010
0100
0000
0010
0000
1000
,
0001
0000
1000
0000
0010
0100
0001
0000
,
1000
0000
0000
1000
0000
0000
0010
0000
,
0100
0000
0000
0100
0000
0000
0001
0000
,
0010
0000
0010
0000
0000
0001
0000
0000
,
1001
0000
0100
0000
0001
0100
0001
0000
,
0100
0010
0100
0000
0010
1000
0010
0000
,
0100
0000
1000
0000
0010
0100
0010
0000
,
0100
0001
0100
0000
0001
1000
0001
0000
,
0100
0000
0010
0000
1000
0001
1000
0000
,
0100
0010
0100
0000
0001
0100
0001
0000
,
0100
0000
0010
0000
1000
0100
1000
0000
,
0010
1000
0010
0000
0001
1000
0001
0000
,
0100
0000
0110
0000
0001
1000
0001
0000
,
0001
0100
0001
0000
0001
0010
0001
0000
,
0100
0000
0010
0000
0100
0001
0100
0000
,
0100
0010
0100
0000
0100
1000
0100
0000
,
0010
0000
1000
0000
0010
0001
0010
0000
,
0010
1000
0010
0000
0010
0100
0010
0000
,
1000
0000
0001
0000
1000
0100
1000
0000
,
1000
0010
1000
0000
1000
0001
1000
0000
,
1001
0000
0100
0000
0001
0100
0000
0010
,
0100
0000
0010
1000
0010
0100
0001
0000
,
0100
0000
0010
0000
1000
0010
0000
0100
,
0010
0000
0100
0001
0100
0010
1000
0000
,
0001
0000
1000
0000
0010
1000
0000
0001
,
1000
0000
0100
1000
0010
1000
0001
0000
,
0100
0000
0001
0000
1000
0001
0000
0010
,
0001
0000
0100
0001
0100
0000
0220
0000
,
0330
0000
1000
0000
1000
0001
0000
0001
,
0010
0000
1000
0010
0100
0001
1000
0000
,
0010
0000
0001
0000
1000
0010
0000
1000
,
0001
0000
0100
0010
1000
0001
0100
0000
,
0010
0000
0100
0000
0100
0010
0000
0010
,
1000
0000
0001
0010
0100
0010
0001
0000
,
1000
0000
0010
0000
0100
0001
0000
1000
,
0010
0000
1000
0100
1000
0010
0200
0000
,
0000
0000
0310
0000
1000
0000
0010
0100
,
0010
0000
1000
0001
0010
0001
0100
0000
,
0010
0000
1000
0000
0001
0000
0100
0010
,
0100
0000
0001
0010
0001
1000
0002
0000
,
0000
0000
1003
0000
0010
0000
0100
0001
,
0100
0000
0010
0100
0001
0100
0010
0000
,
1000
0000
0010
0000
0100
0000
0001
0100
,
0001
0000
1000
0001
1000
0100
1000
0000
,
1001
0000
0010
0000
0100
0000
0001
0010
,
0001
0000
1000
0010
0100
0010
1000
0000
,
0001
0000
0010
0000
0100
0000
1000
0010
,
1000
0000
0100
0010
0100
0001
0200
0000
,
0000
0000
0301
0000
0010
0000
0100
1000
,
0100
0000
0010
0100
0010
0001
0010
0000
,
0100
0000
1000
0000
0001
0000
0100
0010
,
0100
0000
1000
0010
0100
0001
0020
0000
,
0000
0000
0000
0000
,
0000
0030
0000
0000
;

//--------------- dance-single - ----------------
#NOTES:
     dance-single:
     :
     Hard:
     16:
     0.816816,0.761529,0.130343,0.156412,0.18248,658,643,15,18,0,0,0,0,0,0.816816,0.761529,0.130343,0.156412,0.18248,658,643,15,18,0,0,0,0,0:
0000
0000
0000
0000
,
0000
0000
0000
0000
,
0000
0000
0000
0000
,
0000
0000
0000
0000
,
0100
0000
0000
0000
0010
0100
0010
0100
0001
0000
0001
0000
1000
0000
1000
0000
,
0010
1000
0010
1000
0100
0000
1000
0000
,
0001
0000
0000
0000
0100
0001
0100
0001
0010
0000
0010
0000
0100
0000
0100
0000
,
1000
0001
1000
0001
2000
0000
0000
0000
,
3010
0000
0000
0000
1000
0010
1000
0010
0100
0000
0100
0000
0001
0000
0001
0000
,
0100
0010
0100
0010
0100
0000
0001
0000
,
1000
0000
0000
0000
0100
1000
0100
1000
0001
0000
0001
0000
0010
0000
0010
0000
,
0001
0100
0001
0100
0020
0030
0020
0030
,
1000
0000
0100
0000
1000
0000
0000
0000
0010
1000
0010
0000
0100
0000
0010
0000
,
0100
0100
0001
0001
1000
0010
1000
0010
,
0100
0000
0010
0000
0100
0000
0000
0000
0001
1000
0001
0000
1000
0000
0010
0000
,
1000
1000
0001
0001
0100
0010
1000
0001
,
1000
0000
0010
0000
1000
0000
0000
0000
0100
0010
0100
0000
0001
0000
0100
0000
,
0001
0001
1000
1000
0010
1000
0010
0100
,
0001
0000
0100
0000
0001
0000
0000
0000
0010
0001
0010
0000
0100
0000
1000
0000
,
0001
0001
0100
0100
0010
1000
0001
0100
,
0101
0000
0000
0000
1001
0000
0000
0000
0100
0001
0100
0000
0010
0000
0100
0000
,
1000
0010
0100
0010
0100
0001
1000
0010
,
1010
0000
0000
0000
0011
0000
0000
0000
0100
1000
0100
0000
1000
0000
0010
0000
,
1000
0100
0010
0100
0001
1000
0100
0010
,
0110
0000
0000
0000
1100
0000
0000
0000
1000
0010
1000
0000
0100
0000
0001
0000
,
0100
1000
0010
0100
0010
0001
1000
0001
,
1001
0000
0000
0000
1010
0000
0000
0000
0001
0100
0001
0000
1000
0000
0010
0000
,
1000
1000
0010
0010
1000
0100
0010
0001
,
0100
0010
1000
0100
0000
0001
0000
0100
,
0010
0100
1000
0001
0000
1000
0000
0010
,
0100
1000
0001
0100
0000
0010
0000
1000
,
0001
0000
0001
0000
0100
0010
1000
0000
,
0010
1000
0100
0001
0000
0010
0000
0001
,
1000
0001
0100
0010
0000
1000
0000
0100
,
1000
0010
1000
0100
0001
0010
0001
0100
,
0010
1000
0100
0010
0100
0001
0010
1000
,
0010
0100
0001
0010
0000
1000
0000
0010
,
0100
0001
0100
1000
0000
0010
0000
1000
,
0100
1000
0001
0100
1000
0001
0100
0001
,
0010
0000
0010
0000
1000
0001
0100
0010
,
0120
0000
1030
0100
0000
0000
2100
0000
,
3001
0200
0000
0000
0000
0300
0000
0000
,
0000
0000
0010
0000
0010
0000
1000
0001
,
2002
3003
0000
0000
0000
0000
0000
0000
0100
0000
0000
0000
0010
0000
0000
0000
0010
0000
0000
0000
0010
0000
0000
0000
1000
0000
0000
0000
0010
0000
0000
0000
,
0010
0010
0100
0010
0010
0010
1000
0010
,
1000
0001
0100
0001
0001
0001
0010
0001
,
0001
0001
0100
0001
0001
0001
0100
0100
,
0010
1000
0001
1000
1000
1000
0010
1000
,
1000
1000
0001
1000
1000
1000
0010
1000
,
0010
0100
0001
0100
0100
0100
0010
0100
,
0100
0100
0001
0100
0100
0100
0010
0010
,
1000
0100
1000
0010
1000
0010
0100
0010
,
0100
0010
1000
0010
1000
0010
0100
0010
,
0001
0100
1000
0001
1000
0001
0010
0001
,
0010
0001
1000
0001
1000
0001
0010
0010
,
0100
1000
0010
1000
0010
1000
0100
1000
,
0100
1000
0010
1000
0010
1000
0100
1000
,
0010
0100
0001
0100
0001
0100
0010
0100
,
0010
0100
0001
0100
0001
0100
0010
1000
,
0001
1000
0100
0100
0010
1000
1000
0010
,
0100
0000
0010
0000
1000
0001
0100
0000
0100
0000
0001
0000
0010
0000
0100
0000
,
0010
0000
0001
0000
1000
0000
0001
0000
1000
0000
0010
1000
0000
0000
0001
0000
,
0001
0100
0010
1000
0010
0100
0002
0000
,
1003
0100
0010
0010
1000
0001
0001
1000
,
0010
0000
1000
0000
0001
0100
0010
0000
0010
0000
1000
0000
0100
0000
1000
0000
,
0010
0000
0100
0000
0001
0000
0010
0000
0001
0000
0010
0100
0000
0000
1000
0000
,
1000
0100
1000
0010
0100
0010
2002
0000
,
0003
0000
3010
0010
0100
0001
0001
0100
,
0010
0000
0100
0000
0001
0010
0001
0010
1000
0000
0100
0000
1000
0000
0010
0000
,
0100
0000
0001
0000
0100
0000
0010
0000
1000
0000
0001
1000
0000
0000
0100
0000
,
0001
0010
0100
1000
0100
0001
0010
0100
,
0001
1000
0100
0100
0001
1000
1000
0001
,
0100
0000
0010
0000
1000
0001
1000
0001
0010
0000
0100
0000
0010
0000
1000
0000
,
0001
0000
0010
0000
0100
0000
0010
0000
1000
0000
0001
0100
0000
0000
0010
0000
,
0001
1000
0010
0100
0010
1000
2200
0000
,
3000
0000
0000
0000
0310
0000
0000
0000
0001
0010
0001
0010
0100
0000
0100
0000
,
0010
0010
1000
0001
0100
0001
1000
0000
,
0010
0000
0000
0000
0100
0000
0000
0000
0010
1000
0010
1000
0001
0000
0001
0000
,
1000
1000
0010
0100
0010
0100
0020
0000
,
0000
0000
0000
0000
1030
0000
0000
0000
0001
0100
0001
0100
0010
0000
0010
0000
,
1000
1000
0010
1000
0100
1000
0010
0000
,
0100
0000
0000
0000
0001
0000
0000
0000
1000
0100
1000
0100
0010
0000
0010
0000
,
0100
0100
1000
0010
1000
0010
2000
0000
,
3001
0000
0000
0000
0101
0000
0000
0000
0010
1000
0100
0010
0001
0000
0001
0000
,
1000
1000
0100
0001
1000
0001
0100
0000
,
0010
0000
0000
0000
1000
0000
0000
0000
0001
1000
0010
0001
0100
0000
0100
0000
,
0010
0010
0100
1000
0100
1000
0200
0000
,
0000
0000
0000
0000
0310
0000
0000
0000
0100
0001
0010
0100
1000
0000
1000
0000
,
0100
0100
0001
0010
0100
0010
0001
0000
,
1000
0000
0000
0000
0010
0000
0000
0000
1000
0001
0100
0010
1000
0000
1000
0000
,
0001
0001
1000
0010
0100
0010
2020
0000
,
0000
0000
0000
0000
,
0000
3030
0000
0000
;
