#VERSION:0.83;
#TITLE:CASSANDRA;
#SUBTITLE:;
#ARTIST:亜熱帯マジ-SKA爆弾;
#TITLETRANSLIT:;
#SUBTITLETRANSLIT:;
#ARTISTTRANSLIT:ANETTAI MAJI-SKA BAKUDAN;
#GENRE:;
#ORIGIN:;
#CREDIT:;
#BANNER:CASSANDRA.png;
#BACKGROUND:CASSANDRA-bg.png;
#PREVIEWVID:;
#JACKET:;
#CDIMAGE:;
#DISCIMAGE:;
#LYRICSPATH:;
#CDTITLE:;
#MUSIC:CASSANDRA.ogg;
#OFFSET:2.455000;
#SAMPLESTART:11.302878;
#SAMPLELENGTH:10.000001;
#SELECTABLE:YES;
#BPMS:0.000=84.000,
7.500=68.000,
11.000=192.000,
24.000=190.000,
232.000=166.000,
234.000=152.000,
236.000=136.000;
#STOPS:;
#DELAYS:;
#WARPS:;
#TIMESIGNATURES:0.000=4=4;
#TICKCOUNTS:0.000=4;
#COMBOS:0.000=1;
#SPEEDS:0.000=1.000=0.000=0;
#SCROLLS:0.000=1.000;
#FAKES:;
#LABELS:0.000=Song Start;
#BGCHANGES:4.000=CASSANDRA.avi=1.000=0=0=0=StretchNoLoop====,
99999=-nosongbg-=1.000=0=0=0 // don't automatically add -songbackground-
;
#KEYSOUNDS:;
#ATTACKS:
;

//---------------dance-single - ----------------
#NOTEDATA:;
#CHARTNAME:;
#STEPSTYPE:dance-single;
#DESCRIPTION:;
#CHARTSTYLE:;
#DIFFICULTY:Hard;
#METER:13;
#RADARVALUES:0.547370,0.594815,0.550648,0.562120,0.080303,334.000000,286.000000,48.000000,49.000000,0.000000,0.000000,0.000000,0.000000,0.000000,0.547370,0.594815,0.550648,0.562120,0.080303,334.000000,286.000000,48.000000,49.000000,0.000000,0.000000,0.000000,0.000000,0.000000;
#CREDIT:;
#NOTES:
0000
0000
0000
0000
,
0022
0000
0000
0033
2200
0000
0000
3300
,
2002
0000
0000
3003
,
1000
1000
1000
1000
,
0001
0001
0001
0001
,
0100
0100
0010
0010
,
1100
0000
0000
0000
0101
0000
0000
0000
0010
0100
0010
0100
0010
0000
0100
0000
,
2000
0100
0000
0100
0000
0100
3000
0100
,
0020
0001
0000
0001
0030
0002
0000
1000
,
0203
0000
0000
0020
0000
0000
0300
0000
,
1000
0000
0100
0000
1000
1000
1030
0000
,
0020
0100
0000
0100
0000
0100
0030
0100
,
0002
1000
0000
1000
0003
0200
0000
1000
,
2000
0000
0300
0020
0000
0000
3000
0000
,
0001
0000
0100
0000
0001
0001
0031
0000
,
0001
0100
0010
0100
0001
1000
0001
0000
,
0100
1000
0100
0010
0100
0010
0001
0000
,
1000
0100
1000
0010
0100
0001
0100
0000
,
0001
1000
0010
0100
0001
0000
0101
0000
,
0010
0100
0001
1000
0010
0100
1000
0000
,
0010
0100
0001
0100
0100
0010
0001
0000
,
1000
0010
0100
0001
1000
0010
0100
0000
,
0001
0010
0001
0010
0010
0000
0101
0000
,
2200
0000
0300
0002
0000
0000
3003
0000
,
0022
0000
0003
0200
0000
0000
0330
0000
,
2200
0000
3000
0002
0000
0000
0303
0000
,
0202
0000
0300
0200
0000
0000
0300
2003
,
0000
0000
0100
0000
0010
0000
0002
0000
0000
3003
0000
0000
,
0101
0000
0101
0000
0101
0000
0100
0001
,
0010
1100
0101
0110
,
0100
1000
0100
0010
0100
0000
0001
1000
,
0010
0000
0100
1000
0010
0001
0100
0000
,
0011
0000
0011
0000
1001
0000
0100
1000
,
1010
0000
1010
0000
0100
0000
0001
0010
,
0001
0000
0001
0100
0000
0000
0100
1000
,
0010
0000
0010
0000
0010
0000
1000
0000
0001
0000
1000
0000
,
0022
0000
0000
0000
0033
0000
0010
0001
,
0100
0000
1000
0000
0100
0000
0010
0000
0000
0000
0001
0010
0001
0000
1000
0000
,
0000
0100
0000
0100
0001
0000
0010
0100
,
0010
1000
0100
0010
0001
0100
0000
0000
,
0220
0000
0000
0000
,
0300
0000
1000
0000
0000
1000
0000
0000
1000
0000
0000
1000
0030
0000
0001
0000
,
0100
0010
0200
0000
0000
0000
0000
0000
0300
0000
0001
0000
0100
0000
0010
0000
,
1000
0100
0000
1100
0000
0010
0011
0000
,
0100
0000
0100
0002
0000
0010
1003
0010
,
0001
0000
0100
2000
0000
0100
3010
0100
,
0001
0000
0100
0002
0000
0010
0103
0001
,
1000
0000
0100
0020
0000
0100
0031
0100
,
1001
0000
0010
0102
0000
0010
0103
1000
,
1010
0000
0010
0210
0000
0010
0301
0010
,
0000
0110
0000
0101
0000
1010
0000
1100
,
0000
0011
0000
0110
0000
2002
0000
3003
,
1010
0001
0000
0001
0000
0001
0000
0010
,
0101
1000
0000
1000
0000
0110
0000
0010
,
1100
0000
0010
0110
0000
0001
0100
1000
,
0100
0010
0001
0010
1000
0000
1001
0000
,
1010
0100
0000
0100
0000
0010
0000
0001
,
1010
0000
0100
0000
0000
0000
0010
0000
0000
0000
0100
0000
0001
0010
0001
0010
,
0000
0000
0202
0303
,
2020
3030
0220
0000
,
0000
0000
0000
0000
,
0330
0000
0000
0000
;

//---------------dance-single - ----------------
#NOTEDATA:;
#CHARTNAME:;
#STEPSTYPE:dance-single;
#DESCRIPTION:;
#CHARTSTYLE:;
#DIFFICULTY:Medium;
#METER:10;
#RADARVALUES:0.449040,0.524837,0.309740,0.321211,0.000000,274.000000,247.000000,27.000000,28.000000,0.000000,0.000000,0.000000,0.000000,0.000000,0.449040,0.524837,0.309740,0.321211,0.000000,274.000000,247.000000,27.000000,28.000000,0.000000,0.000000,0.000000,0.000000,0.000000;
#CREDIT:;
#NOTES:
0000
0000
0000
0000
,
0002
0000
0200
0003
,
0002
0000
0000
0303
,
1000
1000
0001
0000
,
0010
0010
0100
0000
,
1000
1000
0001
0001
,
0100
0000
0100
0000
0010
0010
0010
0000
,
0210
0010
0001
0310
,
1020
1000
0100
0130
,
2100
0010
0100
3001
,
0010
0100
1000
0100
,
0021
0100
1000
0130
,
1002
0010
0103
1000
,
0210
0001
0010
0310
,
0100
1000
0001
1001
,
0010
0000
0100
0000
0010
0100
0010
0000
,
0001
0000
0001
0000
0100
1000
0100
0000
,
1000
0000
1000
0010
0100
0000
0001
0100
,
0010
0001
1000
0000
1000
0000
0101
0000
,
1000
0100
1000
0000
0010
0001
0010
0000
,
0010
1000
0100
1000
0001
0000
1000
0000
,
1000
0100
1000
0010
,
0100
0010
0001
1000
0010
0000
1001
0000
,
1100
0000
0000
0101
0000
0000
0000
0000
,
0011
0000
0000
1001
0000
0000
0000
0000
,
1010
0000
0000
1001
0000
0000
0000
0000
,
0011
0000
0000
1010
0000
0000
0000
0220
,
0000
0000
0000
0330
,
0100
0000
1000
0000
0100
0000
0001
0100
,
1000
0100
1000
0010
,
1000
0010
0100
0010
0100
0000
1000
0001
,
0100
0000
1000
0100
1000
0010
1000
0000
,
0010
0000
0001
0000
0100
0000
1000
0100
,
0010
0000
0100
0000
1000
0000
0010
0001
,
0100
0000
0100
0010
0000
0010
1000
0000
,
0010
1010
0100
1100
,
0002
0000
0003
1000
,
0100
0000
0100
0010
0000
0010
0001
0000
,
0000
0100
0010
0000
1000
0000
0010
0001
,
0000
0010
1000
0010
0000
0010
0100
0000
,
2001
0001
0010
3001
,
0100
1000
0100
0001
,
0010
1000
0010
0001
,
0010
0100
0000
0110
0000
0010
0001
0000
,
1000
0000
1000
0001
0000
0000
0100
0000
,
0010
0000
0010
1000
0000
0000
0001
0000
,
0010
0000
0010
0001
0000
0000
0100
0000
,
1000
0000
1000
0010
0000
0000
1000
0000
,
0010
0000
0010
2000
0000
0010
3001
0000
,
0100
0000
0100
0002
0000
0010
0103
0000
,
0000
0200
0000
0302
0000
0023
0000
0032
,
0000
2003
0000
3200
0000
0002
0000
0303
,
1000
0000
0010
0000
1000
0100
1000
0000
,
0001
0000
1000
0000
0010
0100
0010
0000
,
0100
0001
0100
0000
0010
0100
0010
0000
,
1000
0010
0100
0010
1000
0000
1001
0000
,
0100
0010
0001
0000
0001
0100
1000
0000
,
1000
0100
1000
0001
0010
0000
0110
0000
,
0000
0000
2002
3003
,
0220
0330
2002
0000
,
0000
0000
0000
0000
,
3003
0000
0000
0000
;

//---------------dance-single - ----------------
#NOTEDATA:;
#CHARTNAME:;
#STEPSTYPE:dance-single;
#DESCRIPTION:;
#CHARTSTYLE:;
#DIFFICULTY:Easy;
#METER:6;
#RADARVALUES:0.285157,0.307158,0.080303,0.321211,0.000000,174.000000,167.000000,7.000000,28.000000,0.000000,0.000000,0.000000,0.000000,0.000000,0.285157,0.307158,0.080303,0.321211,0.000000,174.000000,167.000000,7.000000,28.000000,0.000000,0.000000,0.000000,0.000000,0.000000;
#CREDIT:;
#NOTES:
0000
0000
0000
0000
,
0010
0000
0100
0000
,
1001
0000
0000
0000
,
1000
0000
1000
0000
,
0001
0000
0001
0000
,
0010
0000
0010
0000
,
0100
0100
0100
0000
,
1000
0100
1000
0000
,
0010
1000
0010
0000
,
0100
0001
0100
0000
,
0010
0001
0010
0000
,
1000
0100
0001
0000
,
0001
0010
0100
0000
,
0100
0010
1000
0000
,
0010
0000
1001
0000
,
0001
0100
0010
0100
,
0010
0001
1000
0000
,
0100
0001
0010
0100
,
0010
0001
1000
0000
,
1000
0001
0010
0100
,
0001
0010
0100
0000
,
1000
0010
1000
0100
,
0001
0000
0110
0000
,
2000
0000
0200
3300
,
0020
0000
0200
0330
,
0002
0000
0020
0033
,
0200
0000
0002
0303
,
2002
0000
0000
3003
,
0010
0010
0010
0000
,
1000
0100
1000
0000
,
0010
1000
0100
0010
,
0001
0010
0100
0000
,
0001
1000
0001
0000
,
0010
0001
0010
0000
,
0001
0100
0001
0100
,
0001
0010
1000
0000
,
2000
0000
3010
0010
,
0020
0000
0130
0100
,
0200
0000
0301
0001
,
0002
0000
1003
0000
,
0100
0100
0010
0000
,
0001
0001
1000
0000
,
1000
0001
1000
0000
,
0010
1000
0010
0000
,
0200
0300
0010
0010
,
0002
0003
1000
1000
,
0020
0030
0100
0100
,
2000
3000
0001
0001
,
2002
3003
0010
0000
,
0220
0330
1000
0000
,
0000
0200
0302
0023
,
0032
0203
2000
3300
,
0001
0001
0010
0010
,
0100
0010
0001
0000
,
0100
1000
0100
0010
,
0100
0001
0010
0000
,
1000
1000
0001
0001
,
0010
0100
0010
0100
,
0000
0000
0001
0000
,
1000
0000
0110
0000
;

//---------------dance-single - ----------------
#NOTEDATA:;
#CHARTNAME:;
#STEPSTYPE:dance-single;
#DESCRIPTION:;
#CHARTSTYLE:;
#DIFFICULTY:Beginner;
#METER:4;
#RADARVALUES:0.178633,0.238901,0.114718,0.229437,0.000000,109.000000,99.000000,10.000000,20.000000,0.000000,0.000000,0.000000,0.000000,0.000000,0.178633,0.238901,0.114718,0.229437,0.000000,109.000000,99.000000,10.000000,20.000000,0.000000,0.000000,0.000000,0.000000,0.000000;
#CREDIT:;
#NOTES:
// measure 0
0000
0000
0000
0000
,  // measure 1
0001
0000
1000
0000
,  // measure 2
1001
0000
0000
0000
,  // measure 3
0100
0000
0000
0000
,  // measure 4
0010
0000
0000
0000
,  // measure 5
1000
0000
0001
0000
,  // measure 6
1000
1000
1000
0000
,  // measure 7
0020
0000
0030
0000
,  // measure 8
0100
0000
1000
0000
,  // measure 9
0200
0000
0300
0000
,  // measure 10
0001
0000
1000
0000
,  // measure 11
0002
0000
0003
0000
,  // measure 12
1000
0000
0010
0000
,  // measure 13
2000
0000
3000
0000
,  // measure 14
0200
0000
0300
0000
,  // measure 15
1000
1000
1000
0000
,  // measure 16
0001
0000
1000
0000
,  // measure 17
0010
0010
0010
0000
,  // measure 18
1000
0000
0010
0000
,  // measure 19
0100
0100
0100
0000
,  // measure 20
0010
0000
0100
0000
,  // measure 21
0001
0001
0001
0000
,  // measure 22
0010
0000
1001
0000
,  // measure 23
0200
0000
0300
0000
,  // measure 24
2000
0000
3000
0000
,  // measure 25
0020
0000
0030
0000
,  // measure 26
0002
0000
0003
0000
,  // measure 27
0220
0000
0330
0000
,  // measure 28
1000
0000
0001
0000
,  // measure 29
1000
0000
1000
0000
,  // measure 30
0100
0000
1000
0000
,  // measure 31
0100
0000
0100
0000
,  // measure 32
0010
0000
0100
0000
,  // measure 33
0010
0000
0010
0000
,  // measure 34
0001
0000
1000
0000
,  // measure 35
0001
0000
1001
0000
,  // measure 36
0020
0000
0030
0000
,  // measure 37
1000
0000
1000
0000
,  // measure 38
0001
0000
0100
0000
,  // measure 39
0010
0000
0010
0000
,  // measure 40
0200
0000
0000
0000
,  // measure 41
0300
0000
0001
0000
,  // measure 42
1000
0000
0000
0000
,  // measure 43
1001
0000
1001
0000
,  // measure 44
0200
0000
0300
0000
,  // measure 45
0020
0000
0030
0000
,  // measure 46
2000
0000
3000
0000
,  // measure 47
0002
0000
0003
0000
,  // measure 48
0010
0010
0010
0000
,  // measure 49
0100
0100
0100
0000
,  // measure 50
0000
0000
1001
0000
,  // measure 51
0110
0000
1001
0000
,  // measure 52
0200
0000
0300
0000
,  // measure 53
0010
0000
1000
0000
,  // measure 54
0002
0000
0003
0000
,  // measure 55
0010
0000
0010
0000
,  // measure 56
2000
0000
3000
0000
,  // measure 57
0001
0000
0100
0000
,  // measure 58
0000
0000
0010
0000
,  // measure 59
0100
0000
1001
0000
;
