#VERSION:0.83;
#TITLE:Break on Through;
#SUBTITLE:;
#ARTIST:REUNION;
#TITLETRANSLIT:;
#SUBTITLETRANSLIT:;
#ARTISTTRANSLIT:;
#GENRE:;
#ORIGIN:;
#CREDIT:;
#BANNER:Break on Through.png;
#BACKGROUND:Break on Through-bg.png;
#PREVIEWVID:;
#JACKET:Break on Through-jacket.png;
#CDIMAGE:;
#DISCIMAGE:;
#LYRICSPATH:;
#CDTITLE:;
#MUSIC:Break on Through.ogg;
#OFFSET:0.227899;
#SAMPLESTART:81.111000;
#SAMPLELENGTH:15.000000;
#SELECTABLE:YES;
#BPMS:0.000=168.000;
#STOPS:;
#DELAYS:;
#WARPS:;
#TIMESIGNATURES:0.000=4=4;
#TICKCOUNTS:0.000=4;
#COMBOS:0.000=1;
#SPEEDS:0.000=1.000=0.000=0;
#SCROLLS:0.000=1.000;
#FAKES:;
#LABELS:0.000=Song Start;
#BGCHANGES:4.000=Break on Through.avi=1.000=0=0=0=StretchNoLoop====,
308.000=Break on Through-bg.png=1.000=0=0=1=====,
99999=-nosongbg-=1.000=0=0=0 // don't automatically add -songbackground-
;
#KEYSOUNDS:;
#ATTACKS:
;

//---------------dance-single - ----------------
#NOTEDATA:;
#CHARTNAME:;
#STEPSTYPE:dance-single;
#DESCRIPTION:;
#CHARTSTYLE:;
#DIFFICULTY:Hard;
#METER:11;
#RADARVALUES:0.448679,0.507532,0.247954,0.421522,0.004133,380.000000,350.000000,30.000000,51.000000,0.000000,0.000000,0.000000,0.000000,0.000000,0.448679,0.507532,0.247954,0.421522,0.004133,380.000000,350.000000,30.000000,51.000000,0.000000,0.000000,0.000000,0.000000,0.000000;
#CREDIT:;
#NOTES:
0000
0000
0000
0000
,
0000
0000
0000
0000
,
0000
0000
0000
0000
,
0000
0000
0000
0000
,
0000
0000
0000
0000
,
0010
0000
0011
0000
0010
0100
1000
0100
,
0000
0001
1000
0000
0100
0010
0100
0000
,
1100
0101
0011
1010
,
1000
0220
0000
0330
,
0002
0000
1000
0000
1000
0000
0013
0200
,
0000
0010
0000
1000
0300
0001
0010
0001
,
0000
0100
0010
1000
0100
1000
0010
0200
,
0000
0002
0000
0000
0303
0000
0010
0000
,
2000
0000
0010
0000
3010
0001
0000
1200
,
0000
0010
0000
0001
0000
0300
0001
2000
,
0000
0000
3000
0000
0010
0100
0010
0001
,
0000
0010
0000
2002
0000
0000
3003
0000
,
0020
0000
0001
0000
0001
0000
0130
2000
,
0000
0100
0000
0001
3000
0100
0010
0001
,
0000
0010
0100
0010
1000
0100
0001
0020
,
0000
0200
0000
0000
0330
0000
0010
0000
,
0002
0000
0100
0000
0013
0100
0000
2010
,
0000
0001
0000
0001
0000
0000
3100
0020
,
0000
0000
0030
0000
0100
1000
0100
0001
,
0000
0010
0000
0110
0000
0001
0010
0001
,
0200
0000
0000
0300
0010
1000
0010
0100
,
0000
0001
0000
1000
0000
0010
0000
1000
,
0100
1000
0000
1020
0000
0000
0031
0100
,
0001
0001
0100
1000
0000
0011
0010
0000
,
2000
0000
0000
3000
0100
0001
0100
0010
,
0000
1000
0000
0001
0000
0020
0000
0000
,
0130
0000
1000
0000
1000
0001
0100
0001
,
0000
0010
1000
0010
0000
0001
1001
0000
,
0200
0000
0001
0300
0001
0010
0100
1000
,
0000
0010
0000
0100
0000
0020
0000
0000
,
0130
0001
0000
0210
0000
1000
1300
0000
,
0010
0100
0010
0001
0000
1100
0000
0010
,
0020
0000
1000
0030
0100
0001
0010
0100
,
0000
1000
0000
0010
0000
0200
0000
0000
,
0310
0001
0010
0000
1000
0001
1000
0100
,
0000
0010
1000
0001
0000
0100
0100
0000
,
0002
0000
1000
0000
1003
0010
0001
0010
,
0000
0100
0000
0010
0000
0102
0000
0000
,
0013
0000
1000
0100
0000
0010
0000
0100
,
0000
1000
0001
1000
0000
0010
0010
0100
,
2000
0000
0100
0000
3100
0010
0001
0010
,
0100
1000
0000
0001
0000
0010
1000
0020
,
0000
0100
0001
0130
,
1000
0010
0000
1002
0000
0000
0013
0010
,
0200
0000
1000
0000
1300
0001
0100
0001
,
0000
0010
0000
1000
0000
0210
0000
0000
,
1300
0000
0010
0000
0010
1000
0100
2000
,
0000
0010
0000
0001
3000
0001
0010
0200
,
0000
0000
0310
0011
0000
1000
0001
2000
,
0000
0000
3010
0110
0000
1000
0001
0200
,
0000
0000
0010
0000
0310
0001
1000
0010
,
0001
2020
0000
3030
,
0002
0000
1000
0000
0010
0000
1003
0100
,
0000
0010
0001
0010
0000
1000
0100
0001
,
0000
0010
0001
0100
1000
0010
0100
0001
,
0000
0021
0000
0000
0100
0000
0130
0000
,
2000
0000
0010
0000
3001
0010
0000
1010
,
0000
1000
0000
0200
0000
0010
0301
0020
,
0000
0000
1000
0000
1030
0001
0100
0010
,
0000
0101
0000
1002
0000
1000
0013
0000
,
0010
1000
0100
0000
1000
0001
0100
0001
,
0000
0010
0001
0000
0100
1000
0010
0000
,
0100
0010
0100
0010
0001
0100
0010
0100
,
0000
1000
0100
0001
0000
0001
0010
0000
,
0100
0000
0110
0000
1000
0000
0100
1000
,
0000
0100
0010
0001
0000
0001
0010
0000
,
0001
0000
0100
0000
0001
0000
0010
0100
,
0000
1000
0200
0000
0310
1000
0001
2000
,
0000
0001
3001
0011
,
0101
0000
0100
0000
0010
1000
0100
0020
,
0000
0100
0130
1010
,
0011
0000
1000
0000
1000
0010
0100
0002
,
0000
0000
0000
0000
0000
0000
0000
0000
0000
0000
0000
0200
0000
0000
0000
0000
,
0000
0000
0000
0000
,
0000
0000
0000
0000
,
0000
0000
0000
0000
,
0000
0000
0000
0000
0000
0000
0000
0303
;

//---------------dance-single - ----------------
#NOTEDATA:;
#CHARTNAME:;
#STEPSTYPE:dance-single;
#DESCRIPTION:;
#CHARTSTYLE:;
#DIFFICULTY:Medium;
#METER:7;
#RADARVALUES:0.356582,0.423408,0.140507,0.388462,0.000000,302.000000,285.000000,17.000000,47.000000,0.000000,0.000000,0.000000,0.000000,0.000000,0.356582,0.423408,0.140507,0.388462,0.000000,302.000000,285.000000,17.000000,47.000000,0.000000,0.000000,0.000000,0.000000,0.000000;
#CREDIT:;
#NOTES:
0000
0000
0000
0000
,
0000
0000
0000
0000
,
0000
0000
0000
0000
,
0000
0000
0000
0000
,
0000
0000
0000
0000
,
0001
0000
0100
0000
0100
0000
0001
0010
,
0000
0001
0010
0000
1000
0000
0010
0000
,
0200
2300
3020
0032
,
1000
2000
0000
3003
,
0020
0000
0000
0000
1030
0000
0010
0200
,
0000
0000
0001
0000
1300
0000
0001
0010
,
0000
0000
0100
0000
1000
0000
0010
1000
,
0000
0100
1000
0000
0010
0000
0010
0000
,
0002
0000
0000
0000
0103
1000
0000
1010
,
0000
0000
0001
0000
0100
0000
0001
0020
,
0000
0000
1030
0000
0100
0000
0001
2000
,
0000
0010
0100
3100
,
0002
0000
0000
0000
0103
0000
1000
0200
,
0000
0000
0010
0000
0301
0000
0001
1000
,
0000
0000
0001
0000
0100
0000
1000
0010
,
0000
0100
0010
0000
0001
0000
1000
0000
,
0020
0000
0000
0000
0031
0100
0000
1001
,
0000
0000
0100
0000
0001
0000
0100
2000
,
0000
0000
3010
0000
0100
0000
0010
0200
,
0000
1000
0001
1300
,
0220
0000
0330
0000
0010
0000
0010
1000
,
0000
0100
0001
0010
,
1000
0000
0100
0001
0000
0100
1000
0000
,
0010
0100
0000
0010
0000
0010
0001
0000
,
2000
0000
3000
0000
0001
0000
0100
0001
,
0000
0010
0010
1000
,
0200
0300
1000
0001
,
1000
0010
1010
0100
,
2002
0000
3003
0000
0100
0000
1000
0100
,
0000
0010
1000
1000
,
0010
0000
0100
1000
0000
0001
0100
0000
,
0001
1000
0000
0001
0000
0001
1000
0000
,
0020
0000
0030
0000
0001
0000
0010
0001
,
0000
1000
1000
0100
,
0002
0003
0100
0001
,
0010
0100
1100
1000
,
0020
0030
1000
0100
,
0001
0010
0100
1000
,
0002
0010
0013
1000
,
0100
0000
1000
0100
0000
0001
0100
0000
,
2000
0100
0000
3100
,
1000
0000
0001
1000
0000
1000
0100
0000
,
0002
0003
0010
1000
,
0100
1000
1010
0001
,
0200
0000
0300
0000
0100
0000
0010
0100
,
0000
0010
0001
0000
0100
0000
0100
0000
,
0002
0000
0003
0000
1000
0000
0001
0200
,
0000
0000
0010
0000
0310
0000
0001
2000
,
0000
0000
0010
0000
3001
0000
1000
0020
,
0000
1000
0130
0010
,
0100
0101
0001
0011
,
1100
2002
0000
3003
,
0100
0000
0010
0000
0010
0000
1000
0010
,
0000
1000
0100
0000
0001
0000
1000
0000
,
0010
0000
0001
0000
0010
0000
0100
0020
,
0000
0001
1000
1030
,
0001
0000
0100
0000
1000
0000
0100
0001
,
0000
1000
1010
0010
,
0200
0000
0300
0000
1000
0000
0010
0001
,
0000
0001
0100
1001
,
2000
0000
0010
0000
3001
0000
0010
1000
,
0000
0100
1000
0000
0001
0000
0010
0000
,
0100
0000
1000
0000
0010
0000
1000
0100
,
0000
0010
0000
0001
1000
0000
0011
0000
,
0002
0000
0100
0000
0010
0000
0103
1000
,
0000
1000
0001
0000
0010
0100
0010
0000
,
1000
0100
0010
0100
,
0101
0000
0001
0000
0010
1000
0010
0000
,
0200
0301
0100
1010
,
0002
0013
0100
0011
,
2000
3010
0020
0130
,
0200
0302
0023
2030
,
0020
0000
0000
0000
,
0000
0000
0000
0000
0000
0000
0000
0000
0000
0000
0000
0000
0000
3030
0000
0000
;

//---------------dance-single - ----------------
#NOTEDATA:;
#CHARTNAME:;
#STEPSTYPE:dance-single;
#DESCRIPTION:;
#CHARTSTYLE:;
#DIFFICULTY:Easy;
#METER:4;
#RADARVALUES:0.251497,0.286387,0.074386,0.256220,0.000000,213.000000,204.000000,9.000000,31.000000,0.000000,0.000000,0.000000,0.000000,0.000000,0.251497,0.286387,0.074386,0.256220,0.000000,213.000000,204.000000,9.000000,31.000000,0.000000,0.000000,0.000000,0.000000,0.000000;
#CREDIT:;
#NOTES:
0000
0000
0000
0000
,
0000
0000
0000
0000
,
0000
0000
0000
0000
,
0000
0000
0000
0000
,
0000
0000
0000
0000
,
0010
0000
1000
0100
,
1000
0001
0100
0000
,
0010
0000
1000
0000
,
0220
0000
0000
0330
,
0001
0000
1000
0010
,
0010
0000
0100
0001
,
0100
0010
1000
0000
,
0010
0100
0010
0000
,
0001
0000
1000
1000
,
0010
0100
0001
0000
,
0010
0000
0001
0100
,
1000
0010
0010
0000
,
0200
0300
0010
1000
,
0002
0003
1000
0010
,
2000
3000
0001
0010
,
0100
0001
0100
0000
,
0020
0030
1000
0100
,
0010
0100
0001
0000
,
0200
0300
0010
0100
,
1000
1000
0010
0000
,
2002
3003
0100
0000
,
0100
0010
0001
0000
,
0010
1000
0001
0000
,
1000
0100
0100
0000
,
0220
0330
0010
0000
,
0010
1000
0100
0000
,
0001
0100
0010
1000
,
0010
0000
0001
0000
,
0200
0300
1000
0010
,
0001
0100
1000
0000
,
0100
0010
0100
0000
,
1000
1000
0001
0000
,
0020
0030
0100
0010
,
1000
0100
0001
0000
,
0002
0003
0010
0000
,
0100
1000
0010
1000
,
0200
0300
0001
0000
,
0100
1000
0001
0000
,
0020
0030
0200
0300
,
1000
0001
2000
3000
,
0010
0000
1000
0001
,
0001
0100
0010
0000
,
0001
0000
0010
0000
,
1000
0100
1000
0000
,
0200
0300
0001
0010
,
1000
0001
0001
0000
,
0100
0000
0010
0100
,
0010
1000
0100
0000
,
0002
0003
1000
0000
,
2000
3000
0100
0000
,
0010
1000
0100
0001
,
0020
0000
0000
0030
,
2002
3003
0100
1000
,
0010
0000
0100
0001
,
0001
1000
0010
0000
,
0010
1000
0100
0000
,
0220
0330
1000
0010
,
0100
0001
0001
0000
,
0010
0000
0001
0100
,
1000
0100
0100
0000
,
2000
3000
0010
0100
,
0200
0300
0001
0010
,
0020
0030
1000
0001
,
1000
0001
0002
0003
,
0200
0300
1000
0010
,
0001
0100
0001
0000
,
0010
0100
1000
0100
,
0000
0010
0010
0000
,
1000
0000
1001
0000
,
0100
0000
0110
0000
,
0010
1000
0100
0001
,
1000
0000
0110
0000
,
1001
0000
0000
0000
;

//---------------dance-single - ----------------
#NOTEDATA:;
#CHARTNAME:;
#STEPSTYPE:dance-single;
#DESCRIPTION:;
#CHARTSTYLE:;
#DIFFICULTY:Beginner;
#METER:2;
#RADARVALUES:0.131062,0.159104,0.057856,0.140507,0.000000,111.000000,104.000000,7.000000,17.000000,0.000000,0.000000,0.000000,0.000000,0.000000,0.131062,0.159104,0.057856,0.140507,0.000000,111.000000,104.000000,7.000000,17.000000,0.000000,0.000000,0.000000,0.000000,0.000000;
#CREDIT:;
#NOTES:
// measure 0
0000
0000
0000
0000
,  // measure 1
0000
0000
0000
0000
,  // measure 2
0000
0000
0000
0000
,  // measure 3
0000
0000
0000
0000
,  // measure 4
0000
0000
0000
0000
,  // measure 5
1000
0000
0000
0000
,  // measure 6
0001
0000
0000
0000
,  // measure 7
0100
0000
0100
0000
,  // measure 8
0200
0000
0300
0000
,  // measure 9
0010
0000
0000
1000
,  // measure 10
1000
0000
0000
0001
,  // measure 11
0001
0000
0100
0000
,  // measure 12
0010
0000
0000
0000
,  // measure 13
0100
0000
0000
1000
,  // measure 14
1000
0000
0001
0000
,  // measure 15
0010
0000
0000
0000
,  // measure 16
0100
0000
0000
0000
,  // measure 17
0001
0000
0000
0010
,  // measure 18
0010
0000
0000
0100
,  // measure 19
0100
0000
1000
0000
,  // measure 20
0100
0000
0000
0000
,  // measure 21
1000
0000
0000
0001
,  // measure 22
0001
0000
0010
0000
,  // measure 23
1000
0000
0000
0000
,  // measure 24
0110
0000
0000
0000
,  // measure 25
2000
0000
3000
0000
,  // measure 26
0001
0000
0001
0000
,  // measure 27
0002
0000
0003
0000
,  // measure 28
0010
0000
0010
0000
,  // measure 29
0020
0000
0030
0000
,  // measure 30
0100
0000
0100
0000
,  // measure 31
0200
0000
0300
0000
,  // measure 32
2000
0000
3000
0000
,  // measure 33
0001
0000
0000
0000
,  // measure 34
0010
0000
0001
0000
,  // measure 35
0010
0000
0000
0000
,  // measure 36
0100
0000
0010
0000
,  // measure 37
0100
0000
0000
0000
,  // measure 38
1000
0000
0001
0000
,  // measure 39
1000
0000
0000
0000
,  // measure 40
1001
0000
0000
0000
,  // measure 41
0020
0000
0030
0000
,  // measure 42
0100
0000
1000
0000
,  // measure 43
0100
0000
0000
0000
,  // measure 44
0100
0000
0000
0000
,  // measure 45
0002
0000
0003
0000
,  // measure 46
1000
0000
0010
0000
,  // measure 47
1000
0000
0000
0000
,  // measure 48
0110
0000
0000
0000
,  // measure 49
0100
0000
0001
0000
,  // measure 50
0100
0000
0000
0000
,  // measure 51
1000
0000
0001
0000
,  // measure 52
1000
0000
0000
0000
,  // measure 53
0020
0000
0030
0000
,  // measure 54
0200
0000
0300
0000
,  // measure 55
2000
0000
3000
0000
,  // measure 56
2002
0000
3003
0000
,  // measure 57
0010
0000
0000
0100
,  // measure 58
0100
0000
0000
1000
,  // measure 59
1000
0000
0100
0000
,  // measure 60
1000
0000
0000
0000
,  // measure 61
0001
0000
0000
0010
,  // measure 62
0010
0000
0001
0000
,  // measure 63
1000
0000
0000
0000
,  // measure 64
1001
0000
0000
0000
,  // measure 65
0100
0000
0000
0010
,  // measure 66
0010
0000
0000
0001
,  // measure 67
0001
0000
1000
0000
,  // measure 68
0001
0000
0000
0000
,  // measure 69
0010
0000
0000
1000
,  // measure 70
1000
0000
0001
0000
,  // measure 71
0100
0000
0000
0000
,  // measure 72
0110
0000
0000
0000
,  // measure 73
2000
0000
3000
0000
,  // measure 74
0002
0000
0003
0000
,  // measure 75
0200
0000
0300
0000
,  // measure 76
0020
0000
0030
0000
,  // measure 77
1001
0000
0000
0000
;
