#VERSION:0.83;
#TITLE:Boku no hikouki;
#SUBTITLE:;
#ARTIST:Yayoi Miyanaga;
#TITLETRANSLIT:;
#SUBTITLETRANSLIT:;
#ARTISTTRANSLIT:;
#GENRE:;
#ORIGIN:;
#CREDIT:;
#BANNER:Boku no hikouki.png;
#BACKGROUND:Boku no hikouki-bg.png;
#PREVIEWVID:;
#JACKET:;
#CDIMAGE:;
#DISCIMAGE:;
#LYRICSPATH:;
#CDTITLE:;
#MUSIC:Boku no hikouki.ogg;
#OFFSET:-0.294443;
#SAMPLESTART:68.259003;
#SAMPLELENGTH:13.521126;
#SELECTABLE:YES;
#BPMS:0.000=142.000,
232.000=138.000,
235.500=124.000,
237.000=116.000,
238.000=108.000,
239.000=42.000,
240.000=90.000;
#STOPS:;
#DELAYS:;
#WARPS:;
#TIMESIGNATURES:0.000=4=4;
#TICKCOUNTS:0.000=4;
#COMBOS:0.000=1;
#SPEEDS:0.000=1.000=0.000=0;
#SCROLLS:0.000=1.000;
#FAKES:;
#LABELS:0.000=Song Start;
#BGCHANGES:;
#KEYSOUNDS:;
#ATTACKS:
;

//---------------dance-single - ----------------
#NOTEDATA:;
#CHARTNAME:;
#STEPSTYPE:dance-single;
#DESCRIPTION:;
#CHARTSTYLE:;
#DIFFICULTY:Hard;
#METER:12;
#RADARVALUES:0.390267,0.443361,0.163368,0.453799,0.058994,301.000000,283.000000,18.000000,50.000000,0.000000,0.000000,0.000000,0.000000,0.000000,0.390267,0.443361,0.163368,0.453799,0.058994,301.000000,283.000000,18.000000,50.000000,0.000000,0.000000,0.000000,0.000000,0.000000;
#CREDIT:;
#NOTES:
0000
0000
0000
0000
,
0000
0000
0000
0000
,
0000
0000
0000
0000
,
0000
0000
0000
0000
,
2000
0000
3010
0001
0100
0100
0000
0102
,
0000
0010
1003
0010
0000
0100
0001
0020
,
0000
1000
1000
0000
0031
0100
1000
0200
,
0000
0010
0010
0000
0301
0000
1001
0000
,
0100
0000
0010
0000
0100
1000
0000
0001
,
0000
1000
0010
0000
0100
0001
0100
0000
,
1000
0000
0010
0000
0001
0000
0010
0001
,
0000
0010
1000
0000
0100
0100
0001
0000
,
1000
0100
0001
0000
0010
0001
0010
1000
,
0000
1000
0100
0010
0000
0010
0100
0000
,
1000
0000
0001
0000
1000
0100
1000
0010
,
0000
0100
0010
0100
1000
0000
1100
0000
,
0001
0000
0020
0000
1030
2000
0000
0000
,
3001
0000
0100
0020
0000
1000
0000
0030
,
0002
0000
0003
0100
0200
0000
0010
0000
,
0310
0000
0001
1000
0000
1000
1001
0000
,
0010
0000
2000
0000
3001
0002
0000
0000
,
0103
0000
0010
0200
0000
0001
0000
0300
,
2000
0000
0000
0020
0000
0000
3030
0000
,
2000
3200
0302
0023
,
0230
0000
0000
1000
0300
0010
1000
0010
,
0010
0000
0100
0001
0000
0001
0010
0100
,
2000
0000
0001
0001
3000
0010
0001
0010
,
0100
0000
1000
0001
0000
0001
0010
1000
,
2000
0000
0100
0010
0000
0010
3001
0000
,
0100
0000
0001
0010
0000
1010
0000
0012
,
0000
0000
1003
0100
0100
0000
1000
0000
,
0020
0000
1000
0100
0030
1000
1000
0001
,
0200
0000
0000
0001
0002
0000
0303
0000
,
0110
0000
0000
1000
1010
0010
0100
0010
,
2000
0000
0000
0010
0010
3000
0002
0000
,
2003
0000
0010
0001
3000
0100
0001
0100
,
0020
0000
0000
1000
1030
0000
0110
0000
,
2002
0000
0000
0000
3003
0010
1000
0010
,
0100
0000
1000
0001
0000
0010
0001
0100
,
2000
0000
0000
0000
3000
0000
0100
0001
0200
0000
0000
0000
0000
0000
0000
0000
,
0300
0000
0000
0000
0010
0000
1000
0010
0000
0000
0100
0000
0001
0000
0010
0000
,
0000
0000
0000
0000
1000
0000
0001
1000
0000
0000
0010
0000
1000
0000
0100
0000
,
0000
0011
0001
1001
,
0020
0000
0000
0100
0100
0000
0000
0000
,
0030
0000
0000
0000
0100
1000
0100
0001
0000
0000
0001
0000
0010
0000
1000
0000
,
0001
0000
0000
0100
0000
0000
0110
0000
0000
0000
1000
0000
0100
0000
0001
0000
,
0200
0000
0010
0001
0300
1000
0100
1000
,
0002
0000
0000
0000
0003
0000
0010
0100
0020
0000
1000
0000
1000
0000
0000
0000
,
0030
0000
0000
0000
0001
0000
0100
1000
0000
0000
0100
0000
0010
0000
0001
0000
,
0000
0000
0000
0000
1000
0000
0010
0100
0000
0000
0010
0000
0001
0000
1000
0000
,
0000
1010
1100
0101
,
0220
0000
0030
1000
1000
0300
0001
0010
,
2000
0000
0000
0000
3000
0000
0010
0000
0001
0000
0000
1000
0000
0000
0100
0000
,
0020
0032
0203
2300
,
3010
0000
0000
0000
0001
0000
0022
0000
0000
0000
0000
0000
0033
0000
1000
0010
,
2000
0000
0000
3100
0002
0000
0000
0103
,
0200
0000
0010
0001
1000
1000
0300
0010
,
0000
1000
0100
0001
0000
0010
1000
0001
,
0000
1000
1000
0000
0010
0100
0010
0001
,
0000
0010
0010
0000
0100
0010
1000
0000
,
0001
1000
0020
0000
0000
0000
0000
0000
0000
0000
0000
0000
0000
0000
0000
0000
0000
0000
0000
0000
0000
0000
0000
0000
0000
0000
0000
0000
0000
0000
0000
0000
,
0000
0030
0000
0000
0000
0000
0000
0000
0000
0000
0000
0000
0000
0000
0000
0000
;

//---------------dance-single - ----------------
#NOTEDATA:;
#CHARTNAME:;
#STEPSTYPE:dance-single;
#DESCRIPTION:;
#CHARTSTYLE:;
#DIFFICULTY:Medium;
#METER:8;
#RADARVALUES:0.338404,0.360231,0.127064,0.299507,0.000000,261.000000,247.000000,14.000000,33.000000,0.000000,0.000000,0.000000,0.000000,0.000000,0.338404,0.360231,0.127064,0.299507,0.000000,261.000000,247.000000,14.000000,33.000000,0.000000,0.000000,0.000000,0.000000,0.000000;
#CREDIT:;
#NOTES:
0000
0000
0000
0000
,
0000
0000
0000
0000
,
0000
0000
0000
0000
,
0000
0000
0000
0000
,
0010
0000
1000
0000
0100
1000
0000
0010
,
0000
0000
0100
0000
0010
0001
0010
0000
,
0100
0100
0010
0100
,
0020
0030
2002
3003
,
1000
0000
0010
0000
0100
0000
0001
0100
,
0000
0010
0100
0000
1000
0100
0100
0000
,
0001
0000
1000
0010
0100
0000
0010
0100
,
0000
1000
0001
0000
0100
1000
1000
0000
,
0010
0000
0100
1000
0000
0010
0001
0010
,
0000
0100
0010
0000
0001
1000
0100
0000
,
0010
0000
0100
0000
1000
0100
0000
0010
,
0000
1000
0010
0000
1000
0000
0220
0000
,
0330
0000
1000
0000
0000
0001
0000
0000
,
1000
0000
0100
1000
0000
0002
0000
0000
,
0010
0000
0003
0100
0100
0000
0000
0000
,
0020
0000
0000
1000
0000
0000
0100
0000
,
0030
0000
0001
0000
0000
0010
0000
0000
,
0001
0000
0100
1000
0000
0020
0000
0000
,
0100
0000
0030
1000
1000
0000
0000
0000
,
0001
0010
0100
1000
,
0202
0000
0303
0000
0100
0010
0100
0000
,
1000
0000
0010
1000
0000
0001
1000
0000
,
0100
0000
0100
0000
0010
0000
0100
1000
,
0001
0000
0010
0001
0000
0100
0010
0000
,
1000
0000
0000
0110
0000
1000
0001
0000
,
0100
0000
0010
1000
0000
0100
0100
0000
,
0010
0000
0010
0000
1000
0010
1000
0000
,
0100
0000
0001
0100
0000
0001
1000
0000
,
0110
0000
0000
0001
0001
0000
0010
0000
,
1010
0000
0000
1000
1000
0000
0001
0000
,
0010
1000
0100
0010
,
0001
0000
0100
0010
0000
0100
0001
0000
,
2000
0010
3010
0100
,
0020
0000
1000
0000
1030
0001
0100
0000
,
0010
0000
0100
0000
0010
0001
0010
0000
,
0002
0100
0103
1001
,
0200
0010
1000
1300
,
0002
1000
0010
0013
,
2000
3001
0200
0301
,
0020
0100
0130
1001
,
0100
0000
1000
0000
0100
1000
0010
0000
,
0200
0302
2003
3001
,
0100
0000
0010
0000
0100
0000
0001
1000
,
0010
1000
1000
0101
,
0020
0000
1000
0000
1030
0100
0010
0000
,
0200
0000
0001
0000
0301
1000
0100
0000
,
0020
1030
0200
1300
,
1002
0000
0010
0000
0013
0000
1000
0100
,
1000
0010
0100
0010
,
0001
1000
0101
0100
,
0020
0000
0031
0100
0200
0000
1300
0010
,
1000
0120
0130
2200
,
3300
0000
0010
1000
0010
1000
0000
0001
,
0000
0100
0010
0100
0000
1000
0001
1000
,
0000
0100
0100
0000
0001
0100
0001
0010
,
0000
1000
1000
0000
0100
0000
0001
0000
,
2002
0000
0000
0000
,
0000
3003
0000
0000
0000
0000
0000
0000
0000
0000
0000
0000
0000
0000
0000
0000
;

//---------------dance-single - ----------------
#NOTEDATA:;
#CHARTNAME:;
#STEPSTYPE:dance-single;
#DESCRIPTION:;
#CHARTSTYLE:;
#DIFFICULTY:Easy;
#METER:4;
#RADARVALUES:0.219120,0.217823,0.081684,0.163368,0.000000,169.000000,160.000000,9.000000,18.000000,0.000000,0.000000,0.000000,0.000000,0.000000,0.219120,0.217823,0.081684,0.163368,0.000000,169.000000,160.000000,9.000000,18.000000,0.000000,0.000000,0.000000,0.000000,0.000000;
#CREDIT:;
#NOTES:
0000
0000
0000
0000
,
0000
0000
0000
0000
,
0000
0000
0000
0000
,
0000
0000
0000
0000
,
1000
0000
0010
0000
,
0100
0001
0100
0000
,
0010
0010
0100
1000
,
0100
0000
1001
0000
,
0002
0000
0010
0003
,
1000
0100
1000
0000
,
0100
0010
0100
0001
,
1000
0000
0001
0000
,
0200
0000
0001
0300
,
0010
1000
0010
0000
,
0001
0010
0001
0100
,
1000
0000
0100
0000
,
0110
0000
0100
0000
,
0010
0001
0010
0000
,
1000
1000
0001
0000
,
0100
0000
0110
0000
,
1000
0000
0001
0000
,
0010
0100
0010
0000
,
0001
0001
1000
0000
,
0001
0010
0100
0010
,
2000
0000
0010
3000
,
0100
0001
0100
0000
,
1000
0001
1000
0010
,
1000
0000
1001
0000
,
0200
0300
0010
0001
,
0010
0000
1000
1000
,
0001
0000
0010
0001
,
0100
0000
0110
0000
,
0200
0000
0301
0010
,
2000
0000
3001
0001
,
0020
0000
0130
0001
,
0100
0010
1000
0000
,
0001
0001
0010
0000
,
0100
0100
1000
0000
,
0010
0001
0100
1000
,
0100
0000
1001
0000
,
0002
0003
0100
0010
,
0200
0300
1000
0001
,
2000
3000
0020
0030
,
0100
0100
2000
3000
,
0010
0100
0010
0100
,
0001
0010
1000
0000
,
0001
0000
1000
0100
,
0010
0000
1001
0000
,
0010
0100
0010
0000
,
0001
0010
0001
0000
,
1000
0001
0100
0001
,
0020
0030
0100
0001
,
2000
3000
1000
0100
,
0001
0100
0010
0000
,
0001
1000
0001
0001
,
0010
0000
0110
0000
,
0020
0030
0100
1000
,
0200
0300
1000
0001
,
1000
0000
0010
0000
,
0200
0300
0002
0003
,
0110
0000
0000
0000
;

//---------------dance-single - ----------------
#NOTEDATA:;
#CHARTNAME:;
#STEPSTYPE:dance-single;
#DESCRIPTION:;
#CHARTSTYLE:;
#DIFFICULTY:Beginner;
#METER:2;
#RADARVALUES:0.101132,0.163368,0.018152,0.045380,0.000000,78.000000,76.000000,2.000000,5.000000,0.000000,0.000000,0.000000,0.000000,0.000000,0.101132,0.163368,0.018152,0.045380,0.000000,78.000000,76.000000,2.000000,5.000000,0.000000,0.000000,0.000000,0.000000,0.000000;
#CREDIT:;
#NOTES:
// measure 0
0000
0000
0000
0000
,  // measure 1
0000
0000
0000
0000
,  // measure 2
0000
0000
0000
0000
,  // measure 3
0000
0000
0000
0000
,  // measure 4
0000
0000
0000
0000
,  // measure 5
0000
0000
0000
0000
,  // measure 6
0000
0000
0000
0000
,  // measure 7
0000
0000
0000
0000
,  // measure 8
0001
0000
0000
0000
,  // measure 9
0001
0000
0000
0000
,  // measure 10
1000
0000
0000
0000
,  // measure 11
1000
0000
0000
0000
,  // measure 12
0010
0000
0000
0000
,  // measure 13
0010
0000
0000
0000
,  // measure 14
0100
0000
0000
0000
,  // measure 15
0100
0000
0000
0000
,  // measure 16
0010
0000
0000
0000
,  // measure 17
1000
0000
1000
0000
,  // measure 18
1000
0000
0000
0000
,  // measure 19
0001
0000
0001
0000
,  // measure 20
0001
0000
0000
0000
,  // measure 21
0100
0000
0100
0000
,  // measure 22
0100
0000
0000
0000
,  // measure 23
0010
0000
0010
0000
,  // measure 24
0020
0000
0030
0000
,  // measure 25
0001
0000
0001
0000
,  // measure 26
0002
0000
0003
0000
,  // measure 27
0100
0000
0100
0000
,  // measure 28
0200
0000
0300
0000
,  // measure 29
1000
0000
1000
0000
,  // measure 30
2000
0000
3000
0000
,  // measure 31
0100
0000
0100
0000
,  // measure 32
0100
0000
0000
0000
,  // measure 33
0010
0000
0000
0000
,  // measure 34
1000
0000
0000
0000
,  // measure 35
0001
0000
0000
0000
,  // measure 36
0001
0000
0000
0000
,  // measure 37
1000
0000
0000
0000
,  // measure 38
0010
0000
0000
0000
,  // measure 39
0100
0000
0000
0000
,  // measure 40
1001
0000
0001
0000
,  // measure 41
1000
0000
1000
0000
,  // measure 42
0010
0000
0100
0000
,  // measure 43
0010
0000
0100
0000
,  // measure 44
1000
0000
1000
0000
,  // measure 45
0010
0000
0010
0000
,  // measure 46
0100
0000
0100
0000
,  // measure 47
0001
0000
0001
0000
,  // measure 48
0110
0000
0100
0000
,  // measure 49
0010
0000
0010
0000
,  // measure 50
1000
0000
0001
0000
,  // measure 51
1000
0000
0001
0000
,  // measure 52
0100
0000
0100
0000
,  // measure 53
0001
0000
0001
0000
,  // measure 54
0010
0000
0010
0000
,  // measure 55
1000
0000
1000
0000
,  // measure 56
0002
0000
0000
0000
,  // measure 57
0003
0000
0000
0000
,  // measure 58
0100
0000
0000
0000
,  // measure 59
0100
0000
0000
0000
,  // measure 60
0100
0000
0000
0000
;
