#VERSION:0.83;
#TITLE:Boku mo watashi mo movie star;
#SUBTITLE:;
#ARTIST:Ucchies Z;
#TITLETRANSLIT:;
#SUBTITLETRANSLIT:;
#ARTISTTRANSLIT:;
#GENRE:;
#ORIGIN:;
#CREDIT:;
#BANNER:Boku mo watashi mo movie star.png;
#BACKGROUND:Boku mo watashi mo movie star-bg.png;
#PREVIEWVID:;
#JACKET:;
#CDIMAGE:;
#DISCIMAGE:;
#LYRICSPATH:;
#CDTITLE:;
#MUSIC:Boku mo watashi mo movie star.ogg;
#OFFSET:-0.380586;
#SAMPLESTART:60.599998;
#SAMPLELENGTH:15.000000;
#SELECTABLE:YES;
#BPMS:0.000=150.000;
#STOPS:86.500=0.400,
237.500=0.400;
#DELAYS:;
#WARPS:;
#TIMESIGNATURES:0.000=4=4;
#TICKCOUNTS:0.000=4;
#COMBOS:0.000=1;
#SPEEDS:0.000=1.000=0.000=0;
#SCROLLS:0.000=1.000;
#FAKES:;
#LABELS:0.000=Song Start;
#BGCHANGES:;
#KEYSOUNDS:;
#ATTACKS:
;

//---------------dance-single - ----------------
#NOTEDATA:;
#CHARTNAME:;
#STEPSTYPE:dance-single;
#DESCRIPTION:;
#CHARTSTYLE:;
#DIFFICULTY:Hard;
#METER:12;
#RADARVALUES:0.438088,0.507962,0.327335,0.602986,0.000000,356.000000,318.000000,38.000000,70.000000,0.000000,0.000000,0.000000,0.000000,0.000000,0.438088,0.507962,0.327335,0.602986,0.000000,356.000000,318.000000,38.000000,70.000000,0.000000,0.000000,0.000000,0.000000,0.000000;
#CREDIT:;
#NOTES:
0000
0000
0000
0000
,
0000
0000
0000
0000
,
0000
0000
0000
0000
,
0000
0000
0000
0000
,
0000
0000
0000
0000
,
0000
0000
0000
0000
,
0000
0010
1000
0000
0010
0001
1000
0001
,
0001
0100
0000
0100
0010
1000
0001
0100
,
0002
0000
0003
1000
2200
0000
3000
0010
,
0020
0000
0030
0001
0002
0000
0300
0000
,
1003
0100
0100
1000
0001
0010
0010
0100
,
1000
0001
0001
0010
1000
0100
0001
0010
,
2000
0000
3000
0001
0022
0000
0003
0000
,
2000
3000
0200
0030
,
0301
0000
0010
0010
1000
0010
0000
0101
,
0000
0100
0000
0001
0010
1000
0100
1000
,
0000
0000
0001
0001
0100
0001
0000
1010
,
0000
1000
0100
0001
0000
0001
0010
0200
,
0000
0000
0300
0001
0000
1000
0100
0020
,
0000
0100
0031
2000
0000
0001
3100
0002
,
0000
0000
0013
0100
0000
0001
0010
0001
,
0000
1000
0100
0000
0011
0011
0000
0100
,
1000
0100
0100
0010
0001
0010
0010
1000
,
0000
1000
0001
0100
0010
1000
0200
0000
,
0300
0001
2002
0000
0003
0010
0020
0000
,
0030
0100
0200
0000
3000
0000
0310
1000
,
0001
1000
1000
0100
0001
0100
0100
0010
,
0001
0010
0100
1000
0001
0010
2000
0000
,
3000
0100
0202
0000
0300
0000
0020
0000
,
0030
2000
0003
3100
,
0010
0001
0010
0001
0000
1000
0000
1100
,
0000
0100
1000
0010
1000
0100
0000
0000
,
0001
0001
0010
0001
0000
0110
0000
1000
,
0010
0100
0000
0100
1000
0002
0000
0000
,
0003
0010
0010
0100
1000
0020
0000
1000
,
0031
0200
0000
0001
0310
2000
0000
0000
,
3001
0100
0000
0010
1000
0010
0000
0100
,
0010
0001
0000
0100
1100
2000
0000
0000
,
3000
0001
0001
0100
0010
2000
0000
0200
,
3000
0002
0300
0020
0003
0002
0000
0000
,
0033
1000
1000
0000
0100
0010
0000
0100
,
0000
1100
0000
0101
0000
2020
0000
0000
,
3030
0100
0000
0001
0100
0020
0000
2000
,
0030
0002
3000
0200
0003
0010
0300
1000
,
0001
1000
0000
0010
1000
0020
0000
0000
,
0030
0001
1001
0000
0110
0000
2200
0000
,
3300
0010
0010
1000
0100
0002
0000
0020
,
0003
2000
0030
0200
3000
0002
0000
0000
,
0303
1000
1000
0010
0001
0100
0000
0011
,
0000
1010
0000
0100
0001
2000
0000
0000
,
3000
0010
0010
0100
0010
0002
0000
0000
,
0003
1000
1000
0001
0010
0200
0000
0000
,
1300
0001
0000
0010
0001
0021
0000
0000
,
0100
0000
0130
0000
0001
0102
0000
0000
,
0103
0210
0000
0000
0310
1020
0000
0000
,
0100
1000
0030
0000
0001
2001
0000
0000
,
3010
0012
0000
0000
0103
0020
0000
0000
,
1030
0001
0000
1000
0010
2000
0000
0000
,
3100
0200
0310
0020
,
1030
0000
1001
1001
0010
0000
0100
0010
,
0000
0100
0001
2000
0000
0000
3010
0000
,
0110
0000
0011
0000
0020
0000
0030
1000
,
1200
0001
0010
0310
,
1001
0000
0011
0000
0100
1000
0100
0010
,
0000
0001
1000
0001
0010
0000
1000
0010
,
0000
0000
0110
0100
0002
0000
0013
1000
,
0020
0000
0130
0001
0200
0000
1300
0001
,
2001
0000
3010
0010
0200
0010
0001
0300
,
0002
0100
1000
0003
1100
0000
0000
0101
,
0000
0000
0110
0110
0000
0000
0000
0000
;

//---------------dance-single - ----------------
#NOTEDATA:;
#CHARTNAME:;
#STEPSTYPE:dance-single;
#DESCRIPTION:;
#CHARTSTYLE:;
#DIFFICULTY:Medium;
#METER:8;
#RADARVALUES:0.359330,0.448201,0.163668,0.456546,0.000000,292.000000,273.000000,19.000000,53.000000,0.000000,0.000000,0.000000,0.000000,0.000000,0.359330,0.448201,0.163668,0.456546,0.000000,292.000000,273.000000,19.000000,53.000000,0.000000,0.000000,0.000000,0.000000,0.000000;
#CREDIT:;
#NOTES:
0000
0000
0000
0000
,
0000
0000
0000
0000
,
0000
0000
0000
0000
,
0000
0000
0000
0000
,
0000
0000
0000
0000
,
0000
0000
0000
0000
,
0100
0000
0010
0000
1000
0100
1000
0000
,
0010
0001
0000
0001
1000
0000
0100
0000
,
0020
0000
0000
1000
2000
0000
0030
0000
,
0100
0001
0002
3003
,
0010
0000
0001
0000
1000
0010
1000
0000
,
0001
1000
0000
1000
0100
0001
0100
0000
,
0002
0000
0000
0010
0020
0000
0003
0000
,
1000
0001
1000
0030
,
1001
0000
1000
0000
0100
0001
0100
0000
,
1000
0100
0001
0100
,
0010
1000
0001
0000
0100
0001
0100
0000
,
1000
0000
0100
0001
0000
0010
0001
0000
,
0202
0303
0010
0100
,
1000
0000
0100
0000
0100
0010
0001
0000
,
2000
3100
0200
0310
,
0020
0000
0031
0000
0100
0100
0001
0000
,
1000
0000
0010
0100
0010
0000
0001
0100
,
0000
0100
1000
0000
0001
0000
2000
0000
,
0000
0100
0200
0000
3000
0000
0001
0000
,
0010
0020
0330
0001
,
0100
0000
1000
0100
1000
0000
0010
0000
,
0001
1000
0001
0000
0100
0000
0020
0000
,
0000
1000
2000
0000
0030
0000
0100
0000
,
0001
0100
3000
1000
,
0010
0000
0100
0001
0100
0000
0010
0000
,
0001
1000
0010
1000
,
1000
0000
0010
0001
0010
0000
0100
0000
,
0001
1001
0100
0120
,
1030
0100
0001
0010
,
0100
0010
0010
0002
,
1003
0200
1300
0020
,
0032
2003
3100
0220
,
0330
0001
1000
1000
,
0010
0001
0010
0000
0100
0000
0002
0000
,
0003
0001
0010
0100
,
1000
0000
0001
0100
0001
0000
0020
0000
,
0030
0000
0100
0000
0100
0001
1000
0000
,
1001
0000
0010
0000
0010
0100
0002
0000
,
0013
0020
0130
0200
,
1000
0310
0011
2002
,
3003
0100
0010
0001
,
1000
0010
1000
0000
0100
0000
2000
0000
,
3000
0000
0010
0100
0010
0000
0001
0000
,
0101
0100
1100
0020
,
0030
0000
1000
0100
0010
0000
0002
0000
,
0003
0000
0010
0001
1000
0000
2000
0000
,
3100
0020
0130
2001
,
0100
0000
3100
0000
0010
1000
0010
0000
,
1000
0001
1000
0000
0100
1000
0100
0000
,
0010
0100
0010
0000
1000
0100
0001
0000
,
0001
0010
0100
0000
0100
1000
0010
0100
,
0010
0011
1010
0002
,
1003
0020
0031
2000
,
3002
0000
0013
0110
0010
0000
1000
0000
,
0100
0001
0100
0000
0020
0000
0001
0000
,
0031
0100
2000
3001
,
0002
0103
0100
1000
,
0020
2030
3001
1000
,
0010
0001
0010
0000
0100
0000
1000
0000
,
0001
0100
0001
0000
0220
0000
0330
0000
,
2200
3300
0202
0303
,
2002
0000
3003
0000
0010
0010
0010
0000
,
0100
0100
0100
0000
0001
0000
0000
1000
,
0000
0000
0100
0110
0000
0000
0000
0000
;

//---------------dance-single - ----------------
#NOTEDATA:;
#CHARTNAME:;
#STEPSTYPE:dance-single;
#DESCRIPTION:;
#CHARTSTYLE:;
#DIFFICULTY:Easy;
#METER:4;
#RADARVALUES:0.236272,0.268436,0.111983,0.241194,0.000000,192.000000,179.000000,13.000000,28.000000,0.000000,0.000000,0.000000,0.000000,0.000000,0.236272,0.268436,0.111983,0.241194,0.000000,192.000000,179.000000,13.000000,28.000000,0.000000,0.000000,0.000000,0.000000,0.000000;
#CREDIT:;
#NOTES:
0000
0000
0000
0000
,
0000
0000
0000
0000
,
0000
0000
0000
0000
,
0000
0000
0000
0000
,
0000
0000
0000
0000
,
0000
0000
0000
0000
,
2000
3000
0100
0010
,
0100
0001
0001
0000
,
0020
0030
0200
0300
,
0001
1000
2000
3000
,
0002
0003
0010
1000
,
0010
0100
0100
0000
,
0020
0030
0200
0300
,
0010
1000
0020
0030
,
0100
0000
0100
1000
,
0010
0001
0001
0000
,
1000
0000
0010
0100
,
0001
0010
0001
0000
,
1001
0000
0100
0100
,
0010
0100
1000
0000
,
0110
0000
0100
0000
,
1000
0001
1000
0020
,
0030
0001
0100
0010
,
1000
1000
0000
0002
,
0003
0100
0010
0100
,
1000
0001
0000
2000
,
3000
0100
0001
0100
,
0010
0010
0000
0200
,
0300
0001
1000
0010
,
1000
0100
0000
0010
,
0001
0010
0000
0100
,
0010
0100
0000
1000
,
0001
1000
0000
0001
,
0100
0001
0000
1000
,
0000
1001
0000
0010
,
0000
0110
0000
0010
,
0010
1000
0001
1000
,
0100
0100
0000
0020
,
0030
0100
0010
0001
,
0010
1000
0000
0200
,
0300
0001
0100
1000
,
0100
0010
0000
2000
,
3000
0001
1000
0010
,
0000
1001
0000
0100
,
1000
0010
0100
0001
,
0000
0110
0000
2000
,
3000
0001
0100
0010
,
1000
1000
0000
0002
,
0003
0010
1000
0100
,
1000
0010
0000
0200
,
0300
0010
0001
0020
,
0030
1000
0001
2000
,
3000
0002
0003
0220
,
0000
0000
0330
0100
,
0100
0001
0000
0010
,
0010
1000
0000
1000
,
0001
1000
1000
0001
,
0000
0110
0000
0200
,
0300
0002
0003
2000
,
3000
1001
0010
0000
,
0100
0000
0010
1000
,
1000
0000
0001
0100
,
1000
0100
0001
0000
,
0110
0000
1000
0001
,
1000
0010
0001
1000
,
0100
0000
0001
0000
,
1001
0000
0010
0000
,
0110
0000
2000
3000
,
0002
0000
0003
0000
0010
0000
0000
0100
,
0000
1001
0000
0000
;

//---------------dance-single - ----------------
#NOTEDATA:;
#CHARTNAME:;
#STEPSTYPE:dance-single;
#DESCRIPTION:;
#CHARTSTYLE:;
#DIFFICULTY:Beginner;
#METER:2;
#RADARVALUES:0.116905,0.179604,0.068913,0.077527,0.000000,95.000000,87.000000,8.000000,9.000000,0.000000,0.000000,0.000000,0.000000,0.000000,0.116905,0.179604,0.068913,0.077527,0.000000,95.000000,87.000000,8.000000,9.000000,0.000000,0.000000,0.000000,0.000000,0.000000;
#CREDIT:;
#NOTES:
// measure 0
0000
0000
0000
0000
,  // measure 1
0000
0000
0000
0000
,  // measure 2
0000
0000
0000
0000
,  // measure 3
0000
0000
0000
0000
,  // measure 4
0000
0000
0000
0000
,  // measure 5
0000
0000
0000
0000
,  // measure 6
0010
0000
0000
0000
,  // measure 7
0100
0000
0100
0000
,  // measure 8
0200
0000
0300
0000
,  // measure 9
0020
0000
0030
0000
,  // measure 10
1000
0000
0000
0000
,  // measure 11
0001
0000
0001
0000
,  // measure 12
0002
0000
0003
0000
,  // measure 13
2000
0000
3000
0000
,  // measure 14
1001
0000
0000
0000
,  // measure 15
0100
0000
0100
0000
,  // measure 16
0010
0000
0000
0000
,  // measure 17
0001
0000
0001
0000
,  // measure 18
1000
0000
0000
0000
,  // measure 19
0100
0000
0000
0000
,  // measure 20
0010
0000
0000
0000
,  // measure 21
0001
0000
0000
1001
,  // measure 22
0000
0000
0000
1000
,  // measure 23
0000
1000
0000
2000
,  // measure 24
0000
3000
0000
0002
,  // measure 25
0000
0003
0000
0100
,  // measure 26
0000
0000
0000
0010
,  // measure 27
0000
0010
0000
0020
,  // measure 28
0000
0030
0000
0200
,  // measure 29
0000
0300
0000
0110
,  // measure 30
0000
0000
0000
0010
,  // measure 31
0000
0100
0000
0010
,  // measure 32
0000
0000
0000
1000
,  // measure 33
0000
0001
0000
1000
,  // measure 34
0000
0000
0000
0010
,  // measure 35
0000
0000
0000
0100
,  // measure 36
0000
0000
0000
0010
,  // measure 37
0000
0010
0000
0110
,  // measure 38
0000
0000
0000
0001
,  // measure 39
0000
0100
0000
0001
,  // measure 40
0000
0000
0000
0010
,  // measure 41
0000
1000
0000
0010
,  // measure 42
0000
0000
0000
1000
,  // measure 43
0000
0100
0000
1000
,  // measure 44
0000
0000
0000
0001
,  // measure 45
0000
0000
0000
1001
,  // measure 46
0000
0000
0000
0100
,  // measure 47
0000
0010
0000
0100
,  // measure 48
0000
0000
0000
0001
,  // measure 49
0000
1000
0000
0001
,  // measure 50
0000
0000
0000
0100
,  // measure 51
0000
0000
0000
0010
,  // measure 52
0000
0000
0000
1001
,  // measure 53
0000
0000
0000
0100
,  // measure 54
0000
0100
0000
0010
,  // measure 55
0000
0010
0000
0001
,  // measure 56
0000
0001
0000
1000
,  // measure 57
0000
1000
0000
0200
,  // measure 58
0000
0000
0000
0300
,  // measure 59
0000
0000
0001
0000
,  // measure 60
0000
0000
1000
0000
,  // measure 61
0000
0000
0010
0000
,  // measure 62
0000
0000
1000
0000
,  // measure 63
1001
0000
0100
0000
,  // measure 64
0100
0000
1000
0000
,  // measure 65
1000
0000
0010
0000
,  // measure 66
0010
0000
0001
0000
,  // measure 67
0001
0000
0000
0000
,  // measure 68
0000
0000
0100
0000
,  // measure 69
0100
0000
0110
0000
;
