#VERSION:0.83;
#TITLE:Blue Forest (NightBounce Remix);
#SUBTITLE:;
#ARTIST:kanone;
#TITLETRANSLIT:;
#SUBTITLETRANSLIT:;
#ARTISTTRANSLIT:;
#GENRE:;
#CREDIT:;
#MUSIC:Blue Forest (NightBounce Remix).ogg;
#BANNER:Blue Forest (NightBounce Remix).png;
#BACKGROUND:Blue Forest (NightBounce Remix)-bg.png;
#CDTITLE:;
#SAMPLESTART:19.294;
#SAMPLELENGTH:14.545;
#SELECTABLE:YES;
#OFFSET:-1.112;
#BPMS:0.000=132.000
,156.000=264.000
,157.000=132.000
,158.000=264.000
,159.000=132.000
,166.000=264.000
,167.000=132.000
,172.000=264.000
,172.500=132.000
,173.000=264.000
,173.500=132.000
;
#STOPS:156.000=0.057
,156.250=0.057
,156.500=0.057
,156.750=0.057
,158.000=0.057
,158.250=0.057
,158.500=0.057
,158.750=0.057
,166.000=0.076
,166.333=0.076
,166.667=0.076
,172.000=0.038
,172.167=0.038
,172.333=0.038
,173.000=0.038
,173.167=0.038
,173.333=0.038
;
#DISPLAYBPM:132.000;
#BGCHANGES:;
#FGCHANGES:;

//--------------- dance-single - ----------------
#NOTEDATA:;
#STEPSTYPE:dance-single;
#DESCRIPTION:;
#DIFFICULTY:Hard;
#METER:16;
#RADARVALUES:0,0,0,0,0;
#NOTES:
0000
0000
0000
0000
,
0000
0000
0000
0000
,
1001
0100
0010
0100
,
0001
1000
0010
0100
,
0001
0010
0100
1000
,
0010
0100
0001
0010
,
1001
0000
0110
0000
1010
0010
1010
1000
,
1100
0000
0011
0000
1001
1000
1001
0001
,
1000
0000
0001
0100
0000
0001
1000
0000
0001
0010
0000
0001
1000
0000
0001
0100
0000
0001
1000
0000
0001
0010
0000
0001
,
1000
0000
0000
0000
0000
0000
0010
0000
0100
0010
0000
1000
0000
0000
0000
0000
0000
0000
1001
0000
0000
0000
0000
0000
,
0001
0000
0010
0001
0000
0100
0020
0000
0000
0000
0000
0000
0000
0000
0000
0030
0000
0000
0000
0000
0100
0010
0000
1000
,
0000
0000
0001
0100
0000
0001
1000
0000
0100
0000
0000
1000
0000
0000
0000
0010
0000
1000
0010
0000
0100
0010
0000
1000
,
0000
0000
0100
1000
0000
0100
0000
0000
0010
0100
0000
0000
0010
0000
0001
0000
0000
0100
0001
0000
0000
0000
0000
0010
,
0000
0000
0100
1000
0000
0100
0000
0000
0010
0100
0000
0000
1000
0000
0001
1000
0000
0001
1000
0000
0000
0000
0000
0000
,
0010
0000
0100
0001
0000
1000
0020
0000
0000
0000
0000
0000
0000
0000
0000
0030
0000
0000
0000
0000
1000
0001
0000
0010
,
0000
0000
0100
1000
0000
0100
0010
0000
0001
0100
0000
0010
0000
0000
0000
0100
0000
0001
0100
0000
0010
0100
0000
0001
,
0000
0000
0010
0100
0000
0010
0000
0000
0100
1000
0000
0000
0001
0000
1000
0000
0000
0010
1000
0000
0000
0000
0000
0100
,
0000
0000
1000
0100
0000
0010
0000
0000
0100
1000
0000
0000
0002
0000
0000
0203
0000
0000
0320
0000
0000
2030
0000
0000
,
3001
0000
0100
0010
0000
1000
0200
0000
0000
0000
0000
0000
0000
0000
0000
0000
0300
0000
0000
0000
0010
0100
0000
1000
,
0000
0000
0001
0010
0000
0001
0100
0000
0010
0000
0000
0100
0000
0000
0000
0001
0000
1000
0001
0000
0010
0001
0000
1000
,
0000
0000
0010
0100
0000
0010
0000
0000
0100
0001
0000
0000
0100
0000
0010
0000
0000
1000
0010
0000
0000
0000
0000
0100
,
0000
0000
0001
1000
0000
0001
0000
0000
0100
0010
0000
0000
1000
0000
0100
1000
0000
0100
1000
0000
0000
0000
0000
0000
,
0100
0000
0010
0001
0000
0100
0020
0000
0000
0000
0000
0000
0000
0000
0000
0030
0000
0000
0000
0000
1000
0001
0000
0100
,
0000
0000
0010
1000
0000
0010
0100
0000
0001
0010
0000
0100
0000
0000
0000
1000
0000
0010
1000
0000
0001
1000
0000
0010
,
0000
0000
0100
0010
0000
0100
0000
0000
0010
1000
0000
0000
0100
0000
0010
0000
0000
0100
1000
0000
0000
0000
0000
0010
,
0000
0000
0100
0001
0000
0100
0000
0000
0010
1000
0000
0000
0200
0000
0000
0320
0000
0000
0032
0000
0000
0003
0000
0000
,
1001
0000
0010
0000
0100
0100
0010
0000
,
1000
0000
0001
0100
0010
0100
0001
0000
,
0010
0000
0100
0000
1000
1000
0100
0000
,
1000
0000
0010
1000
0010
0100
0010
0000
,
0100
0000
0000
0001
0000
0000
0100
0000
0000
0010
0000
1000
0010
0000
0100
0000
0000
0000
0000
0000
0000
0001
0000
0100
,
0001
0000
0010
0000
0100
0000
1000
0000
0000
0010
0000
0100
0010
0000
1000
0000
0000
0000
0000
0000
0000
0001
0000
1000
,
0001
0000
0000
0010
0000
0100
0010
0000
0100
1000
0000
0000
0001
0000
0000
1000
0000
0100
1000
0000
1000
0010
0000
0010
,
0100
0000
0001
0100
0000
1000
0100
0000
0001
0100
0000
0010
1000
0000
0001
0100
0000
0010
0100
0001
0010
0100
1000
0010
,
0200
0000
0000
0000
0000
0000
0000
0000
0000
0000
0000
0000
0000
0000
0000
0300
0000
0000
0000
0000
0010
0100
0000
0010
,
1000
0000
0100
0000
0001
0000
0100
0000
1000
0000
0010
0000
0100
0000
0001
0000
0000
0100
0010
0000
0100
0001
0000
1000
,
0100
0000
0000
1000
0000
0001
1000
0000
0010
0100
0000
0001
0010
0000
0100
0000
0000
0000
1000
0000
0100
1000
0000
0001
,
0100
0000
0000
0010
0000
0200
0000
0000
0000
0000
0000
0000
0000
0000
0000
0000
0000
0000
0300
0000
0000
0000
0000
0000
,
0001
0100
0010
0100
0001
1000
0100
0010
,
0001
1000
0001
1000
0001
0000
0000
0000
0010
0010
0010
0010
0100
0000
0000
0000
,
1000
0001
0100
0010
0100
0001
1000
0100
,
2000
0000
0000
3001
0010
0001
0100
0000
0000
0010
0000
0000
0100
0000
0001
0000
1000
0000
0010
0000
0000
0100
0000
0000
,
0001
1000
0100
0010
0010
0100
1000
0010
,
1000
0001
1000
0001
0000
0000
0100
0010
0100
0010
0000
0000
2000
0000
0000
3001
0100
0001
0100
0000
0000
0010
0000
0000
,
0100
0000
0001
0100
0000
0001
0100
0000
0010
0100
0000
0010
1000
0000
0010
1000
0000
0010
0100
0000
0010
0100
0000
0000
,
2002
0000
0000
3003
,
0001
0000
0010
0100
0000
1000
0020
0000
0000
0000
0000
0000
0000
0000
0000
0030
0000
0000
0000
0000
0100
0010
0000
0100
,
0000
0000
0001
0100
0000
0001
0100
0000
0010
0000
0000
1000
0000
0000
0000
0001
0000
0001
1000
0000
1000
0010
0000
0010
,
0000
0000
0100
0001
0000
0100
0000
0000
0100
0010
0000
0000
1000
0000
0100
0000
0000
0100
1000
0000
0000
0000
0000
0001
,
0000
0000
0100
0010
0000
0100
0000
0000
0100
0010
0000
0000
1000
0000
0001
1000
0000
0001
1000
0000
0000
0000
0000
0000
,
0010
0000
0100
0001
0000
1000
0200
0000
0000
0000
0000
0000
0000
0000
0000
0300
0000
0000
0000
0000
1000
0001
0000
0010
,
0000
0000
0100
1000
0000
0100
0010
0000
0001
0100
0000
0010
0000
0000
0000
0100
0000
0100
0001
0000
0001
1000
0000
1000
,
0000
0000
0001
0010
0000
0001
0000
0000
0001
0010
0000
0000
0100
0000
1000
0000
0000
1000
0001
0000
0000
0000
0000
0100
,
0000
0000
0100
0010
0000
1000
0000
0000
1000
0001
0000
0000
0010
0000
0010
0100
0000
0100
0010
0000
0010
0100
0000
0100
,
1000
0000
0001
0100
0000
0010
2000
0000
0000
0000
0000
0000
0000
0000
0000
3000
0000
0000
0000
0000
0010
0100
0000
0010
,
0000
0000
1000
0010
0000
1000
0001
0000
0100
0000
0000
0010
0000
0000
0000
1000
0000
1000
0001
0000
0001
1000
0000
1000
,
0000
0000
0010
1000
0000
0010
0000
0000
0010
0100
0000
0000
0001
0000
0100
0000
0000
0100
0001
0000
0000
0000
0000
1000
,
0000
0000
0010
0100
0000
0010
0000
0000
0010
1000
0000
0000
0001
0000
0001
0100
0000
0100
0001
0000
0000
0000
0000
0000
,
0100
0000
0010
1000
0000
0100
0020
0000
0000
0000
0000
0000
0000
0000
0000
0030
0000
0000
0000
0000
0001
1000
0000
0100
,
0000
0000
0010
0001
0000
0010
0100
0000
1000
0010
0000
1000
0000
0000
0000
0010
0000
0010
1000
0000
1000
0010
0000
0010
,
0000
0000
0100
0010
0000
0100
0000
0000
0100
0010
0000
0000
1000
0000
0001
0000
0000
0001
1000
0000
0000
0000
0000
0010
,
0000
0000
0010
0100
0000
0010
0000
0000
0010
1000
0000
0000
0100
0000
0100
1000
0000
1000
0001
0000
0001
0010
0000
0010
,
0100
0000
1000
0010
0000
0100
0110
0000
0000
0000
0000
0000
1000
0000
0010
0100
0000
0001
1001
0000
0000
0000
0000
0000
,
1000
0000
0001
1000
0000
0001
1000
0000
0010
0100
0000
0010
0100
0000
0001
0000
0000
2000
0001
0000
0000
3000
0000
0000
,
0220
0000
0000
0000
0000
0000
0000
0000
0000
0000
0330
0000
;
