#TITLE:Blaster;
#SUBTITLE:;
#ARTIST:good-cool feat. Jeff Coote;
#TITLETRANSLIT:;
#SUBTITLETRANSLIT:;
#ARTISTTRANSLIT:;
#GENRE:;
#CREDIT:;
#BANNER:Blaster.png;
#BACKGROUND:Blaster-bg.png;
#LYRICSPATH:;
#CDTITLE:;
#MUSIC:Blaster.mp3;
#OFFSET:-1.308332;
#SAMPLESTART:61.726624;
#SAMPLELENGTH:14.222221;
#SELECTABLE:YES;
#BPMS:0.000000=135.000000
;
#STOPS:
;
#BGCHANGES:;
#KEYSOUNDS:;
#ATTACKS:;

//---------------dance-single - ----------------
#NOTES:
     dance-single:
     :
     Hard:
     11:
     0.451347,0.450740,0.229181,0.204626,0.000000,386.000000,358.000000,28.000000,25.000000,0.000000,0.000000,0.451347,0.450740,0.229181,0.204626,0.000000,386.000000,358.000000,28.000000,25.000000,0.000000,0.000000:
// measure 0
0000
0000
0000
0000
,  // measure 1
0000
0000
0000
0000
,  // measure 2
0010
1000
0010
0000
0100
0001
0100
0010
,  // measure 3
0000
0010
0100
1000
0100
1000
0001
0000
,  // measure 4
0010
0100
0010
0001
1000
0100
0010
0000
,  // measure 5
1100
0100
1000
0001
0000
0010
0110
0000
,  // measure 6
0002
0000
0013
0000
0100
0010
0001
0000
,  // measure 7
0001
1000
0001
0010
0000
0100
0001
0000
,  // measure 8
0010
0100
0010
0100
0010
1000
0001
0000
,  // measure 9
1010
1000
0100
0000
0010
0100
0010
0001
,  // measure 10
0011
0000
1000
0000
2000
0000
3000
0010
,  // measure 11
0100
0010
0000
0002
0000
0000
1003
0000
,  // measure 12
1000
0000
0001
0100
0001
0000
0010
0100
,  // measure 13
1000
0100
0020
0000
0032
0000
2003
0000
,  // measure 14
3100
0010
1000
0010
0001
0000
0001
1000
,  // measure 15
0000
0010
0001
0010
1000
0001
1000
0000
,  // measure 16
1010
0000
0010
1000
0010
0100
0010
1000
,  // measure 17
0001
0001
0100
1000
0010
0001
0100
0000
,  // measure 18
1100
0000
0010
0000
0020
0000
0130
1000
,  // measure 19
0100
1000
0000
2000
0000
0000
3010
0010
,  // measure 20
0000
0100
0001
0010
0001
0100
0010
1000
,  // measure 21
0100
0001
0020
0000
0032
0000
0203
0000
,  // measure 22
0301
1000
0010
1000
0001
0000
0001
1000
,  // measure 23
0000
0010
0100
0010
1100
0000
0011
0000
,  // measure 24
1000
0010
0001
0001
0100
1000
0010
0100
,  // measure 25
0010
0100
0010
0010
1000
0001
1000
0000
,  // measure 26
0200
0000
1300
0010
1000
0010
0001
2000
,  // measure 27
0000
0010
3001
0010
0100
1000
0010
0000
,  // measure 28
0002
0000
0013
0001
0100
1000
0010
0200
,  // measure 29
0000
1000
0310
0100
0001
0100
0010
0000
,  // measure 30
2100
0000
3001
0100
1000
0001
0010
0210
,  // measure 31
0000
0010
1300
0010
1000
0001
0010
0000
,  // measure 32
0201
0000
1300
0000
0001
0010
1000
0012
,  // measure 33
0000
0010
1003
0010
0100
1000
1001
0000
,  // measure 34
0100
0000
0100
0000
0001
1000
0001
0010
,  // measure 35
0000
0100
1000
0000
0100
0010
0000
0010
,  // measure 36
0000
1000
0010
0001
1000
0100
1000
0010
,  // measure 37
0000
1000
0010
0001
1000
0001
0011
0000
,  // measure 38
0010
0000
1000
0000
0010
0001
1000
0010
,  // measure 39
0000
0100
0001
0100
0010
1000
0000
1000
,  // measure 40
0000
0010
1000
0100
0000
0001
0010
1000
,  // measure 41
0001
0100
0010
0100
1000
0001
1010
0000
,  // measure 42
1000
0000
0100
0010
0000
0010
0001
1000
,  // measure 43
0000
0010
1000
0100
0010
0100
0001
0000
,  // measure 44
0010
0020
0000
1000
0000
0000
0130
0200
,  // measure 45
0000
0000
0301
1000
0010
0000
0100
0000
,  // measure 46
1001
0010
0001
1000
0000
0010
1000
0100
,  // measure 47
0000
0100
0010
0001
1000
0001
1000
0000
,  // measure 48
1000
2000
0000
0100
0000
0000
3001
0002
,  // measure 49
0000
0000
0103
0010
1001
0000
0011
0000
,  // measure 50
0101
1000
0010
1000
0100
0100
0010
1000
,  // measure 51
0000
0001
0010
1000
0001
1000
0010
0000
,  // measure 52
0100
0010
1000
1000
0100
0010
0001
0010
,  // measure 53
0100
0001
1000
0001
1000
0000
1001
0000
,  // measure 54
0010
0001
1000
0001
0010
1000
0010
0001
,  // measure 55
1000
0100
0010
0100
0010
1000
0001
0000
,  // measure 56
0010
0001
1000
0001
0100
0010
0100
1000
,  // measure 57
0100
0001
0100
1000
0010
1000
0101
0000
,  // measure 58
1000
1100
0000
0010
0011
0000
0100
0110
,  // measure 59
0000
0001
1001
0000
1100
0000
0011
0000
,  // measure 60
2002
0000
0000
0000
,  // measure 61
0000
0000
0000
3003
0000
0000
0000
0000
0000
0000
0000
0000
0000
0000
0000
0000
;

//---------------dance-single - ----------------
#NOTES:
     dance-single:
     :
     Medium:
     7:
     0.313370,0.325535,0.065480,0.229181,0.000000,268.000000,260.000000,8.000000,28.000000,0.000000,0.000000,0.313370,0.325535,0.065480,0.229181,0.000000,268.000000,260.000000,8.000000,28.000000,0.000000,0.000000:
0000
0000
0000
0000
,
0000
0000
0000
0000
,
0020
0000
1000
0000
0130
0000
1000
0001
,
0000
0100
0000
0010
1000
0000
0001
0000
,
1000
0001
0000
0100
0000
1000
0100
1000
,
0000
0001
0000
0100
0000
0010
0010
0000
,
2000
0000
0100
0000
3001
0000
0010
0001
,
0000
1000
0000
0001
0010
1000
0010
0000
,
0100
0010
0000
0001
0000
0100
0000
0010
,
0000
1000
0100
0000
0010
0100
0010
0000
,
0120
0031
1000
0001
,
1000
0010
0000
1000
0000
0010
0100
0000
,
1000
0001
0010
1000
,
0010
1000
0010
0000
1000
0000
0010
0000
,
0002
0000
0100
0000
1003
0000
0100
0010
,
0000
0100
1000
0000
0001
0000
0010
0000
,
2000
0000
0010
0000
3010
0000
0100
1000
,
0010
0000
0010
1000
0000
0001
1000
0000
,
2100
3010
0100
0001
,
0001
1000
0000
0010
0000
1000
1000
0000
,
0001
1000
0010
1000
,
0010
1000
0100
0000
1000
0000
0001
0000
,
0200
0001
1300
0010
,
0001
0100
0010
0000
0100
0000
0001
0000
,
0020
0000
0100
0000
0130
0000
1000
0010
,
0000
1000
0001
0000
0100
0000
0010
0000
,
1001
0000
0010
0000
0100
0000
0100
1000
,
0000
0001
0100
0000
0001
0000
1000
0000
,
1100
0000
0100
0000
1000
0000
1000
0001
,
0000
0010
0100
0000
0010
1000
0100
0000
,
0101
0000
0010
0000
0100
0000
0010
1000
,
0000
1000
0100
0000
1000
0000
0001
0000
,
0110
0000
0010
0100
1000
0000
1000
0100
,
0000
0100
0010
0000
0100
0010
0100
0000
,
0010
0010
1000
0002
,
0000
0000
1003
0000
1000
0100
0000
2000
,
0000
0000
3010
0000
0001
0000
0100
1000
,
0100
0001
0000
1000
0000
0010
0010
0000
,
1000
1000
0100
0020
,
0000
0000
0031
0000
0001
0100
0000
0200
,
0000
0000
0310
0000
1000
0000
0001
1000
,
0100
1000
0000
0010
0000
0100
0100
0000
,
0002
0000
0000
0023
0000
0000
0230
0000
,
0000
0320
0000
0000
1030
0000
0001
0000
,
0010
0000
0000
0100
0000
0000
1000
0000
,
0000
0010
0000
0000
0001
0000
0100
0000
,
2000
0000
0000
3002
0000
0000
0023
0000
,
0000
0230
0000
0000
0310
0000
0001
0000
,
1000
0000
0000
0100
0000
0000
0001
0000
,
0000
0100
0000
0000
0010
0000
0010
0000
,
2000
0000
0001
0000
3010
0000
1000
0010
,
1000
0100
0000
0001
0000
0001
0010
0000
,
0100
0000
0100
0001
0000
0010
1000
0010
,
0000
0000
0100
1000
0100
0000
1001
0000
,
0020
1000
0100
0031
,
0010
1000
0000
0100
0000
1000
1000
0000
,
0010
0000
1000
0100
0000
0010
0001
0000
,
0100
0010
0000
1000
0001
1000
0010
0000
,
0020
0100
0030
0200
1000
0300
0002
1000
,
0003
2000
0100
3000
0001
0000
1000
0000
,
0220
0000
0000
0000
,
0000
0000
0000
0330
0000
0000
0000
0000
0000
0000
0000
0000
0000
0000
0000
0000
;

//---------------dance-single - ----------------
#NOTES:
     dance-single:
     :
     Easy:
     5:
     0.206965,0.220996,0.032740,0.163701,0.000000,177.000000,173.000000,4.000000,20.000000,0.000000,0.000000,0.206965,0.220996,0.032740,0.163701,0.000000,177.000000,173.000000,4.000000,20.000000,0.000000,0.000000:
0000
0000
0000
0000
,
0000
0000
0000
0000
,
0020
0000
1030
0100
,
1000
1000
0001
0000
,
2000
0000
3001
0010
,
0100
0100
0001
0000
,
0200
0000
0301
0010
,
0001
0100
1000
0000
,
0002
0000
0013
1000
,
0010
0100
0010
0000
,
2002
3003
0010
0000
,
0100
0100
1000
0000
,
0000
0001
1000
0001
,
0010
0010
0001
0000
,
0010
0000
0100
0010
,
1000
0000
0001
0001
,
0010
0000
0100
1000
,
0010
0001
0100
0000
,
0220
0330
0100
0000
,
0010
0010
1000
0000
,
0000
0100
1000
0010
,
1000
0001
1000
0000
,
0100
0000
0010
0000
,
0001
1000
0010
0010
,
0100
0000
0001
0000
,
0010
0001
0010
0000
,
2000
3000
0010
0100
,
0200
0300
0010
1000
,
0002
0003
0010
0001
,
0200
0300
0010
1000
,
0100
0000
1000
0010
,
1000
0000
0100
0010
,
0100
0000
0001
0001
,
1000
0100
0010
0000
,
0002
0003
0010
0000
,
0100
1000
0100
0000
,
1000
0010
1000
0001
,
0100
0100
0010
0000
,
0200
0300
0010
1000
,
0100
0000
0010
0010
,
1000
0001
0001
0010
,
0001
0100
0010
0000
,
0200
0000
1300
0000
,
0010
0000
0001
0000
,
0100
0010
0100
0000
,
0001
1000
0001
0001
,
0020
0000
0031
0000
,
0100
0000
0010
0000
,
1000
0100
1000
0010
,
0200
0300
0020
0030
,
2002
3003
0010
0100
,
0010
0000
1000
1000
,
0001
0000
0010
0001
,
0100
0100
0010
0000
,
1000
0100
1000
1000
,
0010
0100
0001
0001
,
0010
1000
0100
0010
,
1000
0001
0010
0100
,
0010
0000
0100
0000
,
1000
0001
1000
0000
,
0110
0000
0000
0000
;
