#TITLE:Beyond the Ocean;
#SUBTITLE:;
#ARTIST:WORLD SEQUENCE;
#TITLETRANSLIT:;
#SUBTITLETRANSLIT:;
#ARTISTTRANSLIT:;
#GENRE:;
#CREDIT:;
#BANNER:Beyond the Ocean.png;
#BACKGROUND:Beyond the Ocean-bg.png;
#LYRICSPATH:;
#CDTITLE:;
#MUSIC:Beyond the Ocean.ogg;
#OFFSET:-0.597163;
#SAMPLESTART:8.402041;
#SAMPLELENGTH:15.609757;
#SELECTABLE:YES;
#BPMS:0.000000=123.000000
;
#STOPS:
;
#BGCHANGES:;
#KEYSOUNDS:;
#ATTACKS:;

//---------------dance-single - ----------------
#NOTES:
     dance-single:
     :
     Hard:
     11:
     0.403948,0.584668,0.252312,0.435021,0.043502,325.000000,296.000000,29.000000,50.000000,0.000000,0.000000,0.403948,0.584668,0.252312,0.435021,0.043502,325.000000,296.000000,29.000000,50.000000,0.000000,0.000000:
0000
0000
0000
0000
,
0000
0000
0000
0000
,
0000
0000
0000
0000
,
0000
0000
0000
0000
,
0002
0000
0013
1000
0200
0000
0000
0000
,
0300
0000
0010
1000
0100
1000
0010
0001
,
0200
0000
0301
1000
0020
0000
0030
0100
,
2000
0000
0000
0000
3000
0000
0010
1000
,
0200
0000
1300
0001
2000
0000
0000
0000
,
3000
0000
1000
0001
0100
0001
0010
1000
,
0020
0000
0031
0002
0000
0000
0000
0000
,
0003
0000
0010
0200
0000
0000
1300
0001
,
2100
0000
3001
0100
1020
0000
0000
0000
,
0030
0000
0001
0010
0100
0010
1000
0100
,
0201
0000
1300
0001
0021
0000
0030
1000
,
2010
0000
0000
0000
3000
0000
0001
0010
,
1002
0000
0103
1000
0210
0000
0000
0000
,
0300
0000
1000
0100
0010
0001
0100
0010
,
0102
0000
0013
1020
0000
0000
0000
0000
,
0030
0000
0100
2010
0000
0001
3010
0100
,
0002
0000
0000
0010
0000
0000
1003
0000
,
2000
0000
0000
3200
0000
0000
0310
0000
,
1002
0100
1000
1003
0010
0100
0000
0100
,
0201
0010
0001
0301
1000
0100
0000
0100
,
0012
0000
0000
0000
1003
0010
1000
0000
0100
0010
0100
0000
0010
0001
0010
0000
,
0001
1000
0001
0000
0100
1000
0100
0000
0101
0000
0010
0000
1000
0000
0100
0000
,
1200
0010
1000
0310
0001
0100
0000
0001
,
0120
0001
0100
0031
0100
1000
0000
0001
,
1020
0000
0000
0000
0130
1000
0100
0000
0010
1000
0010
0000
0001
0100
0001
0000
,
0010
0001
0100
0000
0100
1000
0001
0000
0020
0000
1000
0000
0130
0000
1000
0000
,
0002
0000
0000
1000
0000
0000
1003
0010
,
0100
0010
0001
1000
0200
0000
0302
0000
,
0023
0000
0100
0100
0000
1000
1030
0000
,
0100
1000
0100
0010
0100
0000
1001
0000
,
1200
0310
0120
0001
,
0031
0000
1000
0001
0100
0010
0100
1000
,
0020
0000
0000
0000
1000
0000
1030
0100
,
0202
0300
0020
0033
,
1010
0000
0100
0001
0100
0000
0010
0100
,
0010
0000
1000
0100
0001
0100
0010
1000
,
0001
0000
1000
0100
1000
0000
0010
0001
,
0010
1000
0010
0000
0100
1000
0100
0000
,
0110
0000
0001
0010
0001
0000
0010
1000
,
0010
0001
0100
0010
0001
0000
0001
0100
,
0010
0000
0010
0001
0000
0001
0100
0000
,
1000
0001
0100
0001
0000
1100
0101
0000
,
2000
0000
3001
0100
0020
0000
0001
0130
,
0100
0000
0010
1000
0010
0001
0100
0001
,
2000
0000
3100
0001
0020
0000
0130
1000
,
0002
0000
0010
0100
0013
1000
1000
0000
,
0200
0000
0310
1000
0002
0000
0010
1003
,
0010
0000
0100
1000
0001
1000
0010
0010
,
0200
0000
0310
0020
0000
0001
0031
0100
,
1000
0000
0100
0210
0000
1000
0310
1000
,
0001
0000
1001
0010
0000
0010
0100
0000
,
1000
0100
1000
0001
0010
0010
0101
1000
,
0110
0000
0000
0000
;

//---------------dance-single - ----------------
#NOTES:
     dance-single:
     :
     Medium:
     7:
     0.318187,0.341056,0.104405,0.582928,0.000000,256.000000,244.000000,12.000000,67.000000,0.000000,0.000000,0.318187,0.341056,0.104405,0.582928,0.000000,256.000000,244.000000,12.000000,67.000000,0.000000,0.000000:
0000
0000
0000
0000
,
0000
0000
0000
0000
,
0000
0000
0000
0000
,
0000
0000
0000
0000
,
0010
0001
0002
0000
,
0013
0000
1000
0000
0100
0000
1000
0100
,
2000
3001
0020
0031
,
0200
0000
0310
0001
1000
0000
1010
0000
,
0001
0100
0200
0000
,
1300
0000
0100
0000
0001
0000
0100
0010
,
0002
0103
0020
0130
,
2000
0100
3100
0001
0100
0000
1001
0000
,
0100
0000
0010
0000
1000
0010
2000
0000
,
3100
0000
0001
1000
1000
0100
0010
0000
,
1000
0000
0001
0000
0010
0100
0020
0000
,
1030
0000
0100
0010
0010
0001
0010
0001
,
2000
3100
0002
0103
,
0020
0000
0031
1000
1000
0000
0110
0000
,
0100
0000
0010
0001
0010
0000
0100
0010
,
0100
0000
0001
1000
0001
0010
0010
0000
,
0200
0300
2000
3000
,
0010
0001
2002
3003
,
0020
0000
0032
0000
0013
0100
0100
0000
,
2000
0000
3200
0000
1300
0001
0001
0000
,
0101
0200
2300
3002
,
0023
0000
2030
0000
3100
0000
0100
0001
,
2000
0001
3001
0000
0010
1000
0010
0000
,
0020
0100
0130
0000
0010
0001
0010
0000
,
0110
0200
0320
0032
,
0203
0000
2300
0000
3001
0100
0001
0000
,
0020
0000
0000
0000
0230
0000
0000
0300
,
0002
2003
0002
3003
,
0200
0000
2300
0000
,
3020
0230
0020
0330
,
2000
3001
0002
0013
,
0200
0302
0023
0030
,
1000
1000
0010
0010
,
0100
1000
2002
3003
,
0010
0000
0001
0000
0010
0100
1000
0000
,
0001
0010
0100
0010
1000
0000
0001
0000
,
0010
0000
1000
0100
0001
0000
0010
0001
,
0100
0000
0001
0010
0001
0100
0100
0000
,
0001
0000
1000
0100
0010
0000
0100
0010
,
0100
0000
1000
0010
1000
0100
0100
0000
,
0020
0031
0020
1030
,
0100
0010
1000
0100
1100
0000
0011
0000
,
0200
0000
0320
0000
0130
1000
0100
0000
,
0002
0000
0023
0000
0031
1000
0001
0000
,
0100
0000
0001
0010
0010
0000
1000
0100
,
0100
0010
0001
0000
0010
0100
0010
0000
,
2000
0000
3020
0000
1030
0100
1000
0000
,
0200
0000
0320
0000
0130
0001
0100
0000
,
1000
0000
0010
0001
0010
0000
0100
0001
,
0100
0000
1000
0001
1000
0010
0001
0000
,
0022
0033
2020
3030
,
0200
0320
0032
1003
,
1100
0000
0000
0000
;

//---------------dance-single - ----------------
#NOTES:
     dance-single:
     :
     Easy:
     4:
     0.198867,0.194889,0.052203,0.252312,0.000000,160.000000,154.000000,6.000000,29.000000,0.000000,0.000000,0.198867,0.194889,0.052203,0.252312,0.000000,160.000000,154.000000,6.000000,29.000000,0.000000,0.000000:
0000
0000
0000
0000
,
0000
0000
0000
0000
,
0000
0000
0000
0000
,
0000
0000
0000
0000
,
1000
1000
2000
0000
,
3000
0010
0100
0010
,
0001
0001
0002
0003
,
0200
0000
0300
0010
,
0100
1000
0200
0000
,
0300
0001
0010
1000
,
0200
0300
2000
3000
,
0020
0030
2002
3003
,
0100
0001
0010
0000
,
0001
0100
0010
0010
,
1000
0001
1000
0000
,
0100
1000
0010
0000
,
1000
0001
1000
0010
,
0100
0000
0001
0100
,
0010
0001
1000
0000
,
0010
0001
0100
0000
,
2000
3000
0002
0003
,
0200
0300
0220
0330
,
1000
0000
0001
0001
,
0010
0000
0100
0100
,
0001
0000
0010
1000
,
0100
1000
1000
0000
,
0002
0003
0100
0100
,
2000
3000
0010
0010
,
0200
0300
1000
0001
,
1000
0100
0100
0000
,
0220
0330
0002
0003
,
1000
0010
0020
0030
,
0001
1000
0010
0100
,
0100
1000
2000
3000
,
0010
0001
0010
0000
,
0001
0100
0001
0000
,
0100
0010
1000
0010
,
0001
0000
1001
0000
,
0010
0100
0010
0000
,
1000
0100
0001
0100
,
1000
0010
0010
0000
,
0001
0100
0100
0000
,
0001
0100
0010
0000
,
1000
0001
0010
0100
,
0010
0001
0001
0000
,
1000
0000
0110
0000
,
0200
0300
1000
0010
,
1000
0001
0001
0000
,
0020
0030
0100
0010
,
0010
1000
0010
0000
,
0002
0003
1000
0001
,
0010
0100
1000
0000
,
2000
3000
0100
0010
,
0100
0001
0001
0000
,
0020
0030
2000
3000
,
0100
0001
0200
0300
,
0110
0000
0000
0000
;

//---------------dance-single - ----------------
#NOTES:
     dance-single:
     :
     Beginner:
     2:
     0.108134,0.146167,0.034802,0.165308,0.000000,87.000000,83.000000,4.000000,19.000000,0.000000,0.000000,0.108134,0.146167,0.034802,0.165308,0.000000,87.000000,83.000000,4.000000,19.000000,0.000000,0.000000:
// measure 0
0000
0000
0000
0000
,  // measure 1
0000
0000
0000
0000
,  // measure 2
0000
0000
0000
0000
,  // measure 3
0000
0000
0000
0000
,  // measure 4
0001
0000
0002
0000
,  // measure 5
0003
0000
0010
0000
,  // measure 6
1000
0000
0100
0000
,  // measure 7
2000
0000
3000
0000
,  // measure 8
0010
0000
0020
0000
,  // measure 9
0030
0000
1000
0000
,  // measure 10
0100
0000
0001
0000
,  // measure 11
0000
0100
0100
0000
,  // measure 12
0010
0000
0020
0000
,  // measure 13
0030
0000
1000
0000
,  // measure 14
0001
0000
0100
0000
,  // measure 15
0002
0000
0003
0000
,  // measure 16
1000
0000
2000
0000
,  // measure 17
3000
0000
0001
0000
,  // measure 18
0010
0000
0100
0000
,  // measure 19
0000
0010
0010
0000
,  // measure 20
0100
0000
0000
0000
,  // measure 21
1001
0000
0000
0000
,  // measure 22
0001
0001
0000
0000
,  // measure 23
0010
0010
0000
0000
,  // measure 24
0100
0000
1000
0000
,  // measure 25
0100
0000
0010
0000
,  // measure 26
1000
1000
0000
0000
,  // measure 27
0100
0100
0000
0000
,  // measure 28
0001
0000
1000
0000
,  // measure 29
0010
0000
0110
0000
,  // measure 30
0200
0000
0300
0000
,  // measure 31
1000
0000
1000
0000
,  // measure 32
2000
0000
3000
0000
,  // measure 33
0010
0000
0010
0000
,  // measure 34
0020
0000
0030
0000
,  // measure 35
0001
0000
0001
0000
,  // measure 36
0002
0000
0003
0000
,  // measure 37
0200
0000
0300
0000
,  // measure 38
1000
0000
2000
0000
,  // measure 39
3000
0000
0010
0000
,  // measure 40
0001
0000
1000
0000
,  // measure 41
0002
0000
0003
0000
,  // measure 42
0010
0000
0020
0000
,  // measure 43
0030
0000
0100
0000
,  // measure 44
1000
0000
0001
0000
,  // measure 45
0000
0000
1001
0000
,  // measure 46
0100
0000
0200
0000
,  // measure 47
0300
0000
1000
0000
,  // measure 48
0010
0000
0001
0000
,  // measure 49
0020
0000
0030
0000
,  // measure 50
1000
0000
2000
0000
,  // measure 51
3000
0000
0001
0000
,  // measure 52
0010
0000
0010
0000
,  // measure 53
0100
0000
0100
0000
,  // measure 54
2000
0000
3000
0000
,  // measure 55
0002
0000
0003
0000
,  // measure 56
1001
0000
0000
0000
;
