#TITLE:Best of Me;
#SUBTITLE:;
#ARTIST:Maozon;
#TITLETRANSLIT:;
#SUBTITLETRANSLIT:;
#ARTISTTRANSLIT:;
#GENRE:;
#CREDIT:;
#MUSIC:Best of Me.ogg;
#BANNER:Best of Me.png;
#BACKGROUND:Best of Me-bg.png;
#CDTITLE:;
#SAMPLESTART:97.846;
#SAMPLELENGTH:15.000;
#SELECTABLE:YES;
#OFFSET:-0.128;
#BPMS:0.000=176.836
,192.000=88.418
,224.000=176.836
;
#STOPS:;
#BGCHANGES:;
#FGCHANGES:;

//--------------- dance-single - ----------------
#NOTES:
     dance-single:
     :
     Beginner:
     4:
     0,0,0,0,0:
0000
0000
0000
0000
,
0000
0000
0000
0000
,
0000
0000
0000
0000
,
0000
0000
0000
0000
,
0000
0000
0000
0000
,
0000
0000
0000
0000
,
0000
0000
0000
0000
,
0000
0000
0000
0000
,
1000
0000
0000
0000
,
1000
0000
0000
0000
,
0001
0000
0000
0000
,
0001
0000
0000
0000
,
0100
0000
0000
0000
,
0100
0000
0000
0000
,
0010
0000
0000
0000
,
0020
0000
0030
0000
,
0001
0000
0001
0000
,
0001
0000
0000
0000
,
1000
0000
1000
0000
,
1000
0000
0000
0000
,
0010
0000
0010
0000
,
0010
0000
0000
0000
,
0100
0000
0100
0000
,
0100
0000
0000
0000
,
0001
0000
1000
0000
,
0001
0000
0000
0000
,
0010
0000
0100
0000
,
0010
0000
0000
0000
,
1000
0000
0001
0000
,
1000
0000
0000
0000
,
0100
0000
0010
0000
,
0100
0000
0000
0000
,
1000
0000
1000
0000
,
1000
0000
1000
0000
,
0001
0000
0001
0000
,
0001
0000
0001
0000
,
0010
0000
0010
0000
,
0010
0000
0010
0000
,
0100
0000
0100
0000
,
0100
0000
0100
0000
,
0001
0001
0001
0000
,
0001
0001
0001
0000
,
1000
1000
1000
0000
,
1000
1000
1000
0000
,
0010
0010
0010
0000
,
0010
0010
0010
0000
,
0220
0000
0000
0000
,
0330
0000
0000
0000
,
1000
0000
1000
0000
,
1000
0000
1000
0000
,
0001
0000
0001
0000
,
0001
0000
0001
0000
,
0100
0000
0100
0000
,
0100
0000
0100
0000
,
0010
0000
0010
0000
,
0010
0000
0010
0000
,
0001
0001
0001
0000
,
0001
0001
0001
0000
,
0100
0100
0100
0000
,
0100
0100
0100
0000
,
0010
0010
0010
0000
,
0010
0010
0010
0000
,
1000
1000
1000
0000
,
2002
0000
3003
0000
,
1000
0000
1000
0000
,
0001
0000
0001
0000
,
1000
0000
1000
0000
,
0001
0000
0001
0000
,
0010
0000
0010
0000
,
0100
0000
0100
0000
,
0010
0000
0010
0000
,
0100
0000
0100
0000
,
0001
0001
0001
0000
,
1000
1000
1000
0000
,
0010
0010
0010
0000
,
0100
0100
0100
0000
,
0001
0001
0001
0000
,
1000
1000
1000
0000
,
2002
0000
0000
0000
,
3003
0000
0000
0000
;

//--------------- dance-single - ----------------
#NOTES:
     dance-single:
     :
     Easy:
     6:
     0,0,0,0,0:
0000
0000
0000
0000
,
0000
0000
0000
0000
,
0000
0000
0000
0000
,
0000
0000
0000
0000
,
0000
0000
0000
0000
,
0000
0000
0000
0000
,
0000
0000
0000
0000
,
0000
0000
0000
0000
,
0001
0000
0001
0000
,
1000
0000
1000
0000
,
0010
0000
0100
0000
,
0010
0000
0001
0000
,
1000
0100
0010
0100
,
0001
0100
0010
0100
,
1001
0000
0110
0000
,
2002
0000
0000
3003
,
1000
0100
0000
1000
,
0001
1000
0000
0001
,
0010
0001
0000
0010
,
0100
0100
0000
0010
,
0001
0010
0000
0001
,
0100
0001
0000
0100
,
0010
0100
0000
0010
,
1000
1000
0000
0010
,
0100
0001
0000
0100
,
0010
0100
0000
1000
,
0100
1000
0000
0010
,
0001
0001
0000
1000
,
0100
0010
0000
0100
,
0001
0100
0000
0010
,
1000
0001
0000
0100
,
0220
0000
0000
0330
,
0200
0300
0002
0003
,
0100
0010
0200
0300
,
2000
3000
0002
0003
,
1000
0010
2000
3000
,
0200
0300
0002
0003
,
0100
0010
0200
0300
,
0020
0030
2000
3000
,
0010
0001
0020
0030
,
0200
0300
1000
0100
,
2000
3000
0010
1000
,
0020
0030
0001
0010
,
0002
0003
1000
0100
,
2000
3000
0100
0001
,
0200
0300
0010
0100
,
0020
0000
0000
0030
,
0100
0000
0110
0000
,
0001
0010
0002
0003
,
1000
0001
2000
3000
,
0100
1000
0200
0300
,
0010
0100
0020
0030
,
0001
1000
0001
1000
,
0010
1000
0010
1000
,
0100
1000
0100
1000
,
2002
0000
0000
3003
,
1000
0100
0001
0000
,
0010
0001
0100
0000
,
1000
0001
0010
0000
,
0100
0001
1000
0000
,
0010
0001
0010
0100
,
1000
0100
0010
0100
,
0001
0000
1000
0000
,
2002
0000
0000
3003
,
0010
0100
0000
0010
,
0100
0001
0000
0100
,
0010
1000
0000
0010
,
1000
0001
0000
1000
,
0001
0100
0000
0001
,
0100
0010
0000
0100
,
0010
1000
0000
0010
,
1000
0001
0000
1000
,
0001
1000
0010
0000
,
0100
0010
0100
0000
,
0001
0010
0001
0000
,
0100
0001
0100
0000
,
1000
0100
0010
0000
,
0100
0001
0010
0000
,
0200
0000
0000
0300
,
0020
0030
0020
0030
;

//--------------- dance-single - ----------------
#NOTES:
     dance-single:
     :
     Medium:
     9:
     0,0,0,0,0:
0000
0000
0000
0000
,
0000
0000
0000
0000
,
0000
0000
0000
0000
,
0000
0000
0000
0000
,
0000
0000
0000
0000
,
0000
0000
0000
0000
,
0000
0000
0000
0000
,
0000
0000
0000
0000
,
0020
0030
2000
3000
,
0002
0003
0020
0030
,
2000
3000
0002
0003
,
0200
0300
0002
0003
,
0010
0100
0010
0100
,
0001
1000
0100
0010
,
0110
0000
0000
0101
0000
0000
1001
0000
,
0200
0000
0000
0300
,
2000
0000
0000
3002
0000
0000
2003
0000
,
0000
0000
0000
0000
3000
0010
0100
0010
,
0200
0000
0000
0302
0000
0000
0203
0000
,
0300
0010
1000
0010
0000
1000
0100
0000
,
0002
0000
0000
2003
0000
0000
3002
0000
,
0000
0000
0000
0000
0003
0010
1000
0010
,
2000
0000
0000
3020
0000
0000
0230
0000
,
0301
0000
1000
0001
0000
0010
0010
0000
,
2000
0000
0000
3200
0000
0000
0320
0000
,
0000
0000
0000
0000
0030
1000
0001
1000
,
0002
0000
0000
0023
0000
0000
0230
0000
,
0300
0010
0100
0010
0000
1000
0001
0000
,
0020
0000
0000
0230
0000
0000
0302
0000
,
0000
0000
0000
0000
0003
0010
0100
0010
,
0200
0000
0000
2300
0000
0000
3000
0000
,
0002
0000
0000
2003
0000
3002
0000
0003
,
1000
0100
0000
1000
,
0001
1000
0000
0001
,
0100
0010
0000
0100
,
0001
0000
0100
0000
0010
0001
0010
0000
,
1000
0100
0000
1000
,
0001
0010
0000
0001
,
0100
0010
0000
0100
,
1000
0000
0001
0000
1000
0100
0010
0000
,
0110
0100
0000
0001
,
1010
0000
0010
0000
0000
0100
0010
0000
,
1100
0000
1000
0000
0000
0100
0001
0000
,
1000
0000
0001
0000
1000
0100
1000
0000
,
0011
0000
0100
0000
0000
0010
0100
0000
,
0101
0000
0001
0000
0000
0010
0100
0000
,
2200
0000
0000
3300
,
1000
0001
0100
0010
,
1000
0100
1000
0200
0000
0000
0300
0000
,
0001
0100
0001
0200
0000
0000
0300
0000
,
0010
0100
0010
0200
0000
0000
0300
0000
,
1000
0001
1000
0002
0000
0000
0003
0000
,
0100
0001
0100
0001
0100
0000
0110
0000
,
0001
0100
0001
0100
0001
0000
1010
0000
,
1000
0010
1000
0010
1000
0000
0110
0000
,
0001
1000
0001
1000
0002
0000
0003
0000
,
0010
0001
0010
0001
,
0100
1000
0100
1000
,
0010
1000
0010
1000
,
0001
1000
0001
1001
,
0100
0000
0010
0000
0100
0010
0001
0000
,
1000
0000
0010
0000
0100
1000
0001
0000
,
1000
0100
0001
0010
,
0220
0000
0000
0330
,
0001
0000
1000
0000
0000
0001
0010
0000
,
1000
0000
0001
0000
0000
0100
0010
0000
,
0100
0000
1000
0000
0000
0010
0100
0000
,
0001
0000
1000
0000
0100
0001
0100
0000
,
0010
0000
0100
0000
0000
0001
0100
0000
,
0010
0000
1000
0000
0000
0001
0100
0000
,
1000
0000
0010
0000
0000
0100
0010
0000
,
0001
0000
0100
0000
0001
0010
0001
0000
,
1000
0000
0001
0000
0000
1000
0010
0000
,
0001
0000
1000
0000
0000
0100
0001
0000
,
0010
0000
0100
0000
0000
0100
1000
0000
,
0001
0000
1000
0000
0001
0100
0001
0000
,
0010
0000
0001
0000
0000
0100
0010
0000
,
0100
0000
0001
0000
0000
1000
0001
0000
,
0200
0000
0000
0300
,
1000
0100
0001
0100
1000
0000
2002
0000
,
3003
0000
0000
0000
;

//--------------- dance-single - ----------------
#NOTES:
     dance-single:
     :
     Hard:
     13:
     0,0,0,0,0:
0000
0000
0000
0000
,
0000
0000
0000
0000
,
0000
0000
0000
0000
,
0000
0000
0000
0000
,
0000
0000
0000
0000
,
0000
0000
0000
0000
,
0000
0000
0000
0000
,
0000
0000
0000
0000
,
2000
0010
0000
3010
,
0200
0010
0000
0310
,
0002
0010
0000
0013
,
0200
0010
0000
0310
,
1000
0010
0100
0010
0100
0001
1000
0001
,
0100
1000
0010
0001
1000
0010
0100
0001
,
0011
0000
0010
0001
0010
0000
0101
0000
0100
0001
0100
0000
1010
0000
1000
0010
,
2000
0000
0000
3000
,
1000
0000
0001
0000
0000
1000
0010
0000
,
1000
0000
0001
0000
0000
0100
0001
0000
,
0010
0000
0001
0000
0000
1000
0001
0000
,
1000
0000
1000
0000
0001
0000
0000
0100
0000
0000
0001
0000
1000
0000
0000
0000
,
0001
0000
0010
0000
0000
1000
0001
0000
,
1000
0000
0010
0000
0000
0100
0010
0000
,
0100
0000
0001
0000
0000
0100
0010
0000
,
0100
0000
0100
0000
0001
0000
0000
0100
0000
0000
0001
0000
0010
0000
0000
0000
,
1000
0000
0001
0100
0000
0100
0001
0000
,
0100
0000
0010
0000
0000
0100
0010
0100
,
1000
0000
0001
1000
0000
1000
0010
0000
,
0100
0000
1000
0000
0010
0000
0000
0100
0000
0000
0100
0000
0010
0000
0000
0000
,
0100
0000
0001
1000
0000
1000
0010
0000
,
1000
0010
0001
0000
0000
0100
0010
0000
,
1000
0000
0001
0100
0000
0100
0010
0000
,
0200
0000
0000
0001
0000
0001
0000
0300
,
0001
0000
0010
0100
0000
1000
0001
0000
,
0100
0010
0000
0100
0010
0001
0100
1000
,
0000
0000
0110
0000
0001
0010
0100
0000
,
2000
0000
0001
0000
3001
1000
0001
0000
,
0010
0000
0100
0010
0000
0100
0001
0000
,
1000
0001
0000
1000
0001
0100
0001
0010
,
0000
0000
0100
0000
0010
0100
0001
0000
,
0100
0000
0100
0000
1000
0000
0000
0100
0000
0000
0100
0000
0010
0000
0000
0000
,
0100
0000
0010
0100
0000
0001
1000
0000
,
0100
1000
0000
0010
0100
0001
0100
0010
,
0000
0000
1000
0000
0001
0100
0010
0000
,
1000
0000
0000
0001
0000
0000
1000
0000
0000
0001
0000
0000
0010
0100
0010
0100
,
0001
0000
1000
0010
0000
0100
0010
0000
,
1000
0001
0000
1000
0010
0100
0001
0100
,
0000
0000
0010
0000
1000
0001
0100
0000
,
0100
0010
1000
0100
0010
0001
0010
0100
,
1000
0000
0001
1000
0000
0001
1000
0000
0000
0100
0000
2000
0000
0000
0000
0000
0000
0000
3000
0000
0000
0000
0000
0000
,
0010
0000
0100
0010
0000
0100
0010
0000
0000
1000
0000
0200
0000
0000
0000
0000
0000
0000
0300
0000
0000
0000
0000
0000
,
0010
0000
0100
0010
0000
0100
0010
0000
0000
0100
0000
0002
0000
0000
0000
0000
0000
0000
0003
0000
0000
0000
0000
0000
,
0100
0000
1000
0100
0000
1000
0100
0000
0000
0100
0000
0020
0000
0000
0000
0000
0000
0000
0030
0000
0000
0000
0000
0000
,
1000
0000
0001
1000
0000
0001
1000
0000
0000
0100
0000
1000
0100
0000
0000
0010
0000
0000
0100
0000
0000
1000
0000
0000
,
0010
0000
0000
0000
0100
0000
0010
0000
0000
0000
0100
0000
0010
0000
0000
0000
0000
0000
0010
0000
0000
0000
1000
0000
0001
0000
0000
0000
0000
0000
0010
0000
0000
0000
0000
0000
0100
0000
0000
1000
0000
0000
0000
0000
0000
0000
0000
0000
,
0100
0000
0010
0100
0000
0010
0100
0000
0000
1000
0000
0010
0001
0000
0000
1000
0000
0000
0001
0000
0000
0100
0000
0000
,
1000
0000
0010
1000
0000
0010
1000
0000
0000
0100
0000
0020
0000
0000
0000
0000
0000
0000
0000
0000
0000
0030
0000
0000
,
1000
0100
0010
0100
,
0001
1000
0010
0100
,
0001
0100
0010
0100
,
0001
1000
0100
0110
,
0001
1000
0010
0100
0001
0100
0010
1000
,
0001
0010
0100
0001
1000
0010
0100
0001
,
1000
0100
1000
0100
0001
0100
0001
0100
1000
0010
1000
0010
0001
0010
0001
0010
,
0200
0000
0000
0300
,
1000
0000
0100
0010
0000
0100
0001
0000
,
0100
0100
0010
0001
0000
1000
0010
0000
,
0100
0000
0001
0100
0000
0100
0010
0000
,
1000
0000
1000
0000
0001
0000
0000
0100
0000
0000
0100
0000
0010
0000
0000
0000
,
1000
0000
0001
1000
0000
0100
0001
0000
,
0010
0010
1000
0010
0000
1000
0010
0000
,
0100
0000
0001
0010
0000
0100
0001
0000
,
1000
0000
1000
0000
0010
0000
0000
0100
0000
0000
0100
0000
0001
0000
0000
0000
,
0110
0000
0010
1000
0000
0100
0001
0000
,
1100
0000
0010
0100
0000
0100
0001
0000
,
1010
0000
0100
0001
0000
0100
0010
0000
,
1000
0000
0000
0010
0000
0000
0100
0000
0000
0010
0000
0000
0001
1000
0001
1000
,
0001
0010
0100
0001
0000
0100
0010
0000
,
1000
0001
1000
0010
0000
0100
0001
0000
,
2020
0000
0000
3030
,
1000
0100
0010
0001
1000
0100
0010
0002
,
0000
0000
0000
0000
,
0000
0000
0003
0000
;
