#TITLE:Back Into The Light;
#SUBTITLE:;
#ARTIST:Sota Fujimori;
#TITLETRANSLIT:;
#SUBTITLETRANSLIT:;
#ARTISTTRANSLIT:;
#GENRE:beatmania IIDX 10th style;
#CREDIT:;
#BANNER:Back Into the Light.png;
#BACKGROUND:Back Into the Light-bg.png;
#LYRICSPATH:;
#CDTITLE:;
#MUSIC:Back Into the Light.mp3;
#OFFSET:-0.250691;
#SAMPLESTART:69.402794;
#SAMPLELENGTH:13.333336;
#SELECTABLE:YES;
#BPMS:0.000000=144.000000
;
#STOPS:
;
#BGCHANGES:;
#KEYSOUNDS:;
#ATTACKS:;

//---------------dance-single - ----------------
#NOTES:
     dance-single:
     :
     Hard:
     12:
     0.538243,0.595713,0.219052,0.166480,0.350484,430.000000,405.000000,25.000000,19.000000,0.000000,0.000000,0.538243,0.595713,0.219052,0.166480,0.350484,430.000000,405.000000,25.000000,19.000000,0.000000,0.000000:
0000
0000
0000
0000
,
0000
0000
0000
0000
,
0000
0000
0000
0000
,
0000
0000
0000
0000
,
1000
0000
0001
0000
1000
0000
0100
1000
0000
0010
0000
1000
0000
0010
0100
0000
,
1000
0000
0010
0000
0100
0000
0001
0100
0000
0001
0000
1000
0000
1000
0100
0000
,
0001
0010
0001
0000
0010
0000
0010
1000
0000
0001
0000
1000
0000
0010
0100
0000
,
0010
0000
1000
0000
0010
0000
1000
0100
0000
0010
0000
1000
0000
0100
0001
0000
,
0100
0000
0010
0000
1000
0000
0000
0001
0000
0000
0010
0000
0010
0000
0000
0000
,
0100
0000
1000
0000
0100
0000
0000
1000
0000
0000
0001
0000
0010
0000
0000
0000
,
1000
0000
0001
0000
1000
0000
0000
0001
0000
0000
0010
0000
1000
0000
0100
0000
,
1000
0000
0001
0000
0100
0000
0000
0001
0000
0000
0100
0000
1000
0000
0000
0000
,
0100
0000
0001
0000
0100
0000
0010
1000
0000
1000
0000
0100
0000
0100
0010
0000
,
0001
0000
0100
0000
0010
0000
1000
0001
0000
1000
0000
0100
0000
1000
0100
0000
,
1000
0000
0001
0000
0010
0000
0001
1000
0000
0001
0000
1000
0000
0100
0010
0100
,
0001
0000
1000
0000
0100
0000
0100
0010
0000
1000
0000
0100
0010
0100
0000
0000
,
2001
0000
0000
0000
3010
0100
0010
0000
,
1000
0000
1000
0001
0000
0010
0010
0000
,
0100
1000
0100
0000
0001
0010
0100
0000
,
0100
0001
0100
0010
0000
1000
0001
0000
,
0010
1000
0100
0000
0100
0010
0001
0000
,
0010
0100
0010
1000
0000
0100
0010
0000
,
0010
0000
1000
0100
1000
0000
0010
0001
,
1000
0010
0001
1000
0010
0000
0100
0000
,
1002
0000
0000
0000
0010
0000
0100
0000
0013
0000
0000
1000
0000
0000
0100
0000
,
0000
0000
0001
0000
0001
0000
0000
0000
1000
0000
0000
0100
0000
0000
1000
0000
,
0010
0000
0000
0000
0001
0000
1000
0000
0100
0000
0000
0100
0000
0000
0001
0000
,
0000
0000
1000
0000
1000
0000
0000
0000
0010
0000
0000
0001
0000
0000
0100
0000
,
0100
0000
0000
0000
0001
0000
0000
0000
1000
0000
0000
0001
0000
0000
0010
0000
,
0000
0100
0001
1000
0000
1000
0100
0000
,
0010
0000
1010
0000
0100
0000
1100
1000
,
0000
0100
0010
0001
0000
1000
1000
0000
,
0110
0100
0010
1000
0001
0100
0001
0000
,
0100
1000
0100
0010
0001
1000
0001
0000
,
0010
0001
0010
0100
0010
1000
0100
0000
,
1000
0100
1000
0010
0001
0100
1000
0000
,
1000
0000
0000
0010
0000
0000
1000
0000
0000
0100
0000
0000
0001
0000
0000
0000
,
0010
0000
0000
0100
0000
0000
0010
0000
0001
0000
1000
0000
0010
0000
0000
0000
,
0010
0000
0000
0100
0000
0000
1000
0000
0000
0010
0000
0000
0100
0000
0000
0000
,
0021
0000
0000
0100
0000
0000
1000
0000
0032
0000
0000
0000
1003
0000
0000
0000
,
0201
0000
1300
0000
0010
1000
0010
0000
,
1000
0000
0001
0000
1000
0000
0100
0000
1000
0000
0000
0001
0000
0000
0010
0000
,
0002
0000
0013
0020
0000
0130
0200
0000
,
1000
0000
0000
0000
1300
0000
0010
0000
0100
0000
1000
0000
0000
0010
0000
0000
,
0200
0000
0000
0000
0010
0300
1000
0000
0010
0000
0100
0000
0001
0000
0010
0000
,
1000
0100
0010
1000
0100
1000
0001
0000
,
0001
0100
0010
0000
0100
1000
0100
0000
,
1000
0010
0100
0001
0100
0001
0010
0000
,
0120
0000
0000
0000
1000
0030
0100
0000
1000
0000
1000
0001
0000
0001
1000
0000
,
0102
0000
0000
0000
0013
0000
0100
0000
0010
0000
0010
1000
0000
1000
0100
0000
,
0021
0000
0000
0000
0130
0000
1000
0000
0100
0000
0100
0001
0000
0001
0010
0000
,
2100
0000
0000
0000
3001
0000
0100
0000
0001
0000
0001
0010
0000
0010
1000
0000
,
2010
0000
0000
0000
3001
0000
0010
0000
1000
0000
1000
0010
0000
0010
0001
0000
,
0201
0000
0000
0000
0310
0000
0001
0000
0010
0000
0010
1000
0000
1000
0001
0000
,
1002
0000
0000
0000
1003
0000
0010
0000
1000
0000
1000
0100
0000
0100
0001
0000
,
0210
0000
0000
0000
0301
0000
0010
0000
0100
0000
0100
0001
0000
0001
0010
0000
,
1000
0000
0000
0000
1001
0000
0000
0010
0000
0000
0010
0000
1010
0000
0000
0000
,
0100
0000
0000
0000
1100
0000
0000
1000
0000
0000
0100
0000
0110
0000
0000
0000
,
0010
0000
0000
0000
0011
0000
0000
0001
0000
0000
0001
0000
0101
0000
0000
0000
,
0100
0000
0000
0000
0110
0000
0000
0010
0000
0000
0010
0000
1001
0000
0010
0000
,
1000
0000
0100
0000
1000
0000
1000
0001
0000
0010
0000
0100
0010
0000
0001
0000
,
0100
0000
0010
0000
0100
0000
0100
1000
0000
0100
0000
0001
0010
0000
1000
0000
,
1000
0000
0001
0000
1000
0000
0010
1000
0000
1000
0100
0000
0010
0000
0001
0000
,
0100
0000
0100
0000
1000
0000
0000
1001
0000
0000
0010
0000
0100
0000
0010
0000
,
2002
0000
0000
3003
;

//---------------dance-single - ----------------
#NOTES:
     dance-single:
     :
     Medium:
     8:
     0.424336,0.425509,0.087621,0.078859,0.043810,339.000000,329.000000,10.000000,9.000000,0.000000,0.000000,0.424336,0.425509,0.087621,0.078859,0.043810,339.000000,329.000000,10.000000,9.000000,0.000000,0.000000:
0000
0000
0000
0000
,
0000
0000
0000
0000
,
0000
0000
0000
0000
,
0000
0000
0000
0000
,
0010
0000
0000
0000
0010
0000
0000
1000
0000
0000
0001
0000
1000
0000
0000
0000
,
0001
0000
0000
0000
0010
0000
0000
0001
0000
0000
0100
0000
0010
0000
0000
0000
,
1000
0000
0100
0000
1000
0000
0000
0001
0000
0000
1000
0000
0010
0000
0000
0000
,
0001
0000
0100
0000
0001
0000
0000
0010
0000
0000
1000
0000
1000
0000
0000
0000
,
0110
0000
0001
0000
1000
0010
0100
0000
,
0001
0000
1000
0010
1000
0000
0100
0000
,
0010
1000
0010
0000
0100
1000
0001
0000
,
0010
0100
1000
0100
0001
0000
0100
0000
,
0001
0000
0001
1000
0000
1000
0010
0000
,
0100
1000
0100
0001
0000
1000
0001
0000
,
0010
1000
0100
0000
0001
0100
0010
0000
,
1000
0100
0010
0100
0001
1000
0100
0000
,
2002
0000
3003
0000
1000
0000
1000
0010
,
0000
0000
0010
1000
0000
0010
0000
0001
,
0002
0000
0003
0100
1000
0000
0100
0010
,
0000
0010
0000
0001
1000
0010
0000
2000
,
0000
0001
3010
0001
0000
1000
0000
0010
,
0100
0000
1000
0001
0000
0100
1000
0100
,
0000
0001
1000
0100
0000
0010
0100
0000
,
0010
0001
0100
0010
1000
0000
1001
0000
,
0200
0000
0302
0000
1003
0000
0010
1000
,
0000
1000
0010
0001
0000
1000
0000
0100
,
0020
0000
0230
0000
0301
1000
0000
1001
,
0000
0100
0000
1000
0010
1000
0000
0001
,
0000
0010
0100
0010
0000
1000
0100
0000
,
0010
0000
0001
1000
0000
0100
0010
0001
,
0000
0100
0000
0001
0000
1000
0100
0000
,
0100
0000
0001
0010
0000
1000
0001
1000
,
0100
0000
0100
0001
0000
0001
0010
0000
,
0100
0010
0100
0001
0000
1000
0100
0010
,
0001
0000
0001
0100
0000
0100
1000
0000
,
0010
1000
0100
1000
0000
0010
0010
0000
,
1000
0000
1000
0100
0000
0010
0000
1000
,
0000
0001
0000
1000
0000
0010
0100
0000
,
1000
0001
1000
0000
0010
1000
0010
0000
,
0100
0010
0100
0001
1000
0001
0010
0000
,
0110
1000
0100
0010
,
1000
0000
0001
0000
0010
0000
0000
0000
1000
0000
0000
0010
0000
0000
1000
0000
,
0001
0000
0100
0000
0010
1000
0100
0000
,
1000
0010
1000
0100
0001
0000
0101
0000
,
0100
0000
0001
0100
0010
0000
0100
1000
,
0010
1000
0001
0000
0010
0001
1000
0000
,
0100
0000
0010
0001
0000
0010
1000
0000
,
0010
0100
0001
0000
1000
0000
1010
0000
,
0100
0000
0010
0000
1000
0010
0001
0000
,
0100
0000
1000
0100
0000
1000
0010
0000
,
0100
1000
0100
0000
0010
0001
0010
0000
,
0100
0010
0001
0100
1000
0000
0011
0000
,
0010
0000
0100
1000
0001
0000
0001
0010
,
0100
0010
1000
0000
0100
0000
1000
0000
,
1000
0001
0100
0000
0010
0100
0001
0000
,
0100
1000
0010
0100
0001
0000
1100
0000
,
0010
0000
0000
0000
0100
0000
0000
1000
0000
0000
0001
0000
0000
0000
0010
0000
,
1000
0000
0000
0000
0010
0000
0000
0001
0000
0000
0100
0000
0000
0000
0001
0000
,
0100
0000
0000
0000
1000
0000
0000
0010
0000
0000
0100
0000
0000
0000
0010
0000
,
1000
0000
0000
0000
0010
0000
0000
0100
0000
0000
0010
0000
0000
0000
0001
0000
,
1000
0100
1000
0000
0001
0100
1000
0100
,
1000
0010
0001
0000
0010
0100
1000
0000
,
0100
1000
0100
0010
0001
0100
1000
0001
,
0100
0000
0000
0000
0001
0000
0000
1001
0000
0000
0100
0000
1000
0000
0000
0000
,
0020
0000
0000
0030
;

//---------------dance-single - ----------------
#NOTES:
     dance-single:
     :
     Easy:
     5:
     0.246590,0.252348,0.105145,0.280387,0.000000,197.000000,185.000000,12.000000,32.000000,0.000000,0.000000,0.246590,0.252348,0.105145,0.280387,0.000000,197.000000,185.000000,12.000000,32.000000,0.000000,0.000000:
// measure 0
0000
0000
0000
0000
,  // measure 1
0000
0000
0000
0000
,  // measure 2
0000
0000
0000
0000
,  // measure 3
0000
0000
0000
0000
,  // measure 4
0100
0000
1000
0010
,  // measure 5
0001
0000
0001
0010
,  // measure 6
0100
0000
0100
1000
,  // measure 7
0010
0100
0001
0000
,  // measure 8
2002
3003
0010
0100
,  // measure 9
1000
0000
1000
0100
,  // measure 10
0010
0100
0001
0000
,  // measure 11
0010
0000
1000
0000
,  // measure 12
0110
0000
0100
0001
,  // measure 13
0010
0010
0001
0000
,  // measure 14
1000
0100
1000
1000
,  // measure 15
0010
0100
0001
0000
,  // measure 16
0200
0300
1000
0010
,  // measure 17
2000
3000
0002
0003
,  // measure 18
0020
0030
0100
0100
,  // measure 19
0002
0003
0020
0030
,  // measure 20
1000
0001
2000
3000
,  // measure 21
0010
1000
0020
0030
,  // measure 22
0100
0001
0010
1000
,  // measure 23
0001
0010
0200
0300
,  // measure 24
1001
0000
0100
0000
,  // measure 25
0010
1000
0100
0000
,  // measure 26
0110
0000
0100
0000
,  // measure 27
0001
0001
0010
0000
,  // measure 28
1000
0010
0100
0000
,  // measure 29
0100
0001
0010
0000
,  // measure 30
0010
0001
1000
0100
,  // measure 31
0010
0000
1001
0000
,  // measure 32
0010
1000
0020
0030
,  // measure 33
0100
0001
0100
0010
,  // measure 34
1000
0001
2000
3000
,  // measure 35
0010
0010
0100
1000
,  // measure 36
0010
0001
0200
0300
,  // measure 37
0010
1000
0100
1000
,  // measure 38
0010
0100
0002
0003
,  // measure 39
0010
0100
1000
0000
,  // measure 40
2002
3003
0010
0100
,  // measure 41
0010
0001
0001
0000
,  // measure 42
0220
0330
0100
1000
,  // measure 43
0010
0010
1000
0000
,  // measure 44
2002
3003
0100
1000
,  // measure 45
0010
1000
0001
0000
,  // measure 46
0220
0330
0100
0010
,  // measure 47
1000
1000
0001
0000
,  // measure 48
0010
0100
0010
1000
,  // measure 49
0001
0100
0010
0010
,  // measure 50
1000
0100
0100
0001
,  // measure 51
1000
0010
1000
0000
,  // measure 52
0200
0300
1000
0010
,  // measure 53
0002
0003
0010
0100
,  // measure 54
0020
0030
0100
0100
,  // measure 55
1000
0001
0010
0000
,  // measure 56
0220
0330
0100
1000
,  // measure 57
0001
0001
0010
0000
,  // measure 58
2002
3003
0100
1000
,  // measure 59
0010
1000
0001
0000
,  // measure 60
0010
1000
0020
0030
,  // measure 61
0100
1000
0001
1000
,  // measure 62
0010
0010
0002
0003
,  // measure 63
0100
1000
0010
0000
,  // measure 64
0110
0000
0000
0000
;
