#TITLE:BOMBER BOMBER;
#SUBTITLE:;
#ARTIST:DJ NAGAI;
#TITLETRANSLIT:;
#SUBTITLETRANSLIT:;
#ARTISTTRANSLIT:;
#GENRE:;
#CREDIT:;
#BANNER:BOMBER BOMBER.png;
#BACKGROUND:BOMBER BOMBER-bg.png;
#LYRICSPATH:;
#CDTITLE:;
#MUSIC:BOMBER BOMBER.ogg;
#OFFSET:-1.653803;
#SAMPLESTART:40.324001;
#SAMPLELENGTH:15.000000;
#SELECTABLE:YES;
#BPMS:0.000000=96.500000
,48.000000=193.000000
,76.000000=96.500000
,78.000000=193.000000
,142.000000=96.500000
,174.000000=193.000000
,202.000000=96.500000
,204.000000=193.000000
,264.000000=96.500000
;
#STOPS:
;
#BGCHANGES:;
#KEYSOUNDS:;
#ATTACKS:;

//---------------dance-single - ----------------
#NOTES:
     dance-single:
     :
     Hard:
     13:
     0.562952,0.688764,0.280868,0.161712,0.276612,463.000000,430.000000,33.000000,19.000000,0.000000,0.000000,0.562952,0.688764,0.280868,0.161712,0.276612,463.000000,430.000000,33.000000,19.000000,0.000000,0.000000:
0000
0000
0000
0000
,
0000
0000
0000
0000
,
0000
0000
0000
0000
,
0000
0000
0000
0000
0000
0000
0000
0000
0000
0000
1000
0000
0000
0100
0100
0100
,
0010
0000
0000
0000
0110
0000
0000
0001
0000
0000
1000
0000
1001
0000
0010
0000
,
0020
0000
0000
0000
1000
0000
0000
0100
0030
0000
0001
0000
0011
0000
0010
0000
,
1000
0000
0000
0000
1010
0000
0000
0100
0000
0000
0001
0000
0110
0000
0100
0000
,
0002
0000
0000
0010
0000
0000
0013
0000
0100
1000
0100
1000
0000
0001
0001
0001
,
0010
0000
1000
0010
1000
0000
0100
0001
0000
0100
0010
0000
0001
1000
0001
0000
,
0100
0000
1000
0100
0010
0000
0100
1000
0000
0000
0001
0000
0101
0000
0100
0000
,
0001
0000
1000
0000
1000
0000
0010
0100
0010
0100
1000
0000
0001
0010
0100
0000
,
1000
0000
0010
0001
0010
0000
0100
0010
0100
0000
1000
0010
1000
0010
0001
0000
,
0100
0000
0001
0200
0000
0000
0310
0000
,
1000
0000
0001
1000
1000
0001
0011
0000
,
1000
0000
0001
2000
0000
0000
3100
0000
,
0010
0000
0001
0000
0100
0000
0010
0000
1000
0000
0100
0000
0001
0000
0000
0010
0000
0000
0110
0000
0000
0000
0000
0000
,
0010
0000
1000
0100
0010
0000
0001
1000
,
0010
0100
1000
0000
0001
0010
0010
0000
,
0100
0000
0000
0000
1000
0000
0000
0000
0100
0000
0000
0000
0010
0000
0000
0000
0100
0000
0000
0000
0001
0000
0000
0000
1000
0000
0000
0000
0000
0000
0000
0000
0000
0001
0000
0000
0000
0000
0000
0000
0000
0000
2010
0000
0000
0000
0000
0000
,
0000
0010
0000
0100
3010
0000
0110
0000
1000
0000
0000
0000
0010
0000
0000
0000
,
1000
0000
0100
0001
0000
0010
0000
0110
,
0000
0001
0010
0001
0000
0010
1000
0010
,
0001
0001
1000
0001
0100
0000
0100
0010
,
0000
0010
2010
0000
3001
0000
0010
0000
,
0001
0000
1000
0010
0000
0100
0000
0101
,
0000
1000
0100
1000
0000
0001
1000
0010
,
1000
0100
0001
0010
0200
0000
0010
0000
,
1000
1000
1300
0000
0010
0000
0001
0000
,
1000
0000
1001
0000
0100
0000
0010
0100
,
1000
0100
0001
0000
1000
0010
0100
0000
,
0100
0010
0001
0000
0010
0000
0010
0001
,
0000
0001
1002
0000
0013
0100
0010
1000
,
0001
0000
0100
1000
0000
0010
0100
0000
,
0010
0001
1000
0000
0010
0100
0010
0001
,
0100
1000
0010
0100
0010
0000
2000
0000
,
3200
0302
0023
0001
,
1000
0000
0000
0000
0100
0000
0000
0030
1000
0000
0000
0000
0010
0000
0000
0100
,
0000
0100
0001
0010
2000
0000
0100
0000
,
0001
0000
0010
0000
0010
0000
0000
3000
0100
0000
0010
0000
0001
0000
0001
0000
,
0010
0100
0010
1000
0100
0000
1100
0000
0001
0000
0100
0010
0100
0000
1000
0010
,
0000
0010
0100
0000
0001
0000
1000
0000
0010
0000
0001
1000
0000
0001
0100
0001
,
0000
0000
0010
0000
1010
0000
1000
0000
0100
0000
0001
1000
0001
0010
0100
0000
,
0001
1000
0100
0000
0010
0000
1000
0010
1000
0000
0001
0000
0010
0000
0100
1000
,
0100
0000
0100
0000
0001
1000
1001
0000
0010
0000
0000
0000
1000
0000
0020
0000
,
0000
0000
0000
0000
0130
0000
0000
0000
0001
0000
0000
0001
0000
0000
0010
0000
,
0100
0001
0101
0000
1000
0000
0010
2000
,
0000
0000
0000
3001
0000
0000
1000
0100
0001
1000
0010
0001
,
0100
1000
1100
0000
0010
0100
0010
0100
,
1000
0001
1000
0001
0010
0100
0001
0100
,
1000
0000
0000
0100
0000
0000
0010
0000
0000
0001
0000
0000
0100
0000
0010
0000
0100
0000
0001
0000
1000
0000
0001
0000
,
0010
0000
0000
0001
0000
0000
0120
0000
0000
1000
0000
0100
1030
0000
1001
0000
,
0010
0000
0001
0000
0010
0000
0100
0010
,
0000
0100
1000
0000
0010
0001
0010
0000
,
0001
0100
1000
0010
1000
1000
0100
0000
,
1001
0000
1000
1010
0000
0100
0110
0000
,
1000
0000
0100
0000
0001
0000
0100
0001
,
0000
0010
1000
0000
0010
0100
0010
0000
,
0001
0100
0001
1000
0100
0010
1000
0010
,
0002
0000
0010
0000
0100
0100
0103
0000
,
1000
0001
1000
0010
1000
0000
1100
0000
,
0010
0100
0010
0001
0100
0001
1000
0000
,
0010
0100
0001
1000
0010
0001
1000
0100
,
1100
0000
0010
0011
0000
1000
1010
0000
,
0001
0000
0000
0100
0001
0000
1000
0000
0010
0000
0000
1000
0010
0000
0100
0000
,
1000
0000
0000
0001
1000
0000
0010
0000
0100
0000
0000
0001
0100
0000
0010
0000
,
0001
1000
0010
0001
0100
1000
0010
1000
,
0001
0110
1100
0101
2002
0000
0000
0000
,
0000
0000
0000
0000
0000
0000
0000
3003
0000
0000
0000
0000
0000
0000
0000
0000
;

//---------------dance-single - ----------------
#NOTES:
     dance-single:
     :
     Medium:
     9:
     0.431637,0.602669,0.178734,0.076600,0.055322,355.000000,334.000000,21.000000,9.000000,0.000000,0.000000,0.431637,0.602669,0.178734,0.076600,0.055322,355.000000,334.000000,21.000000,9.000000,0.000000,0.000000:
0000
0000
0000
0000
,
0000
0000
0000
0000
,
0000
0000
0000
0000
,
0000
0000
0000
0000
,
1000
0000
0010
0000
1000
0000
0010
0100
,
0100
0000
0001
0000
0100
0010
0001
0010
,
0100
0000
0010
0000
1000
0000
0100
0001
,
0001
0000
1000
0000
0010
1000
1100
0100
,
0001
0000
0000
0000
0010
0000
1000
0100
0000
1000
0010
0000
0100
0000
0001
0000
,
0001
0000
0010
0000
0100
0000
0010
1000
0000
0010
1000
0000
1010
0000
0001
0000
,
0100
0000
0010
0000
0100
0000
1000
0100
0000
0001
0100
0000
0010
0000
0010
0000
,
1000
0000
0001
0000
0100
0000
0001
0000
0010
0001
0010
0000
0100
0000
0100
0000
,
0011
0000
0000
1100
0000
0000
1000
0000
,
0010
0000
1000
0000
0010
0001
0010
0000
,
0110
0000
0000
1001
0000
0000
0010
0000
,
1000
0000
1000
0000
0100
1000
0100
0000
,
1000
0000
0010
0000
0001
0000
0010
0100
,
0010
0000
0001
0000
1000
0001
1000
0000
,
0100
0000
0010
0000
0100
0000
0000
0000
0010
0000
0000
0001
0000
0000
2000
0000
,
0000
0010
3010
0011
0100
0000
0001
0000
,
0010
0000
0100
1000
0100
0000
0010
0000
,
0001
0100
0001
0000
0010
0000
1000
0000
,
0001
0000
1000
0000
0010
0000
1000
0010
,
0000
1000
0100
0000
0001
0000
1000
0000
,
0010
0000
1000
0000
0010
0100
0010
0000
,
1000
0001
0100
0010
,
0001
1000
0001
0100
1000
0000
0010
0000
,
0110
0101
0001
1000
,
0010
0000
0100
0010
0100
0000
0001
0000
,
1000
0100
1000
0000
0010
0000
0100
0000
,
0010
0000
0001
0000
0100
1000
0100
0000
,
0010
0000
0001
0000
0100
0000
0001
0100
,
0001
0000
1000
0000
0100
0010
0100
0000
,
0001
0000
1000
0000
0010
0000
0100
1000
,
0100
0010
0100
0000
0001
0000
1000
0000
,
1100
0000
0010
0000
2001
0000
0010
3000
,
0010
0010
0100
1000
,
0100
0001
0100
0000
1000
0000
0001
0000
,
1000
0000
0100
0000
0001
0000
0010
0100
,
0010
0000
1100
0100
0010
0000
1000
0000
,
0100
0001
0001
0100
0010
0000
1000
0100
,
1000
0010
1000
0000
0110
0000
0100
0000
0001
0000
0010
0000
1000
0000
0010
1000
,
0000
0010
0001
0000
0100
0000
1000
0000
0010
0000
0010
0000
0001
0100
0001
0000
,
0100
1000
1001
0010
0011
0000
0000
1200
,
0000
1300
0001
0010
,
0001
0100
1000
0000
1010
0000
0000
0210
,
0000
0310
1000
0001
,
1000
0010
0100
0000
0001
0000
0001
0000
,
0100
0100
1000
0010
,
0100
0000
1000
0000
0010
0001
0100
0000
,
0001
0000
0000
1000
0000
0000
0020
0000
0000
0000
1000
0000
1030
0000
0101
0000
,
0001
0010
0100
0010
,
1000
0000
0010
0100
0010
0000
0100
0000
,
1000
0000
0100
0000
0001
0010
0001
0000
,
1000
0000
1000
0000
0001
0010
0010
0000
,
0001
0000
1000
0000
0010
0000
0100
1000
,
0100
0000
0010
0000
1000
0000
0001
0010
,
0001
0010
0100
0010
,
0001
0100
0001
0000
1100
0000
0110
0000
,
1000
0000
0001
0000
0100
0000
1000
0010
,
0100
0000
0010
0000
0001
0000
1000
0001
,
0100
0000
0010
0000
0100
0001
0100
0000
,
1000
0000
0010
0100
0000
0001
1000
0000
,
0001
0000
0100
0001
0100
0000
0001
1000
,
0001
0000
1000
0010
1000
0000
0010
0100
,
0010
0000
0010
0000
1000
0001
0100
0010
,
0100
2000
3200
0302
2000
0000
0000
0000
,
0000
0000
0000
0000
0000
0000
0000
3003
0000
0000
0000
0000
0000
0000
0000
0000
;

//---------------dance-single - ----------------
#NOTES:
     dance-single:
     :
     Easy:
     7:
     0.329503,0.396194,0.195756,0.085111,0.000000,271.000000,248.000000,23.000000,10.000000,0.000000,0.000000,0.329503,0.396194,0.195756,0.085111,0.000000,271.000000,248.000000,23.000000,10.000000,0.000000,0.000000:
0000
0000
0000
0000
,
0000
0000
0000
0000
,
0000
0000
0000
0000
,
0000
0000
0000
0000
,
0001
0000
0100
0000
1000
0000
0100
0010
,
0010
0000
0100
0000
1000
0000
0010
0001
,
0001
0000
0010
0000
0100
0000
0001
1000
,
1000
0000
0100
0000
0010
0010
0010
0000
,
1000
0000
1010
0000
0100
0001
0100
0000
,
0010
0000
0011
0000
1000
0010
1000
0000
,
0100
0000
0110
0000
1000
0001
1000
0000
,
0010
0000
1010
0000
0100
0001
0100
0010
,
2000
0000
0010
0000
,
3010
0100
0010
0000
,
0020
0000
0100
0000
,
0130
1000
1000
0000
,
0100
0001
0100
1000
,
0001
0010
0100
0100
,
1000
0001
0100
1100
,
0000
1000
1000
1000
0100
0000
0010
0000
,
0100
1000
0001
0100
,
0010
0010
0100
1000
,
0100
0000
1000
0000
0001
0000
0000
0010
,
0000
0110
0100
1000
,
0001
1000
0010
0001
,
1000
1000
0010
1000
,
0100
1000
2002
0000
,
0000
3003
0010
0010
,
0010
0110
1000
0100
,
0010
1000
0001
0100
,
0010
0000
0100
0000
0010
0000
0000
0100
,
0000
0101
0100
1000
,
0010
0100
0010
0001
,
1000
0001
0010
0010
,
0100
0010
1000
0000
,
0110
0000
0100
1000
,
0100
1010
0010
1000
,
0001
0110
0010
1000
,
0100
1001
0010
0100
,
1100
0000
0101
0000
0001
0010
0001
0000
,
0100
1000
0100
0000
1000
0010
1000
0000
,
0010
0100
0010
0000
1000
1000
0010
0000
,
0100
0100
0001
0000
0010
0010
1000
0100
,
1000
0000
0110
0000
0020
0000
0000
0200
,
0000
0330
1000
1000
,
0100
0000
1000
0000
0002
0000
0000
0020
,
0000
0033
1000
0001
,
0100
0100
1000
0001
,
0100
0010
0100
0001
,
1000
0100
0010
0010
,
0100
0000
1001
0000
0000
0100
0100
0100
,
0001
0010
1000
0010
,
1000
0100
0010
0100
,
0001
0001
0100
1000
,
0010
0000
0000
0100
0000
0000
1100
0000
,
0010
1000
0010
0100
,
1000
0010
0001
1000
,
0100
0100
0010
0100
,
0202
0000
0000
0303
,
1000
1000
1000
1010
,
0001
0100
0010
0100
,
0010
0001
1000
0010
,
0100
0000
0000
0010
0000
0000
0011
0000
,
1000
0010
0001
0010
,
1000
0100
0001
0100
,
1000
0010
0001
0100
,
1000
1001
0110
0000
;

//---------------dance-single - ----------------
#NOTES:
     dance-single:
     :
     Beginner:
     3:
     0.134962,0.198097,0.034045,0.017022,0.000000,111.000000,107.000000,4.000000,2.000000,0.000000,0.000000,0.134962,0.198097,0.034045,0.017022,0.000000,111.000000,107.000000,4.000000,2.000000,0.000000,0.000000:
// measure 0
0000
0000
0000
0000
,  // measure 1
0000
0000
0000
0000
,  // measure 2
0000
0000
0000
0000
,  // measure 3
0000
0000
0000
0000
,  // measure 4
0010
0000
0010
0000
,  // measure 5
0010
0000
0010
0000
,  // measure 6
0100
0000
0100
0000
,  // measure 7
0100
0000
0100
0000
,  // measure 8
1000
0000
1000
0000
,  // measure 9
1000
0000
1000
0000
,  // measure 10
0001
0000
0001
0000
,  // measure 11
0001
0000
0001
0000
,  // measure 12
0100
0000
0000
0000
,  // measure 13
0100
0000
0000
0000
,  // measure 14
0010
0000
0000
0000
,  // measure 15
0010
0000
0000
0000
,  // measure 16
1000
0000
1000
0000
,  // measure 17
0001
0000
0001
0000
,  // measure 18
1000
0000
0001
0000
,  // measure 19
0000
0000
0100
0000
,  // measure 20
0100
0000
0010
0000
,  // measure 21
0010
0000
0100
0000
,  // measure 22
0010
0000
0100
0000
,  // measure 23
0010
0000
0001
0000
,  // measure 24
0001
0000
1000
0000
,  // measure 25
1000
0000
0001
0000
,  // measure 26
1000
0000
0001
0000
,  // measure 27
1000
0000
1001
0000
,  // measure 28
0000
0000
0010
0000
,  // measure 29
0010
0000
0100
0000
,  // measure 30
0100
0000
0010
0000
,  // measure 31
0010
0000
1000
0000
,  // measure 32
1000
0000
0001
0000
,  // measure 33
0001
0000
1000
0000
,  // measure 34
0001
0000
1000
0000
,  // measure 35
0000
0000
0020
0000
,  // measure 36
0000
0000
0030
0000
,  // measure 37
0000
0000
0200
0000
,  // measure 38
0000
0000
0300
0000
,  // measure 39
0000
0000
0001
0000
,  // measure 40
0001
0000
1000
0000
,  // measure 41
1000
0000
0001
0000
,  // measure 42
0001
0000
1000
0000
,  // measure 43
1000
0000
1001
0000
,  // measure 44
0000
0000
0000
0000
,  // measure 45
0000
0000
0110
0000
,  // measure 46
0000
0000
0000
0000
,  // measure 47
0000
0000
0010
0000
,  // measure 48
0010
0000
0100
0000
,  // measure 49
0100
0000
0001
0000
,  // measure 50
1000
0000
0000
0000
,  // measure 51
1000
0000
1000
0000
,  // measure 52
0001
0000
0001
0000
,  // measure 53
1000
0000
0001
0000
,  // measure 54
1000
0000
0001
0000
,  // measure 55
0100
0000
0100
0000
,  // measure 56
0010
0000
0010
0000
,  // measure 57
0100
0000
0010
0000
,  // measure 58
0100
0000
0000
0000
,  // measure 59
0010
0000
0010
0000
,  // measure 60
1000
0000
1000
0000
,  // measure 61
0001
0000
0001
0000
,  // measure 62
0100
0000
0100
0000
,  // measure 63
0010
0010
0010
0000
,  // measure 64
0100
0100
0100
0000
,  // measure 65
1000
0000
0001
0000
,  // measure 66
1000
0000
1001
0000
;
