#TITLE:BABY LOVE;
#SUBTITLE:;
#ARTIST:Noria;
#TITLETRANSLIT:;
#SUBTITLETRANSLIT:;
#ARTISTTRANSLIT:;
#GENRE:;
#CREDIT:;
#BANNER:BABY LOVE.png;
#BACKGROUND:BABY LOVE-bg.png;
#LYRICSPATH:;
#CDTITLE:;
#MUSIC:BABY LOVE.ogg;
#OFFSET:-0.728389;
#SAMPLESTART:18.698462;
#SAMPLELENGTH:12.000000;
#SELECTABLE:YES;
#BPMS:0.000000=160.000000
;
#STOPS:
;
#BGCHANGES:;
#KEYSOUNDS:;
#ATTACKS:;

//---------------dance-single - ----------------
#NOTES:
     dance-single:
     :
     Hard:
     12:
     0.586021,0.664906,0.358440,0.286752,0.087619,515.000000,470.000000,45.000000,36.000000,0.000000,0.000000,0.586021,0.664906,0.358440,0.286752,0.087619,515.000000,470.000000,45.000000,36.000000,0.000000,0.000000:
0000
0000
0000
0000
,
0000
0000
0000
0000
,
1001
0100
0010
0100
1100
1000
0001
0100
,
0110
0000
0101
0000
1010
0100
0010
0001
,
1001
0000
0100
0000
0010
0000
0100
0000
0001
0000
0000
0010
0000
0000
0100
0000
,
0000
0000
1000
0000
0010
0000
1000
0000
0100
0000
0000
0001
0000
0000
0000
0000
,
0001
0000
0010
0000
0001
0000
0010
0000
0001
0000
0000
1000
0000
0000
0100
0000
,
0000
0000
1000
0000
0010
0000
0100
0000
1000
0010
1000
0010
0000
0000
0001
0000
,
0100
0000
1000
0000
0100
0000
0010
0000
0001
0000
0000
0100
0000
0000
0010
0000
,
0000
0000
0100
0000
0001
0000
1000
0000
0010
1000
0010
1000
0000
0000
0000
0000
,
0010
0000
0001
0000
0100
0000
0010
0000
1000
0000
0000
1000
0000
0000
1000
0000
,
0000
0000
0100
0000
0010
0000
0001
0000
1000
0100
1000
0100
1000
0000
0000
0000
,
0010
0010
1010
0000
0000
0100
0101
0000
,
1000
1000
1001
0010
0000
0010
1010
0000
,
0100
0100
0110
0000
0000
0001
1001
0000
,
0010
0000
0010
0001
0000
0000
0100
0010
0100
0010
0000
0000
1001
0000
0000
0000
,
0001
0001
0011
0000
0000
0100
0101
0000
,
0100
0100
1100
0010
0000
0001
0110
0000
,
0020
0230
0302
2003
,
3002
0000
0203
0000
0310
0100
0010
1000
,
0000
0100
0010
0001
0000
0100
0010
0100
,
0000
1000
0001
0020
0000
0000
0030
1000
,
0000
0100
0001
0100
0010
1000
0000
0002
,
0000
0000
0100
0000
0000
0000
0103
1000
,
0100
0000
0100
0010
0000
0001
0010
0000
,
0110
0100
0010
1100
0000
0010
0010
0000
,
1000
0100
0001
0100
0000
0010
1000
0001
,
1000
0100
0010
1000
0000
0001
0100
1000
,
0000
1000
0100
1000
0000
0010
0001
0020
,
0000
0230
0000
0302
0000
0000
0003
0010
,
0000
0100
0001
0010
1000
0100
0000
0002
,
0000
0203
0000
0000
0001
0000
0301
1000
,
0100
0010
1000
0001
0000
0100
0010
0000
,
1001
0100
0010
0011
0000
0100
0010
1000
,
0000
0001
0100
0010
0100
1000
0001
0000
,
1000
0020
0000
0032
0000
0203
0000
0000
,
1300
0000
0100
0010
1000
0001
0000
1100
,
0000
0010
1000
0010
0100
0001
0010
0001
,
0000
0100
0010
0100
0001
0010
0000
1001
,
0000
0010
0001
1000
1000
0100
0010
0001
,
0000
0100
0010
0100
0001
1000
0000
1010
,
0000
0100
0010
0100
0001
1000
0010
0001
,
0000
0100
0001
0010
0001
1000
0000
0101
,
0000
1000
0010
0100
0001
1000
0010
0001
,
0100
1000
0010
0000
0100
0001
0001
0100
,
0000
1000
0010
1000
0000
1000
0100
0000
,
1000
0001
0100
0010
0000
0010
0100
0010
,
0000
1000
0010
0010
1000
0100
0001
0000
,
0001
0000
0100
1000
0000
0100
0100
0010
,
0000
0010
1000
0100
0010
1000
0010
0100
,
0010
0001
0100
0010
0100
1000
0000
1001
,
0000
0100
0010
1000
0001
0100
0010
1010
,
0000
0100
0010
1000
0001
0000
0010
0100
,
0001
1000
0010
0010
0000
0100
0001
0000
,
1000
1000
0010
0000
0100
0100
0001
0000
,
1000
0010
0100
0001
0100
0010
1001
0000
,
0100
0100
0010
0000
1000
1000
0001
0000
,
0100
0100
0001
1000
0010
0001
0000
1001
,
0000
1010
0000
0101
0000
0110
0000
0010
,
0000
0001
1000
0010
0001
0100
0011
0001
,
0100
0000
0010
0000
1000
0000
0010
0000
0002
0000
0000
1000
0003
0000
0010
0000
,
0000
0000
0100
0000
1000
0000
0100
0000
0020
0000
0000
0001
0030
0000
0000
0000
,
0001
0000
1000
0000
0001
0000
1000
0000
0002
0000
0000
0100
0003
0000
0010
0000
,
0000
0000
0100
0000
1000
0000
0010
0000
0100
1000
0100
2000
0000
0000
3001
0000
,
0010
0000
0100
0000
0010
0000
1000
0000
0002
0000
0000
0010
0003
0000
1000
0000
,
0000
0000
0010
0000
0001
0000
0100
0000
1000
0100
1000
0200
0000
0000
0300
0000
,
2000
3002
0023
0032
,
0203
0302
0023
2030
,
3200
0010
0301
0010
2000
0010
3001
0010
,
1001
0000
0220
0000
0000
0330
0000
0000
,
0001
0100
1000
0100
0001
1000
0010
0100
,
0001
1000
0010
0100
0010
0010
1000
0100
,
0001
1000
0010
0100
0001
0100
0010
1000
,
0010
0100
0001
1000
0001
0001
0100
1000
,
0010
0100
0001
1000
0010
0100
0010
1000
,
0001
0100
0010
1000
0010
0100
1000
0101
,
0000
1010
0000
0011
0000
1100
0000
1001
,
0000
0110
0000
1001
0000
0110
0000
1001
,
2002
0000
0000
0000
,
0000
0000
3003
0000
;

//---------------dance-single - ----------------
#NOTES:
     dance-single:
     :
     Medium:
     10:
     0.497264,0.474933,0.119480,0.135411,0.055757,437.000000,422.000000,15.000000,17.000000,0.000000,0.000000,0.497264,0.474933,0.119480,0.135411,0.055757,437.000000,422.000000,15.000000,17.000000,0.000000,0.000000:
0000
0000
0000
0000
,
0000
0000
0000
0000
,
1000
0010
1000
0000
0001
1000
0001
0000
,
1000
0010
0100
0010
0001
0000
1001
0000
,
1000
0000
0001
0000
1000
0000
0000
0000
0001
0000
0000
0001
0000
0000
0000
0000
,
0001
0000
0010
0000
0001
0000
0000
0000
0100
0000
0000
0100
0000
0000
0000
0000
,
0010
0000
0001
0000
0010
0000
0000
0000
1000
0000
0000
1000
0000
0000
0000
0000
,
0001
0000
0100
0000
0001
0000
0000
0000
0010
0000
0000
0010
0000
0000
0000
0000
,
0100
0000
0001
0000
1000
0000
0001
0000
0010
0000
0000
0010
0000
0000
0000
0000
,
0100
0000
1000
0000
0010
0000
1000
0000
0100
0000
0000
0100
0000
0000
0000
0000
,
0010
0000
0100
0000
0010
0000
0100
0000
0001
0000
0000
0001
0000
0000
0000
0000
,
0001
0000
1000
0000
0001
0000
0010
0000
1000
0000
0000
1000
0000
0000
0000
0000
,
0010
0001
0010
0000
0100
0010
0100
0000
,
0100
1000
0100
0001
0000
0010
0010
0000
,
0100
0001
0100
0000
0010
1000
0010
0000
,
0001
0010
0001
0010
0000
1000
1000
0000
,
0001
0010
0100
0000
0010
1000
0100
0000
,
0100
1000
0100
0010
0000
1000
1000
0000
,
0020
1000
0100
1030
,
0002
0100
1000
0013
,
1000
0001
1000
0000
0010
0100
1000
0000
,
0010
0001
0010
0001
0000
0100
0010
0000
,
1000
0010
0001
0000
0010
1000
0100
0000
,
0001
0010
0100
0010
0000
0001
1000
0000
,
0100
0010
0100
0000
1000
0001
1000
0000
,
1000
0001
0010
1000
0000
0001
0010
0000
,
0100
0001
0010
0000
1000
0001
0100
0000
,
0100
1000
0001
1000
0000
0010
0010
0000
,
1000
0010
0001
0000
0001
1000
0010
0000
,
0100
1000
0100
0001
0000
0010
0100
0000
,
0100
0001
0010
0000
0001
1000
0010
0000
,
0001
1000
0001
0010
0000
0010
0010
0000
,
0001
1000
0010
0000
0100
0010
0100
0000
,
0100
0010
0001
0100
0000
1000
0001
0000
,
0020
2030
3020
0032
,
0103
0010
0001
1001
,
0010
0100
1000
0000
0100
0001
0100
0000
,
0010
0100
1000
0001
1000
0000
0100
0000
,
0100
0010
0001
0000
0001
0010
0001
0000
,
0100
0010
1000
0001
0010
0000
0001
0000
,
0010
0100
0010
0000
0001
0010
1000
0000
,
0100
0010
0001
0100
1000
0000
0001
0000
,
0100
1000
0100
0000
0100
0010
0100
0000
,
0001
0010
0100
0010
0001
0000
0100
0000
,
0001
0100
0010
0000
0001
1000
0000
0001
,
0000
0100
0010
0000
0010
0100
1000
0010
,
0000
0001
0010
0000
0001
1000
0000
0001
,
0000
0100
0010
0100
1000
0000
0011
0000
,
0100
0001
0100
0000
0010
0100
0000
0010
,
0000
0010
1000
0000
0001
0010
0100
0000
,
1000
0100
1000
0000
0100
0001
0000
1000
,
0000
0001
0010
0000
0100
0000
0101
0000
,
1000
0010
1000
0000
0001
0100
0001
0000
,
0100
0010
0100
0000
0010
0001
0010
0000
,
0100
0001
0010
0001
0100
1000
0100
0000
,
0010
1010
0100
1100
,
0010
1000
0010
0000
0100
0001
0100
0000
,
0010
0001
0100
0001
0010
0100
0010
0000
,
1000
0001
1000
0000
0100
0010
0100
0000
,
0001
0011
1000
1010
,
1000
0000
0010
0000
0001
0000
0000
0000
0002
0000
0000
0010
0003
0000
0000
0000
,
0100
0000
0010
0000
0100
0000
0000
0000
0020
0000
0000
0100
0030
0000
0000
0000
,
0010
0000
0100
0000
1000
0000
0000
0000
2000
0000
0000
0010
3000
0000
0000
0000
,
0010
0000
0100
0000
0010
0000
0000
0000
0020
0000
0000
0200
0000
0000
0330
0000
,
0001
0000
1000
0000
0001
0000
0010
0000
0002
0000
0000
0010
0003
0000
0000
0000
,
1000
0000
0100
0000
0010
0000
1000
0000
0200
0000
0000
1000
0000
0000
0300
0000
,
0110
0001
0010
0001
,
1001
0100
0010
0100
,
1000
0001
0100
0000
0100
0010
0001
0000
,
0002
0000
2000
0000
0000
3003
0000
0000
,
0001
0000
0001
0000
0001
0010
1000
0010
,
0100
0000
0100
0000
0100
0010
0001
1000
,
0010
0000
0010
0000
0010
0001
0100
0010
,
1000
0000
1000
0000
1000
0001
0100
0001
,
0010
0000
0001
0000
0010
0100
0010
0010
,
0001
0000
1000
0000
0100
0010
0001
1000
,
1000
0011
0010
1001
,
0100
1100
1000
0101
,
0220
0000
0000
0000
,
0000
0000
0330
0000
;

//---------------dance-single - ----------------
#NOTES:
     dance-single:
     :
     Easy:
     5:
     0.242374,0.279583,0.063723,0.238960,0.000000,213.000000,205.000000,8.000000,30.000000,0.000000,0.000000,0.242374,0.279583,0.063723,0.238960,0.000000,213.000000,205.000000,8.000000,30.000000,0.000000,0.000000:
0000
0000
0000
0000
,
0000
0000
0000
0000
,
1000
1000
0001
0001
,
0010
0100
0010
0010
,
2000
3000
0002
0003
,
0010
0100
0020
0030
,
0002
0003
0200
0300
,
0010
0010
2000
3000
,
0200
0300
0020
0030
,
1000
0100
2000
3000
,
0002
0003
0020
0030
,
0100
0100
0002
0003
,
0010
0100
0010
0000
,
0001
1000
0001
0000
,
0010
1000
0100
0000
,
0010
0001
0100
0000
,
1000
1000
1000
0000
,
0010
0010
0010
0000
,
2000
0000
3001
0000
,
0002
0000
0103
0000
,
0010
0000
1000
0000
,
0100
1000
0100
0000
,
0010
0000
0100
0000
,
0001
0010
0001
0000
,
1000
0000
0001
0000
,
0010
0010
0001
0000
,
0100
0000
0010
0000
,
1000
0100
1000
0000
,
0001
0000
1001
0000
,
1000
0000
1001
0000
,
0010
0000
0110
0000
,
0100
0000
0110
0000
,
1000
0100
1000
0000
,
0010
0001
0010
0000
,
1000
0000
0100
0000
,
0001
0000
1001
0000
,
0010
1000
0010
0000
,
0100
0001
0100
0000
,
0100
1000
0100
0000
,
0010
0001
0010
0000
,
0010
1000
0001
0000
,
0100
0001
0010
0000
,
0001
0100
0010
0000
,
0001
1000
0100
0000
,
1000
0010
1000
0000
,
0100
0001
0100
0000
,
0010
0100
0010
0000
,
0001
1000
0001
0000
,
0001
0010
1000
0000
,
0100
0010
0001
0000
,
1000
0100
0001
0000
,
0001
0010
1000
0000
,
2000
3000
0200
0300
,
0010
0010
0020
0030
,
0200
0300
0002
0003
,
1000
1000
2000
3000
,
0020
0030
2000
3000
,
0001
0010
0002
0003
,
0200
0300
0020
0030
,
1000
0010
0002
0003
,
0100
0010
0100
0000
,
1000
0001
1000
0000
,
1000
1000
0100
0000
,
0010
0001
0010
0000
,
0001
0010
0100
0000
,
0010
0010
0001
0000
,
2000
0000
3001
0000
,
0200
0000
0310
0000
,
2000
0000
3100
0000
,
0002
0000
1003
0000
,
0010
0100
0010
0000
,
1000
0100
1000
0000
,
0010
0001
0100
0000
,
0010
1000
0100
0000
,
0010
0000
0110
0000
,
1000
0000
1001
0000
,
0010
0010
0010
0000
,
0100
0100
0100
0000
,
0110
0000
0000
0000
;

//---------------dance-single - ----------------
#NOTES:
     dance-single:
     :
     Beginner:
     3:
     0.180927,0.217454,0.079653,0.087619,0.000000,159.000000,149.000000,10.000000,11.000000,0.000000,0.000000,0.180927,0.217454,0.079653,0.087619,0.000000,159.000000,149.000000,10.000000,11.000000,0.000000,0.000000:
// measure 0
0000
0000
0000
0000
,  // measure 1
0000
0000
0000
0000
,  // measure 2
0020
0000
0000
0000
,  // measure 3
0030
0000
0110
0000
,  // measure 4
1000
0000
0001
0000
,  // measure 5
1000
0000
1000
0000
,  // measure 6
0100
0000
0001
0000
,  // measure 7
0100
0000
0100
0000
,  // measure 8
0010
0000
0100
0000
,  // measure 9
0010
0000
0010
0000
,  // measure 10
0001
0000
0010
0000
,  // measure 11
0001
0000
0001
0000
,  // measure 12
0100
0100
0100
0000
,  // measure 13
1000
0000
0001
0000
,  // measure 14
1000
1000
1000
0000
,  // measure 15
0010
0000
1000
0000
,  // measure 16
0010
0010
0010
0000
,  // measure 17
0001
0000
0100
0000
,  // measure 18
0002
0000
0003
0000
,  // measure 19
1000
0000
1001
0000
,  // measure 20
0100
0000
0100
0000
,  // measure 21
0010
0000
0010
0000
,  // measure 22
1000
0000
0001
0000
,  // measure 23
1000
0000
0001
0000
,  // measure 24
0010
0000
0010
0000
,  // measure 25
0001
0000
0001
0000
,  // measure 26
0100
0000
1000
0000
,  // measure 27
0100
0000
1001
0000
,  // measure 28
0010
0000
0010
0000
,  // measure 29
0100
0000
1000
0000
,  // measure 30
0100
0000
0100
0000
,  // measure 31
0001
0000
1000
0000
,  // measure 32
0001
0000
0001
0000
,  // measure 33
0010
0000
0100
0000
,  // measure 34
2000
0000
3000
0000
,  // measure 35
0001
0000
1001
0000
,  // measure 36
0020
0000
0030
0000
,  // measure 37
1000
0000
0100
0000
,  // measure 38
2000
0000
3000
0000
,  // measure 39
0001
0000
1000
0000
,  // measure 40
0002
0000
0003
0000
,  // measure 41
0100
0000
0001
0000
,  // measure 42
0200
0000
0300
0000
,  // measure 43
0010
0000
0110
0000
,  // measure 44
0010
0010
0010
0000
,  // measure 45
0001
0000
1000
0000
,  // measure 46
0001
0001
0001
0000
,  // measure 47
0100
0000
1000
0000
,  // measure 48
0100
0100
0100
0000
,  // measure 49
1000
0000
0010
0000
,  // measure 50
1000
1000
1000
0000
,  // measure 51
0001
0000
1001
0000
,  // measure 52
0100
0000
0100
0000
,  // measure 53
0010
0000
0100
0000
,  // measure 54
1000
0000
0001
0000
,  // measure 55
1000
0000
1000
0000
,  // measure 56
0010
0000
0001
0000
,  // measure 57
0010
0000
0010
0000
,  // measure 58
0001
0000
0100
0000
,  // measure 59
0010
0000
0110
0000
,  // measure 60
0100
0000
0100
0000
,  // measure 61
1000
0000
0100
0000
,  // measure 62
0001
0000
0001
0000
,  // measure 63
1000
0000
0001
0000
,  // measure 64
0010
0000
0010
0000
,  // measure 65
0100
0000
0010
0000
,  // measure 66
2000
0000
3000
0000
,  // measure 67
0002
0000
0003
0000
,  // measure 68
0100
0000
0010
0000
,  // measure 69
0220
0000
0330
0000
,  // measure 70
0001
0000
1000
0000
,  // measure 71
0010
0000
0010
0000
,  // measure 72
0100
0000
0001
0000
,  // measure 73
1000
0000
1000
0000
,  // measure 74
0010
0000
1000
0000
,  // measure 75
0100
0000
0100
0000
,  // measure 76
0010
0000
0001
0000
,  // measure 77
0010
0000
1001
0000
,  // measure 78
1001
0000
0000
0000
;
