#TITLE:Arcade Prison;
#SUBTITLE:;
#ARTIST:MAD CHILD vs. siromaru;
#TITLETRANSLIT:;
#SUBTITLETRANSLIT:;
#ARTISTTRANSLIT:;
#GENRE:;
#CREDIT:;
#MUSIC:Arcade Prison.ogg;
#BANNER:Arcade Prison.png;
#BACKGROUND:Arcade Prison-bg.png;
#CDTITLE:;
#SAMPLESTART:99.379;
#SAMPLELENGTH:15.000;
#SELECTABLE:YES;
#OFFSET:-0.282;
#BPMS:0.000=155.000;
#STOPS:;
#ORIGIN:;
#PREVIEWVID:;
#JACKET:Arcade Prison-jacket.png;
#CDIMAGE:;
#DISCIMAGE:;
#BGCHANGES:;
#FGCHANGES:;

//--------------- dance-single - ----------------
#NOTES:
     dance-single:
     :
     Hard:
     14:
     0.571114,0.76373,0.165946,0.196118,0.62607,530,508,22,26,0,0,0,0,0,0.571114,0.76373,0.165946,0.196118,0.62607,530,508,22,26,0,0,0,0,0:
0000
0000
0000
0000
,
0000
0000
0000
0000
,
0000
0000
0000
0000
,
0000
0000
0000
0000
,
0000
0000
0000
0000
,
0000
0000
0000
0000
,
0000
0000
0000
0000
,
0000
0000
0000
0000
,
1000
0001
0100
0010
,
0100
0001
0010
0000
0100
0000
1000
1000
,
0100
0010
0100
1000
,
0001
0000
0010
0000
0100
0000
0000
0000
1000
0000
0000
0000
0010
0000
0100
0010
,
0100
1000
0001
1000
0010
0100
0010
0001
,
1000
0010
0001
0010
1000
0100
0010
0001
,
1000
0010
0000
0000
0100
0001
0100
0001
0100
0010
1000
0010
1000
0001
0010
0100
,
0010
0010
0010
0110
,
1000
0000
0000
1000
0000
0000
2000
0000
0000
0000
0001
0000
3010
0000
0001
0000
,
0000
0000
0010
0000
0000
0010
0000
0000
0100
0000
0000
0100
0000
0000
0100
0000
,
0001
0000
0000
0001
0000
0000
0001
0000
2000
0000
3000
0000
2000
0000
3000
0000
,
0000
0000
0010
0000
0000
0010
0000
0000
1000
0000
0000
0010
0000
0000
0100
0000
,
0001
0000
0000
0001
0000
0000
0002
0000
0000
0000
0010
0000
0013
0000
0100
0000
,
0000
0000
0010
0000
0000
0010
0000
0000
0001
0000
0000
0001
0000
0000
0001
0000
,
0100
0000
0000
0100
0000
0000
0100
0000
0020
0000
0030
0000
0020
0000
0030
0000
,
0000
0000
1000
0000
0000
1000
0000
0000
0100
0000
0000
1000
0000
0000
0001
0000
,
0000
0010
0000
0000
0110
0000
0000
0100
0000
0000
1000
0000
0100
0000
0001
0000
,
0000
1000
0000
0000
1010
0000
0000
0010
0000
0000
0100
0000
0001
0000
0010
0000
,
0000
0001
0000
0000
1001
0000
0000
1000
0000
0000
0100
0000
1000
0000
0010
0000
,
0000
0100
0000
0000
0101
0000
0000
0001
0000
0000
1000
0000
2000
0000
0000
3000
,
0000
0010
0000
0000
0010
0000
0000
0100
0000
0001
0000
0000
0001
0000
0000
1000
,
0000
0010
0000
0000
0010
0000
0000
1000
0000
0100
0000
0000
1000
0000
0001
0000
,
0000
0101
0000
0000
0110
0000
0000
1010
0000
0000
1100
0000
0000
1001
0000
0000
,
0100
0100
0100
0100
,
2100
0000
0000
0000
3010
0000
0000
0100
0000
0001
0100
0000
0010
0000
0000
0000
,
0000
1000
0001
0000
0010
0000
0000
0000
0100
0001
0100
0000
0010
0000
0100
0000
,
0002
0000
0000
0000
1003
0000
0000
0010
0000
1000
0010
0000
0100
0000
0000
0010
,
0000
0001
0010
0000
0100
0000
0000
1000
0000
0001
1000
0000
0010
0000
1000
0010
,
0200
0000
0000
0000
0301
0000
0000
1000
0000
0010
1000
0000
0001
0000
0000
1000
,
0000
0000
0100
0000
0010
0000
0100
1000
0000
0001
0100
0000
0001
0000
0010
0000
,
0020
0000
0000
0000
0130
0000
0000
0010
0000
1000
0010
0000
0100
0000
0000
0000
,
0001
0010
0001
0000
0010
0000
0100
1000
0010
0000
0010
0000
0110
0000
0000
0000
,
0010
1000
0010
0100
0000
0001
0000
0100
0010
1000
0010
0000
0100
0000
0001
1000
,
0001
0010
0000
0100
0000
0010
0100
0010
1000
0001
1000
0000
0100
0000
0010
0001
,
0010
0100
0000
0001
0000
0100
0010
1000
0010
0100
0001
0000
1000
0000
0010
1000
,
0000
0001
0010
0000
0001
0000
1000
0100
1000
0010
0100
0000
0001
0000
1000
0000
,
0010
0100
0010
0000
0100
0000
0001
0100
0001
1000
0000
0010
0000
1000
0100
0010
,
0001
0000
0100
0001
0000
0100
0010
0000
1000
0001
0010
0001
1000
0000
0001
0000
,
0010
0100
0010
0000
1000
0000
0001
1000
0001
0000
0100
0001
0000
1000
0000
0010
,
1000
0000
0100
0000
0010
0000
0001
0100
0010
1000
0010
0100
0001
1000
0100
0000
,
0020
0000
0000
2030
0000
0000
3200
0000
,
0000
0000
0000
0000
0300
0010
0001
0010
,
2000
0000
0000
3002
0000
0000
0023
0000
,
0000
0000
0030
0100
0001
1000
0010
0100
,
0002
0000
0000
0023
0000
0000
0230
0000
,
0000
2300
0000
0000
3010
0000
1000
0000
,
0020
0000
0000
0230
0000
0000
0302
0000
,
0000
2003
0000
0000
3010
0000
0100
0000
,
1000
0100
0010
1000
0100
0010
1000
0100
,
0010
1000
0100
0010
1000
0100
0010
0001
,
0100
0001
0010
0100
0001
0010
0100
0001
,
0010
0100
0001
0010
0100
0001
0010
1000
,
0001
0100
1000
0001
0100
1000
0001
0100
,
1000
0001
0100
1000
0001
0100
1000
0010
,
0100
0001
1000
0010
0100
0001
0010
0100
,
2000
0000
3000
1001
,
1000
0001
0000
0000
0001
0000
0000
0010
0000
0000
0010
0000
0001
0000
0001
0000
,
0100
0010
0000
0000
0010
0000
0000
1000
0000
0000
0001
0000
0001
0100
0001
0010
,
0000
0100
0000
0000
0100
0000
0000
0010
0000
0000
0010
0000
0000
0001
0000
1000
,
0000
0001
0000
0000
0001
0000
0000
0100
0000
0000
0100
0000
0000
0010
0001
0100
,
0000
0010
0000
0000
0010
0000
0000
0100
0000
0000
0010
0000
0000
1000
0000
0001
,
0000
1000
0000
0000
0100
0000
0000
1000
0000
0000
0001
0000
0000
0100
0010
0100
,
0000
0001
0000
0000
1000
0000
0000
0010
0000
0000
1000
0000
0000
0010
0100
0001
,
0000
1000
0000
0000
1000
0000
0000
0010
0000
0000
0100
0000
0010
1000
0100
0010
,
0001
0100
0000
0100
0001
0000
0001
0010
0000
0010
0001
0000
1000
0000
1000
0000
,
0100
0010
0000
0010
0100
0000
0100
1000
0000
1000
0100
0000
0010
0001
0010
0100
,
1000
0001
0000
0001
1000
0000
1000
0010
0000
0010
0100
0000
0100
0001
0000
1000
,
0000
0010
0000
0010
0100
0000
0100
0010
0000
0010
1000
0000
0000
0010
1000
0001
,
0100
0001
0000
0000
0100
0000
0000
0010
0000
0000
0010
0000
0000
1000
0000
0001
,
0000
1000
0000
0000
0100
0000
0000
1000
0000
0000
0001
0000
0000
0100
0010
0100
,
0000
0011
0000
0000
1010
0000
0000
1100
0000
0000
0101
0000
0000
0001
1000
0100
,
0000
0110
0000
0000
0110
0000
0000
1001
0000
0000
1001
0000
0100
0010
1000
0001
,
0100
0000
0000
0000
,
1001
0000
0000
0000
;
