#VERSION:0.83;
#TITLE:Anmonochrome;
#SUBTITLE:;
#ARTIST:DJ TOTTO;
#TITLETRANSLIT:;
#SUBTITLETRANSLIT:;
#ARTISTTRANSLIT:;
#GENRE:;
#ORIGIN:;
#CREDIT:;
#BANNER:Anmonochrome.png;
#BACKGROUND:Anmonochrome-bg.png;
#PREVIEWVID:;
#JACKET:Anmonochrome-jacket.png;
#CDIMAGE:;
#DISCIMAGE:;
#LYRICSPATH:;
#CDTITLE:;
#MUSIC:Anmonochrome.ogg;
#OFFSET:-0.399285;
#SAMPLESTART:71.198997;
#SAMPLELENGTH:15.000000;
#SELECTABLE:YES;
#BPMS:0.000=175.000;
#STOPS:30.500=0.343,
93.500=0.343,
123.500=0.686;
#DELAYS:;
#WARPS:;
#TIMESIGNATURES:0.000=4=4;
#TICKCOUNTS:0.000=4;
#COMBOS:0.000=1;
#SPEEDS:0.000=1.000=0.000=0;
#SCROLLS:0.000=1.000;
#FAKES:;
#LABELS:0.000=Song Start;
#BGCHANGES:;
#KEYSOUNDS:;
#ATTACKS:
;

//---------------dance-single - ----------------
#NOTEDATA:;
#CHARTNAME:;
#STEPSTYPE:dance-single;
#DESCRIPTION:;
#CHARTSTYLE:;
#DIFFICULTY:Hard;
#METER:13;
#RADARVALUES:0.578502,0.582462,0.413216,0.321390,0.000000,441.000000,396.000000,45.000000,35.000000,0.000000,0.000000,0.000000,0.000000,0.000000,0.578502,0.582462,0.413216,0.321390,0.000000,441.000000,396.000000,45.000000,35.000000,0.000000,0.000000,0.000000,0.000000,0.000000;
#CREDIT:;
#NOTES:
0000
0000
0000
0000
,
0000
0000
0000
0000
,
0000
0000
0000
0000
,
0000
0000
0000
0000
,
0010
1000
0100
1000
0000
0001
0100
1000
,
0100
0010
0000
0100
0010
1000
0001
0000
,
1100
0100
0000
0010
0000
0100
0101
0001
,
0000
0010
0000
1000
1001
1001
0200
0001
,
0000
0010
0300
1000
0100
1000
0000
0001
,
0000
0110
0000
1000
1001
0000
0002
1000
,
0000
0010
0003
0100
1000
0100
0000
0010
,
0000
1010
0000
0001
0101
0000
2000
0010
,
3000
0011
0000
1010
0000
0120
0000
1000
,
0030
0001
0000
1000
1000
0000
0020
0100
,
0030
1001
0000
1010
0000
0201
0000
1000
,
0000
0310
0010
1000
0001
1000
0100
0010
,
0000
0001
0010
0000
0001
1000
0000
0100
,
1000
0000
0010
0001
0010
0000
1000
0001
,
0000
0100
0001
0000
0010
0100
0000
0010
,
1000
0000
0001
1000
0001
0000
0010
1000
,
0000
1000
0100
0000
0100
0001
0000
0001
,
0010
0000
0100
1000
0001
0000
1000
0100
,
0100
0010
0100
0100
0001
0100
0100
0010
,
0100
0010
0001
0011
1000
0001
0000
0100
,
0000
0010
0001
0020
0000
1000
0000
1000
,
0030
0100
0001
0100
0010
1000
0000
0001
,
0000
0100
0010
2000
0000
3002
0000
0100
,
0003
0010
1000
0010
0001
0000
1000
0100
,
0000
0101
0000
1020
0000
0100
0031
0100
,
1000
0010
0100
0001
2000
0100
3000
0110
,
0000
0100
0001
1100
0000
0010
0001
0110
,
0001
1000
0000
0010
0000
0100
1000
0200
,
0000
0001
0000
0001
0300
0010
1000
0010
,
0100
0001
0000
0100
0000
1000
0001
0020
,
0000
0032
0000
1000
0003
0010
1000
0100
,
1000
0000
0001
0010
0000
0011
0000
2100
,
0000
0001
3100
0001
0010
0100
0010
1000
,
0100
0100
1000
0010
0001
0100
0001
0200
,
0000
0010
0000
0010
0300
2002
0000
3003
,
0010
0010
0000
0100
0000
1000
0000
0002
,
0000
1000
0003
0100
0000
0010
0100
0000
,
1000
1000
0000
0001
0000
0100
0000
0020
,
0000
0100
0030
0001
0100
1000
0010
0000
,
0001
0001
0000
0100
0000
0010
0000
2000
,
0000
0010
3000
0001
0000
0100
1000
0010
,
0100
1000
1000
0001
1000
1000
0010
1000
,
1000
0100
0001
0100
0010
1000
0001
1000
,
0010
0100
0000
0101
0000
1000
0000
1020
,
0000
0100
0030
1001
0000
1000
0001
0000
,
0200
0000
0000
0000
0000
0000
0300
0010
,
0110
0100
0000
1100
0000
0001
0010
1000
,
0010
0100
0010
0100
0001
1000
0100
2000
,
0000
0010
3000
0011
0000
0001
1000
0001
,
0010
0100
1000
0100
0010
1000
0100
0001
,
0000
0011
0000
2020
0000
0000
3030
0100
,
1000
0000
1000
0001
0000
0001
0010
0000
,
0010
0100
0000
0110
0000
0001
0010
0001
,
1000
0100
1000
0010
0100
0010
0001
2000
,
0000
0100
3001
0100
0010
1000
0100
0001
,
1000
0010
0001
0010
0100
1000
0100
0002
,
0000
0010
0003
1010
0000
0100
0010
0100
,
1000
0001
1000
0100
0010
0100
0001
0010
,
0000
1001
0000
0202
0000
0000
0303
1000
,
0010
0000
0010
0001
0000
0001
0200
0000
,
0300
1000
0000
1010
0000
0010
0100
0010
,
0001
0100
0001
0100
1000
0100
1000
0020
,
0000
0100
0031
0100
0000
0110
0000
0000
,
0002
1000
0000
0010
0003
0100
1000
0100
,
0000
0001
0000
0011
0000
1000
1100
0000
,
0020
0100
0000
0001
0030
1000
0001
1000
,
0000
0010
0000
0101
0000
0001
0011
0000
,
2000
0001
0000
0010
3000
0100
0010
0100
,
0000
1000
0000
1001
0000
0010
1010
0000
,
0100
0001
0000
0010
0000
1000
0000
0010
,
0000
0001
0100
1000
1001
0110
0000
0000
;

//---------------dance-single - ----------------
#NOTEDATA:;
#CHARTNAME:;
#STEPSTYPE:dance-single;
#DESCRIPTION:;
#CHARTSTYLE:;
#DIFFICULTY:Medium;
#METER:9;
#RADARVALUES:0.379109,0.411150,0.202016,0.119373,0.000000,289.000000,267.000000,22.000000,13.000000,0.000000,0.000000,0.000000,0.000000,0.000000,0.379109,0.411150,0.202016,0.119373,0.000000,289.000000,267.000000,22.000000,13.000000,0.000000,0.000000,0.000000,0.000000,0.000000;
#CREDIT:;
#NOTES:
0000
0000
0000
0000
,
0000
0000
0000
0000
,
0000
0000
0000
0000
,
0000
0000
0000
0000
,
0002
0000
0000
1000
0000
0000
0010
0000
,
0000
1000
0000
0000
0100
0000
0103
0000
,
1001
0000
0000
0010
0000
0000
0110
0000
,
0000
1000
0000
0000
0011
0010
0100
0000
,
0000
0100
0000
0010
0000
1000
0000
0010
,
0000
0001
0000
0000
0001
0000
0010
0000
,
0000
0010
0000
0001
0000
0100
0000
0010
,
0000
1000
0000
0000
1000
0000
0001
0000
,
0000
1000
0000
0100
0000
0001
0000
1000
,
0000
0010
0000
0000
0010
0000
1000
0100
,
0000
1000
0000
0001
0000
0010
0000
0001
,
0000
1001
0000
0000
1000
0000
0100
0000
,
0000
1000
0000
0010
0000
0100
0000
0010
,
0000
0100
0000
0000
0110
0000
1000
0000
,
0000
0010
0000
1000
0000
0100
0000
0010
,
0000
0001
0000
0000
0011
0000
0010
0000
,
0000
0001
0000
1000
0000
0100
0000
1000
,
0000
0010
0000
0000
1010
0000
0010
0100
,
0000
1000
0000
0010
0000
1000
0000
0010
,
0000
0000
1001
0001
1000
0000
0000
0100
,
0000
1000
0000
0200
0000
0000
0010
0000
,
0310
0000
0001
0000
0010
0000
0000
0001
,
0000
0100
0000
0002
0000
0000
1000
0000
,
1003
0000
0100
0000
1000
0000
0000
0010
,
0000
0100
0000
0020
0000
0000
0001
0000
,
0031
0000
0100
0000
0100
0000
0000
1000
,
0000
0001
0000
2000
0000
0000
3000
0110
,
0100
0000
0000
0010
0000
1000
0000
0020
,
0000
0100
0130
1000
,
0001
0000
0000
1000
0000
0010
0000
2000
,
0000
0010
3010
0001
,
0010
0000
0000
0100
0000
1000
0000
0200
,
0000
1300
0010
1000
,
0011
0010
0100
0001
,
0020
0100
0130
0110
,
0010
0000
0000
0001
0000
1000
0000
0020
,
0000
0100
1030
1000
,
0100
0000
0000
0010
0000
1000
0000
0002
,
0000
0000
1000
0000
0013
0100
0010
0000
,
1000
0000
0000
0001
0000
0010
0000
0200
,
0000
0010
1300
0001
,
1000
0000
0010
0100
0000
0010
0001
0000
,
1000
0001
0000
0100
0010
0000
0100
1000
,
0100
0000
0000
0001
0000
1000
0000
0002
,
0000
0010
0100
0100
,
0003
0000
0000
0000
,
1000
0100
0000
1001
0000
0010
0100
0000
,
0001
0000
0100
0000
0010
0000
0100
1000
,
0000
0010
0000
1010
0000
0000
0001
0000
,
0010
0000
0001
0000
1000
0000
0010
1000
,
0000
0001
0000
0101
0000
0000
0100
0000
,
0001
0010
1000
0010
,
1000
0100
0001
0010
,
0100
0000
0001
1000
0000
0010
1000
0000
,
0001
0100
0000
0010
0100
0000
1001
0000
,
0001
0000
1000
0000
0010
0000
1000
0100
,
0000
0010
0000
0110
0000
0000
0100
0000
,
0001
0000
0010
0000
0001
0000
1000
0001
,
0000
1000
0000
1100
0000
0000
0100
0000
,
0010
1000
0100
1000
,
0010
0001
1000
0100
,
0010
0000
1000
0001
0000
0100
0001
0000
,
0010
1000
0000
0100
1000
0000
1010
0000
,
0010
0000
0000
1000
0000
0010
0000
0001
,
0000
0010
0000
0100
0000
0000
0101
0000
,
0001
0000
0000
0010
0000
1000
0000
0100
,
0000
0010
0000
1000
0000
0000
1100
0000
,
0100
0000
0000
0001
0000
1000
0000
0001
,
0000
0010
0000
0001
0000
0000
0011
0000
,
0100
0010
0000
1000
0000
0001
0000
1000
,
0000
0010
0000
0000
0100
0110
0000
0000
;

//---------------dance-single - ----------------
#NOTEDATA:;
#CHARTNAME:;
#STEPSTYPE:dance-single;
#DESCRIPTION:;
#CHARTSTYLE:;
#DIFFICULTY:Easy;
#METER:5;
#RADARVALUES:0.246618,0.273641,0.101008,0.192834,0.000000,188.000000,177.000000,11.000000,21.000000,0.000000,0.000000,0.000000,0.000000,0.000000,0.246618,0.273641,0.101008,0.192834,0.000000,188.000000,177.000000,11.000000,21.000000,0.000000,0.000000,0.000000,0.000000,0.000000;
#CREDIT:;
#NOTES:
0000
0000
0000
0000
,
0000
0000
0000
0000
,
0000
0000
0000
0000
,
0000
0000
0000
0000
,
0200
0000
0300
0000
,
0010
0000
0010
0000
,
1001
0000
0000
0110
,
0000
0000
1001
1000
,
0000
0001
0000
1000
,
1000
0010
0000
0100
,
0000
0010
0000
0100
,
0100
0001
0000
0010
,
0000
1000
0000
0010
,
0010
0100
0000
0001
,
0000
1000
0000
0100
,
0000
0110
0000
0020
,
0030
0010
0000
0001
,
1000
0001
0000
2000
,
3000
1000
0000
0001
,
0010
0001
0000
0200
,
0300
0100
0000
0010
,
0100
0010
0000
0002
,
0003
0001
0010
0100
,
0000
0110
0200
0000
,
0301
0000
0001
0010
,
0001
0000
1000
0000
,
0010
0100
0010
0000
,
0001
0000
0100
1000
,
0100
0000
0001
0100
,
0001
0000
1000
0100
,
0010
0100
0001
0000
,
0020
0000
1030
0000
,
1000
0100
1000
0000
,
0010
0001
0010
0000
,
0100
0000
1000
0000
,
0001
0010
0001
0000
,
0100
0010
0100
0000
,
1000
1000
0100
1000
,
0010
0000
1001
0000
,
0020
0030
0010
0000
,
0100
0100
0001
0000
,
2000
3000
1000
0000
,
0001
0001
0010
0000
,
0002
0003
0001
0000
,
0010
0010
0100
1000
,
0100
0000
0010
0000
,
0100
0000
0110
0000
,
0010
0010
1000
0000
,
0010
0001
0010
1000
,
0010
0000
0000
0000
,
1000
0000
1001
0000
,
0100
0010
0100
0000
,
0001
0000
1000
0000
,
0010
0001
0010
0000
,
0100
0000
0010
0000
,
2000
3000
2000
3000
,
0020
0030
2000
3000
,
0100
0100
0001
0010
,
1000
0000
0110
0000
,
1000
1000
0001
0000
,
0010
0000
0100
0000
,
0010
0010
1000
0000
,
0100
0000
1000
0000
,
0002
0003
0002
0003
,
0200
0300
0002
0003
,
0010
0010
1000
0010
,
0001
0000
0110
0000
,
0020
0030
0010
0000
,
0001
0010
1000
0000
,
0200
0300
0100
0000
,
1000
0010
0100
0000
,
0002
0003
0001
0000
,
0010
0100
1000
0000
,
0001
0000
1000
0000
,
0100
0000
1001
0000
;

//---------------dance-single - ----------------
#NOTEDATA:;
#CHARTNAME:;
#STEPSTYPE:dance-single;
#DESCRIPTION:;
#CHARTSTYLE:;
#DIFFICULTY:Beginner;
#METER:3;
#RADARVALUES:0.184963,0.239435,0.073461,0.156104,0.000000,141.000000,133.000000,8.000000,17.000000,0.000000,0.000000,0.000000,0.000000,0.000000,0.184963,0.239435,0.073461,0.156104,0.000000,141.000000,133.000000,8.000000,17.000000,0.000000,0.000000,0.000000,0.000000,0.000000;
#CREDIT:;
#NOTES:
// measure 0
0000
0000
0000
0000
,  // measure 1
0000
0000
0000
0000
,  // measure 2
0000
0000
0000
0000
,  // measure 3
0000
0000
0000
0000
,  // measure 4
0020
0000
0000
0000
,  // measure 5
0030
0000
0000
0000
,  // measure 6
0100
0000
0000
0000
,  // measure 7
0100
0000
0110
0001
,  // measure 8
0000
0001
0000
0002
,  // measure 9
0000
0003
0000
1000
,  // measure 10
0000
1000
0000
2000
,  // measure 11
0000
3000
0000
0010
,  // measure 12
0000
0010
0000
0020
,  // measure 13
0000
0030
0000
0100
,  // measure 14
0000
0100
0000
0200
,  // measure 15
0000
0300
0000
0010
,  // measure 16
0010
0010
0000
0100
,  // measure 17
0000
0100
0000
0001
,  // measure 18
0001
0001
0000
1000
,  // measure 19
0000
1000
0000
0100
,  // measure 20
0100
0100
0000
0001
,  // measure 21
0000
0001
0000
1000
,  // measure 22
1000
1000
0000
0001
,  // measure 23
0000
1001
0010
0000
,  // measure 24
0100
0000
0020
0000
,  // measure 25
0030
0000
0100
0000
,  // measure 26
1000
0000
0200
0000
,  // measure 27
0300
0000
1000
0000
,  // measure 28
0001
0000
2000
0000
,  // measure 29
3000
0000
0001
0000
,  // measure 30
0010
0000
0000
0000
0002
0000
0000
0003
,  // measure 31
0100
0000
0100
0000
,  // measure 32
0010
0000
0100
0000
,  // measure 33
0001
0000
0001
0000
,  // measure 34
0010
0000
0001
0000
,  // measure 35
1000
0000
1000
0000
,  // measure 36
0100
0000
1000
0000
,  // measure 37
0010
0000
0010
0000
,  // measure 38
0100
0000
0110
0000
,  // measure 39
2000
0000
3000
0000
,  // measure 40
0001
0000
0001
0000
,  // measure 41
0020
0000
0030
0000
,  // measure 42
0100
0000
0100
0000
,  // measure 43
0002
0000
0003
0000
,  // measure 44
1000
0000
1000
0000
,  // measure 45
0020
0000
0030
0000
,  // measure 46
0220
0000
0330
0000
,  // measure 47
0010
0010
0010
0000
,  // measure 48
0100
0000
0100
0000
,  // measure 49
0000
0000
0000
0000
,  // measure 50
2002
0000
3003
0000
,  // measure 51
1000
0000
1000
0000
,  // measure 52
0100
0000
1000
0000
,  // measure 53
0100
0000
0100
0000
,  // measure 54
0001
0000
0100
0000
,  // measure 55
0010
0000
0010
0000
,  // measure 56
0001
0000
0001
0000
,  // measure 57
1000
0000
1000
0000
,  // measure 58
0001
0000
1001
0000
,  // measure 59
0010
0000
0010
0000
,  // measure 60
0100
0000
0010
0000
,  // measure 61
0001
0000
0001
0000
,  // measure 62
0010
0000
0001
0000
,  // measure 63
0100
0000
0100
0000
,  // measure 64
1000
0000
1000
0000
,  // measure 65
0010
0000
0010
0000
,  // measure 66
0100
0000
0110
0000
,  // measure 67
0100
0100
0100
0000
,  // measure 68
0010
0000
0010
0000
,  // measure 69
1000
1000
1000
0000
,  // measure 70
0001
0000
0001
0000
,  // measure 71
0010
0010
0010
0000
,  // measure 72
0100
0000
0100
0000
,  // measure 73
0001
0001
0001
0000
,  // measure 74
1000
0000
1001
0000
;
