#TITLE:All is vanity;
#SUBTITLE:;
#ARTIST:good-cool;
#TITLETRANSLIT:;
#SUBTITLETRANSLIT:;
#ARTISTTRANSLIT:;
#GENRE:;
#CREDIT:;
#BANNER:All is Vanity.png;
#BACKGROUND:All is Vanity-bg.png;
#LYRICSPATH:;
#CDTITLE:;
#MUSIC:All is Vanity.mp3;
#OFFSET:-0.313284;
#SAMPLESTART:4.134941;
#SAMPLELENGTH:12.229300;
#SELECTABLE:YES;
#BPMS:0.000000=157.000000
,160.000000=78.500000
,164.000000=157.000000
;
#STOPS:
;
#BGCHANGES:;
#KEYSOUNDS:;
#ATTACKS:;

//---------------dance-single - ----------------
#NOTES:
     dance-single:
     :
     Hard:
     11:
     0.522563,0.502829,0.143665,0.077358,0.055256,331.000000,318.000000,13.000000,7.000000,0.000000,0.000000,0.522563,0.502829,0.143665,0.077358,0.055256,331.000000,318.000000,13.000000,7.000000,0.000000,0.000000:
0000
0000
0000
0000
,
0000
0000
0000
0000
,
1100
0000
0010
0000
0100
0010
0001
0000
,
1000
0010
0100
0001
0000
0001
1000
0000
,
0001
0000
0100
0010
0000
0100
0001
0000
,
1000
0100
1000
0100
0010
0100
0001
0000
,
1001
0000
0001
0010
0000
0010
0001
0000
,
0100
0010
0100
0001
0000
0100
1000
0000
,
0010
0000
0100
1000
0000
0100
0001
0000
,
0100
0010
0100
0010
0100
0001
1000
0001
,
0110
0000
0001
0010
0001
0100
0001
0000
,
1000
0000
0100
0000
1000
0010
0001
0000
,
0100
0100
0010
0000
0001
0001
0010
0000
,
1000
0001
1000
0100
0010
1000
0100
0000
,
0011
0010
0100
0000
0001
1000
0100
0001
,
0000
0100
0010
0100
0001
0100
1000
0000
,
0010
0100
0010
0100
0001
0000
0100
0010
,
0100
0001
0001
1000
0010
0000
0100
0000
,
0001
1000
0100
0000
0000
1000
1000
0001
,
0000
0000
0010
0100
0010
1000
0001
0000
,
0100
0001
0100
0010
0000
0010
0001
0000
,
0100
1000
0000
1000
0001
0000
1001
0000
,
0010
1000
0100
0000
0000
0100
0001
0000
,
0010
1000
0100
1000
0000
0010
0010
0000
,
0100
0001
0100
0010
0000
1000
0001
1000
,
2002
0000
0000
0000
0003
0010
3010
0000
,
0001
0000
0010
0100
0000
0010
0100
0000
,
1000
0100
0000
0001
1000
0000
1000
0000
,
0100
0000
1000
0100
0000
1000
0001
0000
,
1000
0010
0000
0010
0100
0010
0001
0000
,
0001
0000
0100
1000
0000
0010
0100
0000
,
0001
0010
0000
0100
0010
0000
0010
0000
,
1000
0000
0100
0100
0000
0010
0010
0000
,
0001
0001
0000
0100
0220
0000
0000
0330
,
1000
0000
0000
0100
0000
0000
1000
0000
0100
0000
0000
0000
0010
0000
0000
0100
,
0000
0000
0010
0000
0100
0000
0000
0000
1001
0000
0000
1000
0000
0000
0001
0000
,
0001
0000
0000
0010
0000
0000
0001
0000
0010
0000
0000
0000
0010
0000
0000
1000
,
0000
0000
0010
0000
1000
0000
0000
0000
0110
0000
0000
0001
0000
0000
0010
0000
,
0100
0000
0000
1000
0000
0000
0100
0000
0001
0000
0000
0000
0100
0000
0000
0010
,
0000
0000
0001
0000
0010
0000
0000
0000
1100
0000
0000
0001
0000
0000
1000
0000
,
0200
0000
1000
0010
0300
0000
0001
0000
0002
0000
0000
0000
0020
0000
0033
0000
,
0100
1000
0100
0000
0010
0000
0100
0010
,
0000
0001
0010
0001
0000
1000
0100
0000
,
0010
1000
0100
1000
0000
0001
0100
0010
,
0000
0001
0010
0001
0100
0001
1000
0000
,
0100
1000
0100
0010
0100
0000
0001
0010
,
1000
0010
0100
0000
1000
0100
0010
0100
,
0001
0010
0100
0010
1000
0100
0010
0000
,
1000
0000
1000
0000
0100
0001
0010
0000
,
1100
0000
0100
0000
0010
0100
0001
0000
,
1000
0001
1000
0001
0100
0010
1000
0000
,
0001
0100
1000
0000
0001
0010
0100
0000
,
1000
0100
0001
0100
1000
0010
0001
0000
,
0101
0000
0001
0000
0010
1000
0100
0000
,
0010
0100
0010
0100
0001
0010
1000
0000
,
0100
1000
0001
0000
0100
0010
1000
0000
,
0100
0010
0100
0001
0000
0000
1000
1001
;

//---------------dance-single - ----------------
#NOTES:
     dance-single:
     :
     Medium:
     8:
     0.446784,0.439976,0.198921,0.187870,0.005526,283.000000,265.000000,18.000000,17.000000,0.000000,0.000000,0.446784,0.439976,0.198921,0.187870,0.005526,283.000000,265.000000,18.000000,17.000000,0.000000,0.000000:
0000
0000
0000
0000
,
0000
0000
0000
0000
,
2000
0000
0100
0000
3010
0000
0100
0001
,
0000
0001
1000
0000
0010
0000
1000
0001
,
0100
0000
1000
0100
0010
0000
0010
0100
,
0010
1000
0001
0000
1000
0000
0110
0000
,
0200
0000
1000
0000
0310
0000
0001
0100
,
0000
0100
1000
0000
0010
0000
0010
1000
,
0100
0000
0010
1000
0000
0010
0100
0000
,
0010
0001
1000
0001
0000
0101
0000
0000
,
0020
0000
0100
0000
1030
0000
0100
0001
,
0100
0000
0010
1000
0001
1000
0010
0000
,
0001
0100
1000
0100
0000
1000
0000
0001
,
0000
0010
0100
0001
1000
0000
1001
0000
,
0002
0000
0010
0000
0013
0100
0000
0010
,
0000
1000
0000
1000
0000
0100
0001
0000
,
0001
0100
0001
0000
0100
0010
0100
0000
,
1000
0010
0001
0100
0001
0000
1010
0000
,
0001
1000
0200
0000
0000
0001
0000
0000
,
0310
0000
0010
1000
0000
1000
0100
0000
,
1000
0100
1000
0002
0000
0100
0000
0000
,
0013
1000
0000
0000
0110
0000
0011
0000
,
0010
0100
0020
0000
0000
1000
0000
0000
,
1030
0000
1000
0100
0000
0100
0010
0000
,
1000
0001
1000
0100
0000
0100
0001
0000
,
2020
0000
0030
0002
0000
3000
0003
0000
,
1000
0000
0001
0000
1000
0010
0000
0001
,
0000
0100
0000
0010
1000
0000
0100
0000
,
0001
0000
0010
0000
0100
1000
0000
0010
,
0000
1000
0000
0001
0100
0000
1000
0000
,
0010
1000
0100
0000
0010
0100
0000
0001
,
0000
0010
0000
1000
0001
0000
0010
0000
,
1000
0010
0100
1000
0000
0001
0000
0010
,
0000
1000
0000
0001
0002
0000
0000
0000
,
0013
1000
1100
0001
,
0010
0110
0001
0011
,
0001
1000
1010
1000
,
0100
0101
0010
1001
,
1000
0001
1000
0000
0010
0000
0001
0010
,
0001
0000
1000
0000
0001
0100
1000
0000
,
0010
0000
0000
0001
0000
0000
0100
0000
0220
0000
0000
0000
0000
0000
0330
0000
,
1000
0000
0100
0000
1000
0000
1000
0001
,
0000
0100
0010
0000
0100
0010
0100
0000
,
1000
0010
1000
0100
0000
0001
0001
0000
,
0010
1000
0000
0001
0000
1000
0001
0000
,
0110
0000
0001
0100
0000
1000
0000
0100
,
0000
0010
0000
1000
0100
0000
0010
0000
,
0001
0100
0010
0000
0010
0001
0100
0000
,
0001
0000
0010
0000
1000
0001
1000
0000
,
0002
1003
0010
1000
,
0001
0000
0001
1000
0000
1000
0010
0000
,
1000
0010
0100
0000
1000
0010
1000
0000
,
0010
0001
0100
0000
1100
0000
0110
0000
,
0200
1300
0010
0100
,
0010
0000
0010
0001
0000
0001
1000
0000
,
1000
0000
0001
0100
0000
0001
1000
0000
,
0010
1000
0000
2002
0000
0000
0000
3003
;

//---------------dance-single - ----------------
#NOTES:
     dance-single:
     :
     Easy:
     6:
     0.320484,0.313578,0.110512,0.232075,0.000000,203.000000,193.000000,10.000000,21.000000,0.000000,0.000000,0.320484,0.313578,0.110512,0.232075,0.000000,203.000000,193.000000,10.000000,21.000000,0.000000,0.000000:
// measure 0
0000
0000
0000
0000
,  // measure 1
0000
0000
0000
0000
,  // measure 2
0020
0030
1000
0100
,  // measure 3
0001
0001
0010
0001
,  // measure 4
2000
3000
0002
0003
,  // measure 5
0010
1000
0100
1000
,  // measure 6
2000
3000
0010
0100
,  // measure 7
0100
0001
1000
0001
,  // measure 8
0020
0030
0200
0300
,  // measure 9
0001
1000
0010
0100
,  // measure 10
0002
0003
1001
0100
,  // measure 11
0010
1000
0100
0010
,  // measure 12
1000
0100
0100
1000
,  // measure 13
0010
0100
0001
1000
,  // measure 14
0020
0030
0110
0100
,  // measure 15
1000
0100
0100
1000
,  // measure 16
0010
0001
0100
0010
,  // measure 17
1000
0100
1000
0000
,  // measure 18
0020
0030
0100
1000
,  // measure 19
1000
0001
0100
0010
,  // measure 20
2000
3000
0001
1000
,  // measure 21
0010
0010
1000
0100
,  // measure 22
0002
0003
0010
0001
,  // measure 23
0100
0001
0010
0010
,  // measure 24
2000
3000
0100
0010
,  // measure 25
0200
0000
0000
0300
,  // measure 26
0110
0000
0001
0010
,  // measure 27
1000
0100
1000
0010
,  // measure 28
0001
1000
0100
0100
,  // measure 29
0001
0010
1000
0000
,  // measure 30
1001
0000
0010
1000
,  // measure 31
0100
1000
0001
1000
,  // measure 32
1000
0010
0100
0001
,  // measure 33
0100
0000
0220
0330
,  // measure 34
0100
0001
0010
0100
,  // measure 35
0010
0100
1000
0001
,  // measure 36
1000
0100
1000
1000
,  // measure 37
0010
0100
0001
0001
,  // measure 38
0010
1000
0100
0001
,  // measure 39
0010
0001
0100
0010
,  // measure 40
1000
0000
0001
0000
2002
0000
0000
3003
,  // measure 41
0220
0330
1000
0100
,  // measure 42
0001
0100
0010
0010
,  // measure 43
0001
1000
0001
1000
,  // measure 44
0010
0010
0100
0000
,  // measure 45
2002
3003
0100
0100
,  // measure 46
0001
1000
0010
0100
,  // measure 47
0001
1000
0001
0001
,  // measure 48
0010
0001
1000
0000
,  // measure 49
1001
0010
0100
1000
,  // measure 50
0100
0010
0001
0001
,  // measure 51
1000
0010
1000
0100
,  // measure 52
0100
1000
0010
0000
,  // measure 53
0110
0100
0001
1000
,  // measure 54
0010
0010
1000
0100
,  // measure 55
0001
1000
0010
0100
,  // measure 56
1000
0001
0010
0100
;
