#TITLE:Alive in my Soul;
#SUBTITLE:;
#ARTIST:aran;
#TITLETRANSLIT:;
#SUBTITLETRANSLIT:;
#ARTISTTRANSLIT:;
#GENRE:;
#CREDIT:;
#BANNER:Alive in my Soul.png;
#BACKGROUND:Alive in my Soul-bg.png;
#LYRICSPATH:;
#CDTITLE:;
#MUSIC:Alive in my Soul.ogg;
#OFFSET:-0.380000;
#SAMPLESTART:16.379999;
#SAMPLELENGTH:14.222000;
#SELECTABLE:YES;
#BPMS:0.000000=135.000000
;
#STOPS:
;
#BGCHANGES:;
#KEYSOUNDS:;
#ATTACKS:;

//---------------dance-single - ----------------
#NOTES:
     dance-single:
     :
     Beginner:
     2:
     0.140406,0.184791,0.016245,0.081227,0.000000,121.000000,119.000000,2.000000,10.000000,0.000000,0.000000,0.140406,0.184791,0.016245,0.081227,0.000000,121.000000,119.000000,2.000000,10.000000,0.000000,0.000000:
0000
0000
0000
0000
,
0000
0000
0000
0000
,
0000
0000
0000
0000
,
0000
0000
0000
0000
,
0000
0000
0000
0000
,
0100
0000
0100
0000
,
0010
0000
0010
0000
,
1000
0000
0001
0000
,
2000
0000
3000
0000
,
0010
0000
0010
0000
,
0100
0000
0100
0000
,
0010
0000
1000
0000
,
0001
0000
0100
0000
,
1000
0000
1000
0000
,
0001
0000
0001
0000
,
1000
0000
0100
0000
,
0020
0000
0030
0000
,
0100
0100
0100
0000
,
0001
0000
1000
0000
,
0001
0001
0001
0000
,
0010
0000
0100
0000
,
0010
0010
0010
0000
,
0100
0000
0001
0000
,
0100
0100
0100
0000
,
0010
0000
0110
0000
,
1000
0000
0001
0000
,
1000
0000
1000
0000
,
0010
0000
0100
0000
,
0010
0000
0010
0000
,
0001
0000
0100
0000
,
0001
0000
0001
0000
,
0100
0000
1000
0000
,
0100
0000
0100
0000
,
2000
0000
3000
0000
,
0002
0000
0003
0000
,
0020
0000
0030
0000
,
0200
0000
0300
0000
,
0001
0000
0001
0000
,
0100
0000
0100
0000
,
0010
0000
0010
0000
,
1000
0000
1000
0000
,
0001
0001
0001
0000
,
0010
0010
0010
0000
,
1000
1000
1000
0000
,
0100
0100
0100
0000
,
0001
0000
0001
0000
,
0010
0000
0010
0000
,
1000
0000
0001
0000
,
2000
0000
3000
0000
,
0001
0000
0001
0000
,
0010
0000
0010
0000
,
0001
0000
0100
0000
,
0010
0000
1000
0000
,
0100
0000
0100
0000
,
1000
0000
1000
0000
,
0100
0000
0010
0000
,
2000
0000
3000
0000
,
0001
0000
1000
0000
,
0001
0000
0001
0000
,
0100
0000
0010
0000
,
0100
0000
0100
0000
,
0020
0000
0030
0000
,
0002
0000
0003
0000
,
1000
0000
0001
0000
,
0100
0000
0010
0000
,
1001
0000
0000
0000
;

//---------------dance-single - ----------------
#NOTES:
     dance-single:
     :
     Easy:
     5:
     0.227435,0.263987,0.040613,0.073104,0.000000,196.000000,191.000000,5.000000,9.000000,0.000000,0.000000,0.227435,0.263987,0.040613,0.073104,0.000000,196.000000,191.000000,5.000000,9.000000,0.000000,0.000000:
0000
0000
0000
0000
,
0000
0000
0000
0000
,
0000
0000
0000
0000
,
0000
0000
0000
0000
,
0000
0000
0000
0000
,
0001
0010
0001
0000
,
1000
0010
1000
0000
,
0100
0010
0100
1000
,
0002
0000
2000
3003
,
0010
0100
0001
0100
,
0010
1000
0100
0000
,
0001
0010
0100
0010
,
0001
1000
0010
0000
,
1000
0001
0100
0001
,
1000
0100
0010
0000
,
0100
1000
0100
0010
,
0200
0300
0010
0110
,
1000
1000
0010
0010
,
0100
0001
0100
0000
,
0010
0010
0001
0001
,
1000
0100
1000
0000
,
0100
0100
0001
0001
,
0010
0100
0010
0000
,
1000
1000
0100
0100
,
0001
0010
0001
0000
,
1001
0000
0010
0100
,
0010
1000
0001
0000
,
0100
0000
0001
1000
,
0001
0100
0010
0000
,
0100
0000
0100
0000
,
0001
0000
0001
0000
,
1000
1000
0010
0010
,
0100
0001
1000
0000
,
0020
0000
0100
0030
,
0200
0000
0001
0300
,
0002
0000
1000
0003
,
2000
0000
0010
3000
,
0010
0100
0010
0000
,
1000
0001
1000
0000
,
0001
0010
0001
0000
,
1000
0100
1000
0000
,
0010
0001
1000
0000
,
0001
0010
0100
0000
,
1000
0010
0100
0000
,
0001
1000
0100
0000
,
0010
0010
0100
0100
,
1000
1000
0001
0001
,
0100
0010
1000
0001
,
0020
0000
0030
0110
,
0100
1000
0100
1000
,
0010
0100
0001
0000
,
0010
0100
0010
0100
,
1000
0001
0100
0000
,
0001
1000
0001
1000
,
0100
0010
1000
0000
,
0010
0001
0100
0001
,
2000
3000
0001
1001
,
0010
0010
0100
0100
,
0001
1000
0001
0000
,
1000
1000
0010
0010
,
0100
0001
0100
0000
,
0010
0000
0001
0000
,
0100
0000
0010
0000
,
1000
0010
0100
0010
,
0100
0001
0010
0000
,
1001
0000
0000
0000
;

//---------------dance-single - ----------------
#NOTES:
     dance-single:
     :
     Medium:
     8:
     0.333030,0.343183,0.040613,0.162454,0.000000,287.000000,282.000000,5.000000,20.000000,0.000000,0.000000,0.333030,0.343183,0.040613,0.162454,0.000000,287.000000,282.000000,5.000000,20.000000,0.000000,0.000000:
0000
0000
0000
0000
,
0000
0000
0000
0000
,
0000
0000
0000
0000
,
0000
0000
0000
0000
,
0000
0000
0000
0000
,
0010
0001
0010
0100
,
1000
0010
0100
0001
,
1000
0001
1000
0010
,
0200
0000
0300
0110
,
0010
0000
1000
0010
1000
0000
0001
0100
,
0001
0000
0010
0001
0010
0000
0100
0000
,
1000
0000
0010
0100
0010
0000
0001
0100
,
0001
0000
1000
0001
1000
0000
1010
0000
,
0100
0000
0001
0010
0001
0000
0100
0010
,
0100
0000
0010
1000
0010
0000
0100
0000
,
0001
0000
1000
0100
1000
0000
0010
0100
,
0020
1000
0001
0031
,
0100
0000
0001
0000
1000
0000
0010
1000
,
0010
0000
0100
0000
0001
0000
1000
0001
,
1000
0000
0010
0000
0100
0000
0001
0100
,
0001
0000
1000
0000
0100
0010
0100
0000
,
0001
0000
0100
0000
0010
0000
1000
0010
,
1000
0000
0001
0000
0100
0000
0010
0100
,
0010
0000
1000
0000
0001
0000
0010
0001
,
0010
0000
0100
0000
0001
1000
0001
0000
,
0010
0000
1000
0000
0001
1000
0001
0000
,
0100
0000
0001
0000
0100
0010
0100
0000
,
1000
0000
0001
0000
0100
0001
0100
0000
,
0010
0000
0100
0000
0001
0100
0001
0000
,
2000
0000
3001
2000
0000
0000
3010
0000
,
0200
0000
0310
0200
0000
0000
0301
0000
,
2000
0010
0000
0001
,
0100
0000
0001
0000
3010
0100
0010
0000
,
0002
1000
0010
0003
,
0200
0010
0001
0300
,
2000
0001
0100
3000
,
0020
1000
0001
0030
,
2000
0100
0001
3001
,
0020
1000
0100
0130
,
0002
0010
1000
1003
,
0200
0001
0010
0310
,
1000
0000
0001
0000
1000
0000
0001
0010
,
0001
0000
0100
0000
0001
0000
0100
0010
,
0100
0000
0001
0000
0100
0000
0010
1000
,
0010
0000
0100
0000
0010
1000
0001
1000
,
0100
1000
0010
0100
,
0001
0010
0100
1000
,
0001
0001
1000
1000
,
0100
0010
0100
1001
,
0010
0000
0001
1000
0001
0000
0100
0010
,
0100
0000
1000
0100
1000
0000
0001
0000
,
0100
0000
0001
0010
0001
0000
1000
0010
,
1000
0000
0001
1000
0001
0000
0101
0000
,
0100
0000
0010
1000
0010
0000
1000
0100
,
1000
0000
0001
0010
0001
0000
0100
0000
,
0010
0000
0100
0001
0100
0000
0010
0000
,
2000
0001
0010
3010
,
0100
0000
0010
0100
0010
0000
1000
0010
,
1000
0000
0001
1000
0001
0000
0010
0000
,
0100
0000
0001
0010
0001
0000
1000
0100
,
1000
0000
0010
0100
0010
0000
0100
0000
,
0002
0000
1003
0002
0000
0000
0013
0000
,
0000
0200
0310
0200
0000
1000
1300
0000
,
0010
0100
0001
0010
,
0100
0000
1000
0000
0010
0100
0001
1000
,
1001
0000
0000
0000
;

//---------------dance-single - ----------------
#NOTES:
     dance-single:
     :
     Hard:
     12:
     0.468795,0.527975,0.162454,0.146208,0.300539,404.000000,384.000000,20.000000,18.000000,0.000000,0.000000,0.468795,0.527975,0.162454,0.146208,0.300539,404.000000,384.000000,20.000000,18.000000,0.000000,0.000000:
// measure 0
0000
0000
0000
0000
,  // measure 1
0000
0000
0000
0000
,  // measure 2
0000
0000
0000
0000
,  // measure 3
0000
0000
0000
0000
,  // measure 4
0000
0000
0000
0000
,  // measure 5
0100
0000
0000
0010
0100
0000
0001
0000
1000
0000
0000
0000
0010
0000
1000
0000
,  // measure 6
0001
0000
0000
0100
0001
0000
0010
0000
0100
0000
0000
0000
1000
0000
0010
0000
,  // measure 7
0100
0000
0000
0001
0000
0000
1000
0000
0100
0000
1000
0000
0010
0000
0100
0000
,  // measure 8
0020
0000
1000
0000
1030
0001
1001
0000
,  // measure 9
0010
0000
0100
0010
0000
0000
0001
0000
1000
0000
0100
1000
0000
0000
0010
0000
,  // measure 10
0100
0000
0001
0100
0000
0000
0010
0000
1000
0000
0000
0000
0101
0000
0000
0000
,  // measure 11
0001
0000
0010
0001
0000
0000
0100
0000
0010
0000
1000
0010
0000
0000
0100
0000
,  // measure 12
0001
0000
1000
0001
0000
0000
0100
0000
0001
0000
0010
0000
0110
0000
0100
0000
,  // measure 13
1000
0000
0010
1000
0000
0000
0001
0000
0100
0000
0010
0100
0000
0000
0001
0000
,  // measure 14
0010
0000
1000
0010
0000
0000
0001
0000
0100
0000
0000
0000
1010
0000
0000
0000
,  // measure 15
1000
0000
0001
1000
0000
0000
0010
0000
0100
0000
0010
0000
1000
0000
0001
0000
,  // measure 16
0200
0000
0301
0000
0010
0001
0011
0000
,  // measure 17
1000
0000
0000
0100
0000
0000
1000
0000
0010
0000
0000
0100
0000
0000
0001
0000
,  // measure 18
0010
0000
0000
0100
0000
0000
0010
0000
0001
0000
1000
0000
1010
0000
0000
0000
,  // measure 19
0100
0000
0000
0010
0000
0000
0100
0000
0001
0000
0000
1000
0000
0000
0100
0000
,  // measure 20
1000
0000
0000
0010
0000
0000
1000
0000
0100
0000
0010
0000
0011
0000
0001
0000
,  // measure 21
1000
0000
0000
0001
0000
0000
1000
0000
0010
0000
0000
1000
0000
0000
0100
0000
,  // measure 22
0001
0000
0000
0010
0000
0000
0001
0000
1000
0000
0010
0000
0110
0000
0000
0000
,  // measure 23
0100
0000
0000
0001
0000
0000
0100
0000
0010
0000
0000
1000
0000
0000
0001
0000
,  // measure 24
0100
0010
0100
0010
1000
0000
0000
0001
1000
0000
0010
0000
0110
0000
0100
0000
,  // measure 25
0001
0100
1000
0100
0001
0010
0100
1000
,  // measure 26
0001
0010
0001
0100
0010
0100
0001
1000
,  // measure 27
0010
1000
0010
0001
0010
0100
0001
0010
,  // measure 28
0200
2300
3020
0230
,  // measure 29
0301
0000
0000
0011
0000
0000
0010
0000
0000
0000
0000
0000
0100
0000
1000
0000
,  // measure 30
0010
0000
0000
0110
0000
0000
0100
0000
0000
0000
0000
0000
0002
0000
0000
0000
,  // measure 31
0023
1000
0100
0001
,  // measure 32
0130
0000
1000
0000
0010
0000
1000
0000
0001
0100
0001
0000
1001
0000
0000
0000
,  // measure 33
1000
0000
0000
0001
0000
0000
0200
0000
0000
0000
0000
0000
0000
0000
0000
0000
,  // measure 34
0310
0000
0000
0100
0000
0000
0002
0000
0000
0000
0000
0000
0000
0000
0000
0000
,  // measure 35
0103
0000
0000
0010
0000
0000
2000
0000
0000
0000
0000
0000
0000
0000
0000
0000
,  // measure 36
3001
0000
0000
0100
0000
0000
0020
0000
0000
0000
0000
0000
0000
0000
0000
0000
,  // measure 37
1030
0001
0000
0010
0000
0100
0000
0010
,  // measure 38
0000
0001
0000
1000
0000
0100
0000
1000
,  // measure 39
0000
0100
0000
0001
0000
0010
0000
0001
,  // measure 40
0000
0010
0000
1000
0000
0010
0100
0010
,  // measure 41
0001
0000
0000
1000
0000
0000
0010
0100
0010
1000
0000
0000
0000
0000
0001
0100
,  // measure 42
0001
0000
0000
0010
0000
0000
0100
1000
0100
0010
0000
0000
0100
0000
1000
0000
,  // measure 43
0010
0000
0000
0100
0000
0000
0001
1000
0001
0100
0000
0000
0000
0000
0010
1000
,  // measure 44
0010
0000
0000
0000
0000
0000
0000
0000
0000
0100
0000
0000
0000
0000
0000
0000
0000
0000
0001
0000
0000
0000
0000
0000
1000
0000
0000
0000
0010
0000
0000
0000
0100
0000
0000
0000
0001
0000
0000
0000
1000
0000
0000
0000
0010
0000
0000
0000
,  // measure 45
0100
0000
0000
0001
0000
0000
0100
0000
0010
0000
0000
0100
0000
0000
0010
0000
,  // measure 46
1000
0000
0000
0010
0000
0000
1000
0000
0001
0000
0000
1000
0000
0000
0001
0000
,  // measure 47
0100
0000
0000
0010
0000
0000
1000
0000
0000
0010
0000
0000
0100
0000
0000
0001
,  // measure 48
0000
0000
0010
0000
0000
0100
0000
0000
1000
0000
0001
0000
1001
0000
0000
0000
,  // measure 49
0100
0000
0010
0100
0000
0000
0001
0000
1000
0000
0010
1000
0000
0000
0100
0000
,  // measure 50
1000
0000
0001
1000
0000
0000
0010
0000
1000
0000
0000
0000
0110
0000
0000
0000
,  // measure 51
0010
0000
0100
0010
0000
0000
1000
0000
0001
0000
0100
0001
0000
0000
1000
0000
,  // measure 52
0001
0000
0010
0001
0000
0000
0100
0000
0010
0000
1000
0000
1100
0000
0100
0000
,  // measure 53
0010
0000
0001
0010
0000
0000
0100
0000
1000
0000
0001
1000
0000
0000
0010
0000
,  // measure 54
0100
0000
0010
0100
0000
0000
0001
0000
1000
0000
0000
0000
0101
0000
0000
0000
,  // measure 55
0010
0000
1000
0010
0000
0000
0100
0000
0001
0000
1000
0000
0010
0000
1000
0000
,  // measure 56
0200
0000
0301
0000
1000
0010
1010
0000
,  // measure 57
0100
0010
1000
0010
0100
0001
1000
0100
,  // measure 58
0010
0001
0010
0100
1000
0010
0110
0100
,  // measure 59
0010
1000
0001
1000
0010
0100
0001
0010
,  // measure 60
0100
0010
0001
1000
0100
1000
1010
0010
,  // measure 61
0200
0000
0301
0020
0000
0000
0031
1000
,  // measure 62
0000
0200
0000
2300
0000
3020
0100
0030
,  // measure 63
0001
0000
0000
1000
0000
0000
0010
0000
0000
1000
0000
0000
0001
0000
0000
0100
,  // measure 64
0000
0000
0010
0000
0000
0100
0000
0000
0001
1000
0001
0010
0100
0000
0010
0000
,  // measure 65
1001
0000
0000
0000
;
