#TITLE:Aki nation;
#SUBTITLE:;
#ARTIST:beatMARIO(COOL&CREATE);
#TITLETRANSLIT:;
#SUBTITLETRANSLIT:;
#ARTISTTRANSLIT:;
#GENRE:;
#CREDIT:;
#BANNER:Aki nation.png;
#BACKGROUND:Aki nation-bg.png;
#LYRICSPATH:;
#CDTITLE:;
#MUSIC:Aki nation.ogg;
#OFFSET:-2.604000;
#SAMPLESTART:64.388000;
#SAMPLELENGTH:10.378380;
#SELECTABLE:YES;
#BPMS:0.000000=185.000000
;
#STOPS:
;
#BGCHANGES:0.000=Aki nation.avi=1.000=0=0=0=StretchNoLoop====,
332.000=Aki nation-bg.png=1.000=0=0=1=====,
99999=-nosongbg-=1.000=0=0=0 // don't automatically add -songbackground-
;
#KEYSOUNDS:;
#ATTACKS:;

//---------------dance-single - ----------------
#NOTES:
     dance-single:
     :
     Hard:
     14:
     0.755588,0.777313,0.347851,0.258658,0.249739,593.000000,554.000000,39.000000,29.000000,0.000000,0.000000,0.755588,0.777313,0.347851,0.258658,0.249739,593.000000,554.000000,39.000000,29.000000,0.000000,0.000000:
0000
0000
0000
0000
,
0000
0000
0000
0000
,
0000
0000
0000
0000
,
0000
0000
0000
0000
,
0001
0100
0010
0100
0001
1000
0010
1000
,
0100
0000
0010
0000
0100
0000
0001
0000
0010
0000
0000
0010
0100
0000
0001
0000
,
1000
0100
1000
1000
0010
0100
0001
0001
,
0011
0000
1100
0000
0010
0100
0010
0001
,
0100
0000
1000
0000
0100
0000
0010
0000
0100
0000
0001
0010
0001
0000
1000
0000
,
0010
0000
1000
0000
0010
0000
0001
0000
0100
0000
0000
1000
0100
0000
0010
0000
,
0100
0000
0001
1000
0001
0000
0001
0000
0100
0000
1000
0000
0100
0000
0000
0010
,
0100
0000
0000
0100
0001
0000
1000
0000
0010
0000
0000
0000
1010
0000
0000
0000
,
0010
0000
0001
0000
0010
0000
1000
0000
0010
0000
0001
0010
0001
0000
0100
0000
,
1000
0000
0100
0000
0010
0000
0001
0000
1000
0000
0000
0010
1000
0000
0010
0000
,
0100
0000
0000
0000
0100
0000
0001
0000
0010
0000
0000
0100
0001
0000
1000
0000
,
0100
0000
0010
1000
0100
0000
0001
0000
0100
0000
0000
0000
0110
0000
0000
0000
,
2000
0000
0000
0000
3000
0000
0010
0001
0010
0000
1000
0000
0100
0000
0010
0000
,
0000
0000
0010
0000
0100
0000
0010
0000
1000
0000
0000
0000
0100
0000
0010
0100
,
0010
0000
0000
0001
0000
0000
0010
0000
0001
0000
1000
0000
0001
0000
0010
0000
,
0100
0000
0001
1000
0100
0000
0010
0000
0100
0000
0000
0000
1010
0000
0000
0000
,
0020
0000
0000
0000
0030
0000
0100
1000
0100
0000
1000
0000
0001
0000
0010
0000
,
0000
0010
0001
0100
0010
0000
1000
0000
,
0110
0000
0010
1000
0010
0100
0010
0001
,
0200
0000
0010
0000
0010
0010
0310
0000
,
2002
0000
0000
0000
3003
0000
0100
0010
0100
0000
1000
0000
0001
0000
1000
0000
,
0000
0000
0100
0000
1000
0000
0100
0000
0010
0000
0000
0000
0011
0000
1000
0010
,
1000
0000
0000
0100
0000
0000
0001
0000
0100
0000
1000
0000
0100
0000
0010
0000
,
0001
0000
0001
0100
0010
0000
0100
0000
0010
0000
0000
0000
1100
0000
0000
0000
,
2000
0000
0000
0000
3000
0000
0001
0100
0001
0000
0010
0000
0001
0000
0100
0000
,
1000
0000
1001
0000
0010
0100
0010
0001
,
0020
0230
0302
2003
,
3002
0000
1000
0000
1000
1000
1003
0000
,
1010
0000
0000
0000
0010
0000
0000
0010
1000
0000
0100
0000
0001
0000
0100
0000
,
0110
0100
0101
1000
1010
0000
0010
1000
,
0100
0000
0000
0000
0100
0000
0000
0001
0010
0000
0001
0000
1000
0000
0010
0000
,
0100
0000
0001
0100
0001
0000
1000
0000
0020
0000
0000
0000
0030
0000
0000
0000
,
0110
0000
0000
0000
1000
0000
0000
1000
0001
0000
0010
0000
0100
0000
1000
0000
,
1001
0010
1010
0100
0101
0000
0010
1000
,
0001
0000
0000
0000
0001
0000
0000
0010
0100
0000
1000
0000
0100
0000
0010
0000
,
1000
0000
1000
0010
1000
0000
0001
0000
0200
0000
0000
0000
0300
0000
0000
0000
,
0001
1000
0001
1000
0010
0100
0010
0100
,
1000
0100
1000
0100
0010
0001
0010
0010
,
0100
1000
0100
0010
0100
0001
0100
0010
,
1000
0100
0001
0010
0001
0000
1001
0000
,
0100
0010
0100
0010
1000
1000
0100
0010
,
0001
0010
0100
0010
0001
0001
0100
0010
,
2000
3020
2030
3002
,
0203
0010
0001
0010
1300
0010
0100
1000
,
0010
0000
1000
0000
0001
1000
0001
0100
0001
0000
0010
0000
0010
0000
0000
0000
,
0100
0000
1000
0000
0010
0100
0010
0001
0010
0000
0100
0000
1000
0000
0000
0000
,
1000
0000
0100
0000
1000
0100
1000
0000
0010
0000
1000
0000
0010
1000
0010
0000
,
1000
0000
0000
0100
0000
0000
0010
0000
0001
0000
0000
0000
0101
0000
0000
0000
,
0020
0000
0000
0000
0030
0000
0100
1000
0100
0000
0010
0001
1000
0000
0010
0000
,
0100
0000
0000
0100
0001
0000
0010
0000
0010
0000
0000
0000
0011
0000
0000
0000
,
0002
0000
0000
0000
2003
0000
0000
0000
3020
0000
0000
0100
0030
0000
0001
0000
,
0110
0000
0000
0110
0000
0000
1000
0000
0110
0000
0010
0000
0100
0000
0001
0000
,
0010
0100
0001
0010
1000
0100
1000
0010
,
1000
0001
0100
0010
0100
0001
0010
0000
,
0001
1000
0001
0001
0010
0001
0010
0010
,
1000
0000
0000
0100
0000
0000
1000
0000
0100
0000
0010
0000
0001
0000
1000
0000
,
0200
0000
0000
0000
0300
0000
0001
1000
0001
1000
0010
0000
0100
0000
0010
0000
,
0100
0000
0000
0100
1000
0000
0100
0000
0001
0000
0000
0000
1100
0000
0000
0000
,
0001
0000
0000
0001
0000
0000
1000
0000
0010
0000
0100
0000
0010
0000
0001
0000
,
0101
0000
0000
0110
0000
0000
1010
0000
0021
0000
0000
0000
1030
0000
0000
0000
,
0010
0000
0100
0000
0010
0000
0100
0000
0001
0000
1000
0001
1000
0000
0001
0000
,
0100
0000
1000
0000
0001
0000
0010
0000
0001
0000
0000
0010
1000
0000
0100
0000
,
0010
0000
0001
0100
0001
0000
1000
0000
0100
0000
0100
0000
0001
0000
0000
0001
,
0100
0000
0000
1000
0010
0000
0100
0000
0001
0000
0000
0000
1010
0000
0000
0000
,
0100
0000
0010
0000
0100
0000
0001
0000
0010
0000
1000
0100
0001
0000
1000
0000
,
0100
0000
0010
1000
0001
0000
1000
0000
0010
0000
0000
0100
0010
0000
1000
0000
,
0001
0000
0100
0001
0010
0000
0010
0000
1000
0000
0100
0010
0001
0000
0010
0000
,
1100
0110
0101
1001
,
1000
0100
1000
1000
0100
0010
0001
0001
,
0100
0001
0100
1000
0001
0100
0010
0100
,
0001
1000
0010
0010
1000
0100
0010
0010
,
0001
0010
0001
1000
0001
0000
0011
0000
,
0100
0001
1000
0010
0100
0010
0100
0001
,
0010
1000
0100
0010
0100
1000
0001
0100
,
0010
1000
0100
0001
0100
0010
0100
0010
,
2000
0000
0000
0000
3200
0000
0000
0000
0310
0000
0001
0010
0001
0000
0100
0000
,
0020
0000
0100
0130
,
0101
0000
0000
0110
0000
0000
1001
0000
2020
0000
0000
0000
0000
0000
0000
0000
,
0000
0000
0000
0000
,
3030
0000
0000
0000
;

//---------------dance-single - ----------------
#NOTES:
     dance-single:
     :
     Medium:
     12:
     0.535155,0.592238,0.338932,0.356770,0.017839,420.000000,382.000000,38.000000,40.000000,0.000000,0.000000,0.535155,0.592238,0.338932,0.356770,0.017839,420.000000,382.000000,38.000000,40.000000,0.000000,0.000000:
0000
0000
0000
0000
,
0000
0000
0000
0000
,
0000
0000
0000
0000
,
0000
0000
0000
0000
,
0010
0001
1000
0000
1000
0010
0100
0000
,
0010
1000
0001
1000
0100
0000
0110
0000
,
0010
0100
0010
0000
0010
1000
0010
0000
,
1100
1001
0110
0011
,
0010
0100
0010
0100
0010
0000
1000
0000
,
1000
0100
1000
0100
1000
0000
0010
0000
,
0001
1000
0001
1000
0001
0000
1000
0000
,
0100
0010
1000
0100
,
1000
0100
1000
0001
0100
0000
0100
0000
,
0010
1000
0010
0100
0010
0000
1000
0000
,
0100
0110
0001
0101
,
1000
0100
0010
1000
2002
0000
3003
0000
,
0010
0000
1000
0000
0010
0100
1000
0000
,
0001
0100
0001
1000
0020
0000
0030
0000
,
0010
0000
0000
1000
0000
0000
0100
0000
1000
0000
0010
0000
1000
0000
0000
0000
,
0010
0100
0001
0100
2000
0000
3000
0000
,
0100
0000
0001
0000
0100
1000
0001
0000
,
0100
1000
0100
1000
0200
0000
0300
0000
,
0001
1000
0100
0010
,
1001
0000
1001
0000
0001
0001
0001
0000
,
1000
0000
0001
0000
0100
0001
0010
0000
,
0010
0001
1000
0100
0002
0000
0003
0000
,
1000
0000
0001
0000
1000
0010
0100
0000
,
1000
0100
1000
0001
2000
0000
3000
0000
,
0100
0000
0010
0000
0010
0100
0010
0000
,
1000
0001
0100
0001
0200
0000
0300
0000
,
0100
0101
1000
1010
,
2000
0000
0020
3030
,
1001
0001
0110
0001
,
0101
1001
0220
0330
,
0100
0100
1000
0100
,
1000
0010
2200
3300
,
0101
0100
1001
1000
,
1100
0110
0202
0303
,
0001
0100
0010
0001
,
0010
0010
0022
0033
,
1000
0000
0100
0010
0001
0000
0001
0010
,
0100
0000
0100
0010
0001
0000
1000
0010
,
0001
0010
0001
0000
1000
0100
1000
0000
,
0010
0001
0100
0000
2200
0000
3300
0000
,
0100
0000
0001
0100
0010
0000
1000
0010
,
0100
0000
0001
0100
0001
0000
1000
0100
,
0020
0230
0320
2030
,
0002
0000
3003
1001
,
1000
0010
1000
0100
0001
0010
1000
0000
,
1000
0100
0010
0001
1000
0010
1000
0000
,
2000
3100
2000
3001
,
0001
1000
0010
0101
,
0010
0000
0010
0000
0100
1000
0100
0000
,
0001
0000
0001
0000
0010
0100
0010
0000
,
1000
1001
0100
0110
,
1000
0000
0000
0100
0000
0000
0010
0000
0002
0000
0000
0000
0013
0000
0000
0000
,
1000
0001
0010
1000
0100
0010
0100
0000
,
0100
1000
0001
1000
0100
0001
1000
0000
,
0020
0130
0020
1030
,
0100
0010
1000
1010
,
0001
0000
0001
0000
0100
1000
0001
0000
,
0100
0000
0100
0000
1000
0001
0100
0000
,
1000
1100
0100
0011
,
1000
0000
0000
0001
0000
0000
1000
0000
0220
0000
0000
0000
0330
0000
0000
0000
,
0100
0001
0100
0001
0100
0000
1000
0000
,
0010
1000
0010
1000
0010
0000
0001
0000
,
1000
0010
1000
0000
0100
1000
0100
0000
,
0010
0100
1000
0010
,
0010
0100
1000
0010
0001
0000
0010
0000
,
0100
1000
0100
0010
1000
0000
0100
0000
,
1000
1100
0010
0110
,
2000
3002
0023
0230
,
0310
1000
0001
0100
0010
0000
0010
0000
,
0100
1000
0010
1000
0100
0000
0100
0000
,
1000
0010
1000
0000
0100
0001
0100
0000
,
1000
0010
0001
1000
0100
0000
0011
0000
,
1000
0100
0010
0100
1000
0000
1000
0000
,
0001
0100
1000
0100
0001
0000
0001
0000
,
0100
1000
0010
0000
0001
0100
0010
0000
,
0010
0001
0100
0000
,
2002
0000
0000
3003
,
0100
0000
0000
0100
0000
0000
0010
0000
0220
0000
0000
0000
0000
0000
0000
0000
,
0000
0000
0000
0000
,
0330
0000
0000
0000
;

//---------------dance-single - ----------------
#NOTES:
     dance-single:
     :
     Easy:
     6:
     0.309626,0.370149,0.169466,0.222981,0.000000,243.000000,224.000000,19.000000,25.000000,0.000000,0.000000,0.309626,0.370149,0.169466,0.222981,0.000000,243.000000,224.000000,19.000000,25.000000,0.000000,0.000000:
0000
0000
0000
0000
,
0000
0000
0000
0000
,
0000
0000
0000
0000
,
0000
0000
0000
0000
,
0100
0100
0100
0000
,
0001
0001
0001
0000
,
0020
0030
2000
3000
,
0200
0300
2002
3003
,
0010
1000
0010
0000
,
0100
1000
0100
0000
,
0010
0010
0100
0000
,
0001
1000
0001
0000
,
1000
0010
1000
0000
,
0010
0100
0010
0000
,
0100
0100
1000
0000
,
0001
0001
0100
0000
,
2000
3000
0020
0030
,
0100
0010
0200
0300
,
0200
0300
0020
0030
,
0001
0010
0002
0003
,
2000
3000
0020
0030
,
0010
1000
0020
0030
,
2000
3000
0002
0003
,
0100
0001
0200
0300
,
1000
1000
0001
0000
,
0001
0001
1000
0000
,
0010
0010
0100
0100
,
0001
0000
0110
0000
,
0100
0010
0100
0000
,
0010
1000
0010
0000
,
1000
0100
1000
0010
,
0001
0000
1001
0000
,
0110
0000
1001
0000
,
1100
0000
0011
0000
,
0100
0100
0001
0001
,
1000
0000
0100
0000
,
0110
0000
1001
0000
,
0101
0000
1010
0000
,
0100
1000
0010
1000
,
0100
1000
0001
0000
,
1000
1000
0010
0000
,
0010
0010
0100
0000
,
0001
0010
0001
0000
,
1000
0100
1000
0000
,
0001
0001
0010
0000
,
0010
0010
1000
0000
,
2000
0000
3200
0000
,
0320
0000
0032
0000
,
0103
0010
0100
0000
,
0001
0010
0001
0000
,
1000
0100
0001
0010
,
0001
0000
0110
0000
,
1000
1000
0100
0000
,
0001
0001
0010
0000
,
0100
0100
1000
0100
,
0001
0000
1001
0000
,
1000
0100
1000
0000
,
0010
0001
0010
0000
,
0100
0100
0001
0010
,
0001
1000
0100
0000
,
1000
0010
1000
0000
,
0100
1000
0100
0000
,
0010
0010
0100
0100
,
0001
0010
0001
0000
,
1001
0000
0100
0010
,
0100
0000
0010
1000
,
0100
0000
0001
0001
,
0010
0100
1000
0000
,
0110
0000
1000
0100
,
0001
0000
0010
0010
,
0001
0000
0100
0010
,
0100
1000
0001
0000
,
1001
0000
0100
0010
,
0100
0000
0001
0010
,
0001
0000
1000
0100
,
0010
0100
0001
0000
,
0110
0000
0010
0001
,
0010
0000
0100
0010
,
0001
0001
1000
0010
,
1000
0100
0001
0000
,
0220
0000
0330
0000
,
1000
0001
2002
0000
,
0000
0000
0000
0000
,
3003
0000
0000
0000
;

//---------------dance-single - ----------------
#NOTES:
     dance-single:
     :
     Challenge:
     13:
     0.559365,0.591793,0.383528,0.312174,0.022298,439.000000,396.000000,43.000000,35.000000,124.000000,0.000000,0.559365,0.591793,0.383528,0.312174,0.022298,439.000000,396.000000,43.000000,35.000000,124.000000,0.000000:
0000
0000
0000
0000
,
0000
0000
0000
0000
,
0000
0000
0000
0000
,
0000
0000
0000
0000
,
0010
0001
0010
0000
0100
0001
0100
0000
,
0010
1000
0100
1000
0020
0000
2030
0000
,
3100
0010
0100
0000
0010
0001
0010
0000
,
0101
1100
0110
MMMM
,
0100
0001
0010
0000
0010
1000
0100
0000
,
1000
0001
1000
0010
0100
0000
0101
0000
,
0020
0000
1030
0100
2000
0000
3001
0010
,
0100
0001
0010
0000
1001
0000
MMMM
0000
,
0100
1000
0001
0000
0001
0010
0100
0000
,
0010
1000
0100
0001
0010
0000
0011
0000
,
0200
0000
0301
0010
0002
0000
1003
0010
,
1000
1000
0001
0100
0010
0000
MMMM
0000
,
0200
0000
0010
0000
0301
1000
0010
0000
,
0100
1000
0100
0001
0010
0000
MMMM
0000
,
0001
0000
0000
1000
0000
0000
0001
0000
0010
0000
0010
0000
0100
0000
0000
0000
,
1000
0100
1000
0001
0010
0000
MMMM
0000
,
0200
0000
0001
0000
1300
0001
0100
0000
,
0010
1000
0100
1000
0010
0000
MMMM
0000
,
1000
0101
0001
0011
,
0001
1000
0010
0100
1000
0000
MMMM
0000
,
0201
0000
0010
0000
0301
1000
0001
0000
,
1000
0100
1000
0001
0010
0000
MMMM
0000
,
0100
0000
0000
1000
0000
0000
0100
0000
0010
0000
0010
0000
0001
0000
0000
0000
,
0010
1000
0010
0100
0001
0000
MMMM
0000
,
1200
0000
0010
0000
1300
0010
0100
0000
,
0100
0000
0001
0000
0100
0001
0010
0000
,
0100
1100
0010
0110
,
0102
1000
0103
MMMM
,
1001
MMMM
0110
MMMM
,
1100
0101
0110
MMMM
,
1000
0000
1000
0001
0100
0000
0100
0010
,
0100
0001
1000
0010
0100
0000
MMMM
0000
,
0011
MMMM
1010
MMMM
,
1100
1010
1001
MMMM
,
0010
0000
0010
0001
1000
0000
0100
1000
,
0100
0001
1000
1000
0010
0000
MMMM
0000
,
0100
0000
0001
0000
0100
0000
0010
1000
,
0010
0100
0000
0100
0001
0000
0001
1000
,
0010
0000
0100
0000
1000
0010
1000
0000
,
0010
1000
0100
1000
0010
0000
MMMM
0000
,
0100
0001
0200
0000
0310
1000
0020
0000
,
1030
0001
2000
0000
3100
0010
0100
0000
,
0011
0101
1010
0110
,
2002
0000
3003
MMMM
,
0010
0001
0100
0010
0100
0100
1000
0000
,
0010
1000
0100
1000
0001
0001
0010
0000
,
1000
0010
1000
0000
0100
0001
0100
0000
,
0010
1000
0100
0010
0100
0000
MMMM
0000
,
0001
0000
0011
0000
0010
1000
0100
0000
,
1000
0001
1000
0010
0100
0000
MMMM
0000
,
0002
2003
3020
0230
,
0301
0000
0000
0010
0000
0000
1000
0000
0010
0000
0010
0000
MMMM
0000
0000
0000
,
0100
1000
0010
1000
0100
0100
0010
0000
,
0001
1000
0001
0010
1000
1000
0001
0000
,
0100
0010
0100
0000
0001
0010
0001
0000
,
0010
1000
0100
0001
0010
0000
MMMM
0000
,
0002
0000
2003
0000
3001
0001
0010
0000
,
0200
0000
0320
0000
0130
1000
1000
0000
,
0010
1010
0100
1100
,
1000
0000
0000
1001
0000
0000
0010
0000
0110
0000
0000
0000
MMMM
0000
0000
0000
,
0001
0100
0001
0000
0010
0001
0010
0000
,
1000
0100
0001
0100
1000
0010
0100
0000
,
0002
0000
0103
0010
0200
0000
0310
0001
,
0010
1000
0100
0010
0100
0000
MMMM
0000
,
0010
1000
0010
0000
0100
1000
0100
0000
,
0001
0010
0100
0010
0001
1000
0100
0000
,
0002
0000
1003
0100
2000
0000
3010
0100
,
0002
0000
2003
0000
3001
0001
MMMM
0000
,
0100
0001
0010
0000
1010
0000
1000
0001
,
0010
0000
0101
0000
0010
1000
1010
0000
,
0001
0010
0100
0000
1001
0000
0010
1000
,
0100
1000
0010
0000
0110
0000
MMMM
0000
,
0100
1000
0100
0001
0010
0000
0010
1000
,
0100
1000
0010
0000
0001
0100
0101
0000
,
0200
0000
0010
0010
0301
0000
1001
0000
,
MMMM
0000
MMMM
0000
0010
1000
0100
1000
,
0220
0000
0330
MMMM
,
0010
0000
0000
1100
0000
0000
0100
0000
2002
0000
0000
0000
0000
0000
0000
0000
,
0000
0000
0000
0000
0000
0000
0000
0000
0000
0000
0000
0000
0000
0000
0000
3003
;

//---------------dance-single - ----------------
#NOTES:
     dance-single:
     :
     Beginner:
     4:
     0.214062,0.254422,0.053516,0.053516,0.000000,168.000000,162.000000,6.000000,6.000000,0.000000,0.000000,0.214062,0.254422,0.053516,0.053516,0.000000,168.000000,162.000000,6.000000,6.000000,0.000000,0.000000:
// measure 0
0000
0000
0000
0000
,  // measure 1
0000
0000
0000
0000
,  // measure 2
0000
0000
0000
0000
,  // measure 3
0000
0000
0000
0000
,  // measure 4
1000
0000
0000
0000
,  // measure 5
0001
0000
0000
0000
,  // measure 6
0010
0000
0100
0000
,  // measure 7
0010
0010
0010
0000
,  // measure 8
0100
0000
0100
0000
,  // measure 9
0010
0000
0100
0000
,  // measure 10
0001
0000
0001
0000
,  // measure 11
1000
0000
0001
0000
,  // measure 12
0010
0000
0010
0000
,  // measure 13
1000
0000
0010
0000
,  // measure 14
0001
0000
0001
0000
,  // measure 15
0100
0000
0110
0000
,  // measure 16
0010
0000
0100
0000
,  // measure 17
0010
0000
0010
0000
,  // measure 18
1000
0000
0001
0000
,  // measure 19
1000
0000
1000
0000
,  // measure 20
0010
0000
0010
0000
,  // measure 21
0100
0000
0100
0000
,  // measure 22
0001
0000
1000
0000
,  // measure 23
0002
0000
0003
0000
,  // measure 24
1000
0000
1000
0000
,  // measure 25
0010
0000
0010
0000
,  // measure 26
0100
0000
0010
0000
,  // measure 27
0100
0000
0100
0000
,  // measure 28
1000
0000
0001
0000
,  // measure 29
0001
0000
1000
0000
,  // measure 30
0010
0000
0100
0000
,  // measure 31
0220
0000
0330
0000
,  // measure 32
1000
0000
0001
0000
,  // measure 33
1000
1000
1000
0000
,  // measure 34
0010
0000
0100
0000
,  // measure 35
0010
0000
0010
0000
,  // measure 36
0001
0000
1000
0000
,  // measure 37
0001
0001
0001
0000
,  // measure 38
0100
0000
0010
0000
,  // measure 39
0100
0000
0100
0000
,  // measure 40
1000
0000
0100
0000
,  // measure 41
1000
0000
1000
0000
,  // measure 42
0010
0000
0001
0000
,  // measure 43
0010
0000
0010
0000
,  // measure 44
0001
0000
0001
0000
,  // measure 45
1000
0000
1000
0000
,  // measure 46
0100
0000
0100
0000
,  // measure 47
0200
0000
0300
0000
,  // measure 48
0010
0010
0010
0000
,  // measure 49
0100
0100
0100
0000
,  // measure 50
1000
0000
0001
0000
,  // measure 51
1000
0000
1001
0000
,  // measure 52
0010
0000
0010
0000
,  // measure 53
1000
0000
0010
0000
,  // measure 54
0100
0000
0001
0000
,  // measure 55
0200
0000
0300
0000
,  // measure 56
1000
1000
1000
0000
,  // measure 57
0010
0010
0010
0000
,  // measure 58
0001
0000
0100
0000
,  // measure 59
0001
0001
0001
0000
,  // measure 60
0010
0000
0010
0000
,  // measure 61
0100
0000
0100
0000
,  // measure 62
1000
0000
0001
0000
,  // measure 63
1000
0000
1001
0000
,  // measure 64
0010
0010
0010
0000
,  // measure 65
0100
0000
0100
0000
,  // measure 66
1000
0000
0001
0000
,  // measure 67
1000
0000
0010
0000
,  // measure 68
0100
0100
0100
0000
,  // measure 69
0001
0000
0001
0000
,  // measure 70
0010
0000
1000
0000
,  // measure 71
0001
0000
1001
0000
,  // measure 72
0100
0100
0100
0000
,  // measure 73
0010
0000
0100
0000
,  // measure 74
1000
0000
0001
0000
,  // measure 75
1000
0000
1000
0000
,  // measure 76
0001
0001
0001
0000
,  // measure 77
0100
0000
0001
0000
,  // measure 78
0010
0000
0010
0000
,  // measure 79
0100
0100
0100
0000
,  // measure 80
0200
0000
0300
0000
,  // measure 81
1000
0000
1001
0000
;
