#TITLE:Ai no uta;
#SUBTITLE:;
#ARTIST:Yoshihiko Koezuka;
#TITLETRANSLIT:;
#SUBTITLETRANSLIT:;
#ARTISTTRANSLIT:;
#GENRE:;
#CREDIT:;
#BANNER:Ai no uta.png;
#BACKGROUND:Ai no uta-bg.png;
#LYRICSPATH:;
#CDTITLE:;
#MUSIC:Ai no uta.mp3;
#OFFSET:-0.487152;
#SAMPLESTART:44.307152;
#SAMPLELENGTH:14.769230;
#SELECTABLE:YES;
#BPMS:0.000000=130.000000
;
#STOPS:
;
#BGCHANGES:;
#KEYSOUNDS:;
#ATTACKS:;

//---------------dance-single - ----------------
#NOTES:
     dance-single:
     :
     Hard:
     12:
     0.405745,0.427785,0.184088,0.350643,0.017532,324.000000,303.000000,21.000000,40.000000,0.000000,0.000000,0.405745,0.427785,0.184088,0.350643,0.017532,324.000000,303.000000,21.000000,40.000000,0.000000,0.000000:
0000
0000
0000
0000
,
0000
0000
0000
0000
,
0000
0000
0000
0000
,
0000
0000
0000
0000
,
0010
0000
1000
0000
0010
0000
1000
0100
,
1000
0000
0001
0000
1000
0000
0100
0010
,
0100
0000
0001
0000
0100
0000
1000
0100
,
1000
0000
0001
0000
0010
0100
0010
0002
,
0000
1003
0100
1000
0010
0100
0010
0002
,
0000
0000
0100
0000
0103
0010
1000
0020
,
0000
0130
0001
0100
1000
0001
0100
0020
,
0000
0000
1000
0000
1030
0100
0010
0001
,
0010
0000
0110
0000
1000
0001
1000
0200
,
0000
0000
0010
0000
0020
0000
0330
1000
,
0100
1000
0001
0010
0000
0010
0100
0002
,
0000
0000
1000
0000
1003
0100
0001
2000
,
0000
3010
0001
0010
0100
0001
1000
0020
,
0000
0000
0100
0000
0130
0001
1000
0200
,
0000
0301
0010
0001
1000
0010
0001
2000
,
0000
0000
0001
0000
3001
0010
0100
0010
,
0001
0000
0000
0000
1001
0000
0000
0010
1000
0000
0100
0000
0010
0000
0002
0000
,
0000
0000
1000
0000
2000
0000
3003
0001
,
0001
0100
1000
0100
0000
0011
0000
0201
,
0000
0000
0010
0000
0310
0001
1000
0100
,
2000
0000
3010
0100
0200
0000
0310
0001
,
0001
0011
1010
1001
,
0020
0000
1000
0000
1030
0100
0001
0100
,
0000
0010
0001
0010
0000
1000
0001
0100
,
0002
0000
0013
1000
2000
0000
3100
0010
,
0010
1001
1100
0101
,
2000
0000
0100
0000
3100
0001
0100
0020
,
0000
2000
0000
0030
0001
0000
3001
0000
,
0100
0001
0100
1000
0001
0000
0010
0002
,
0000
1000
0100
0103
,
0010
0001
0010
1000
0100
0000
0001
2000
,
0000
0000
0010
0000
0001
0000
3001
0010
,
0100
0010
0100
0002
0000
1000
1003
0010
,
1000
0100
0010
0100
0001
0000
1001
0000
,
0202
0000
0003
0000
0010
0000
0010
0300
,
1000
0000
0010
1000
0010
0001
0100
0000
,
2010
0100
0001
0001
,
3010
0000
0100
0001
0000
0010
0000
1000
,
0000
0001
0011
0000
0100
1000
0100
0020
,
0000
0001
0031
0000
0100
1000
0100
0001
,
0000
0010
0011
0000
1000
0100
1000
0010
,
0000
0100
0010
0200
0000
0001
0300
0000
,
1000
0001
0010
0001
0100
2000
0000
3200
,
0000
0010
1000
1300
,
0012
1000
0100
0100
,
1003
0000
0010
0001
0000
0100
0000
0010
,
0000
1000
1100
0000
0001
1000
0001
0200
,
0000
0010
0310
0000
0001
1000
0001
0100
,
0000
0010
1010
0000
0100
0001
0100
1000
,
0000
0010
0000
1000
0002
0000
0000
0013
,
0020
1000
0001
1000
,
0130
1000
0100
0000
0101
0000
0011
0000
,
1000
0000
0000
0100
1000
0000
0000
0010
0100
0000
0001
0000
0010
0000
1000
0000
,
0200
0000
1300
0001
2000
0000
0010
0000
,
3000
0000
0001
0010
0001
0000
0100
0000
1000
0000
0100
0000
0001
0000
1000
0000
,
2000
0000
0100
3000
0010
0001
0110
0200
,
0000
0000
0000
0000
,
0300
0000
0000
0000
;

//---------------dance-single - ----------------
#NOTES:
     dance-single:
     :
     Medium:
     8:
     0.321841,0.347575,0.087661,0.280515,0.000000,257.000000,247.000000,10.000000,32.000000,0.000000,0.000000,0.321841,0.347575,0.087661,0.280515,0.000000,257.000000,247.000000,10.000000,32.000000,0.000000,0.000000:
0000
0000
0000
0000
,
0000
0000
0000
0000
,
0000
0000
0000
0000
,
0000
0000
0000
0000
,
0001
0100
0010
0010
,
0100
0010
1000
1000
,
0001
1000
0100
0100
,
0010
0000
1000
0000
0001
0100
0001
0000
,
0100
0000
1000
0000
0100
0010
0100
0020
,
0000
0000
0030
0000
1000
0001
1000
0000
,
0010
0000
1000
0000
0001
0100
0001
0200
,
0000
0000
0300
0000
0010
0000
0100
0001
,
0100
0000
1000
0000
0100
0000
0001
1000
,
0002
0003
2000
3000
,
0010
0000
0100
0000
0010
0000
1000
0010
,
2000
0000
3000
0000
0100
0001
0100
0000
,
0001
0000
1000
0000
0010
1000
0010
2000
,
0000
0000
3000
0000
0100
0010
0100
0000
,
1000
0000
0001
0000
0100
0001
0100
0002
,
0000
0000
0003
0000
1000
0000
0010
0001
,
0010
0000
1000
0000
0001
0000
1000
0100
,
2000
3000
0020
0030
,
0100
0000
0001
0100
0000
1000
0100
0000
,
0010
0000
0010
0000
1000
0001
1000
0010
,
0001
2000
3100
0002
,
0103
0020
0230
0310
,
1000
0000
1000
0000
0001
0000
0010
1000
,
0020
0000
1000
0000
1030
0000
0001
0100
,
0001
0200
0301
0020
,
0031
2000
3020
1030
,
0001
0000
0001
0000
0100
0000
1000
0100
,
2000
3000
0220
0330
,
0001
0000
0001
0000
1000
0000
0100
1000
,
0100
0010
0001
0100
,
1000
0000
1000
0000
0100
0000
0001
0010
,
0001
0010
0100
1000
,
0010
0001
0010
0000
1000
0000
1100
0000
,
0100
0001
0100
0000
1000
0000
0102
0000
,
2003
0000
0010
0000
,
3100
0001
0100
1001
,
0200
0010
1000
0310
,
0100
0000
0001
0100
0000
0010
0000
1000
,
0000
0001
0002
0000
0003
1000
0000
0110
,
0000
0100
0010
0000
1000
0000
0100
0010
,
0100
0000
1000
0000
0001
0000
0100
0001
,
0100
0010
1000
1000
,
0010
0000
0001
0000
0100
0000
1000
0001
,
2000
0100
3001
1001
,
0020
0001
0100
0031
,
1000
0000
0100
0001
0000
0010
0000
0100
,
0000
1000
2000
0000
3000
0100
0000
0101
,
0000
0010
0001
0000
0100
0000
0001
1000
,
0001
0000
0100
0000
0010
0000
0010
1000
,
0010
0100
1000
1010
,
0100
0000
1000
0000
0100
0010
0100
0000
,
0002
0013
0020
0130
,
1000
0000
0001
0000
1000
0000
0010
0100
,
0010
0000
0001
0000
1000
0010
1000
0000
,
0100
0010
0001
0000
1000
0001
0100
0000
,
0001
1000
0100
0110
,
2002
0000
0000
0000
,
3003
0000
0000
0000
;

//---------------dance-single - ----------------
#NOTES:
     dance-single:
     :
     Easy:
     5:
     0.204125,0.236684,0.070129,0.140257,0.000000,163.000000,155.000000,8.000000,16.000000,0.000000,0.000000,0.204125,0.236684,0.070129,0.140257,0.000000,163.000000,155.000000,8.000000,16.000000,0.000000,0.000000:
0000
0000
0000
0000
,
0000
0000
0000
0000
,
0000
0000
0000
0000
,
0000
0000
0000
0000
,
1000
0000
0010
1000
,
0010
0000
0100
0010
,
0100
0000
0001
0100
,
0001
0000
1001
0000
,
0010
1000
0100
1000
,
0020
0000
0030
0000
,
0001
0100
1000
0100
,
0002
0000
0003
0000
,
1000
1000
0010
0000
,
0100
0100
0001
0000
,
0010
0001
1000
0010
,
0200
0000
0300
0000
,
0001
0100
0010
0100
,
2000
0000
3000
0000
,
0010
1000
0100
0001
,
0020
0000
0030
0000
,
0100
0001
0100
0000
,
0010
1000
0010
0000
,
0001
0100
1000
0001
,
2000
0000
3000
0000
,
0010
0010
0100
0100
,
0010
1000
0001
1000
,
0200
0300
0010
0001
,
0020
0000
0030
0000
,
0001
0001
1000
1000
,
0001
0010
0100
0010
,
0200
0300
1000
0001
,
2000
0000
0000
3000
,
0010
0001
0100
0001
,
0020
0000
0030
0000
,
1000
0100
0001
0010
,
2000
0000
3000
0000
,
0100
0100
1000
0100
,
0010
0010
0100
0010
,
0001
0000
1000
0000
,
0110
0000
1001
0000
,
0020
0000
0030
0000
,
0001
0001
1000
0100
,
0100
0010
0000
0000
,
0001
0001
0000
0000
,
1000
0010
1000
1000
,
0100
0001
0100
0100
,
0010
0001
1000
0010
,
0100
0000
0110
0000
,
0002
0000
0003
0000
,
0010
0010
1000
0010
,
0100
0100
0000
0000
,
1000
1000
0000
0000
,
0010
0001
0010
1000
,
0010
0000
0110
0000
,
2002
0000
3003
0000
,
0010
0001
0010
0000
,
1000
1000
0001
1000
,
0100
0010
0100
0000
,
0010
0001
0010
1000
,
0100
0000
1001
0000
,
0110
0000
0000
0000
;

//---------------dance-single - ----------------
#NOTES:
     dance-single:
     :
     Beginner:
     2:
     0.130239,0.157790,0.035064,0.140257,0.000000,104.000000,100.000000,4.000000,16.000000,0.000000,0.000000,0.130239,0.157790,0.035064,0.140257,0.000000,104.000000,100.000000,4.000000,16.000000,0.000000,0.000000:
// measure 0
0000
0000
0000
0000
,  // measure 1
0000
0000
0000
0000
,  // measure 2
0000
0000
0000
0000
,  // measure 3
0000
0000
0000
0000
,  // measure 4
2000
0000
3000
0000
,  // measure 5
0002
0000
0003
0000
,  // measure 6
0200
0000
0300
0000
,  // measure 7
0020
0000
0030
0000
,  // measure 8
1000
0000
1000
0000
,  // measure 9
2000
0000
3000
0000
,  // measure 10
0100
0000
0100
0000
,  // measure 11
0200
0000
0300
0000
,  // measure 12
0010
0010
0010
0000
,  // measure 13
0001
0000
0001
0000
,  // measure 14
1000
1000
1000
0000
,  // measure 15
0200
0000
0300
0000
,  // measure 16
0010
0000
0010
0000
,  // measure 17
0020
0000
0030
0000
,  // measure 18
0001
0000
0001
0000
,  // measure 19
0002
0000
0003
0000
,  // measure 20
1000
1000
1000
0000
,  // measure 21
0010
0000
0010
0000
,  // measure 22
0100
0100
0100
0000
,  // measure 23
0200
0000
0300
0000
,  // measure 24
1000
0000
0001
0000
,  // measure 25
1000
0000
0001
0000
,  // measure 26
0100
0000
0010
0010
,  // measure 27
0020
0000
0030
0000
,  // measure 28
0100
0000
0010
0000
,  // measure 29
0100
0000
0010
0000
,  // measure 30
1000
0000
0001
0001
,  // measure 31
0002
0000
0003
0000
,  // measure 32
0100
0000
0100
0000
,  // measure 33
0010
0000
0010
0000
,  // measure 34
1000
0000
1000
0000
,  // measure 35
0001
0000
0001
0000
,  // measure 36
0100
0000
0010
0000
,  // measure 37
1000
0000
0001
0000
,  // measure 38
2002
0000
0000
0000
,  // measure 39
3003
0000
0000
0000
,  // measure 40
0002
0000
0003
0000
,  // measure 41
1000
0000
1000
0000
,  // measure 42
0001
0001
0000
0000
,  // measure 43
0010
0010
0000
0000
,  // measure 44
0100
0000
0100
0000
,  // measure 45
1000
0000
1000
0000
,  // measure 46
0001
0000
1000
0000
,  // measure 47
1001
0000
0000
0000
,  // measure 48
0020
0000
0030
0000
,  // measure 49
0001
0000
0001
0000
,  // measure 50
0100
0100
0000
0000
,  // measure 51
1000
1000
0000
0000
,  // measure 52
0010
0000
0010
0000
,  // measure 53
0100
0000
0010
0000
,  // measure 54
0110
0000
0000
0000
,  // measure 55
0001
0000
1000
0000
,  // measure 56
0001
0000
0001
0000
,  // measure 57
0100
0000
0100
0000
,  // measure 58
0010
0000
0100
0000
,  // measure 59
1000
0000
0001
0000
,  // measure 60
1001
0000
0000
0000
;
