#VERSION:0.83;
#TITLE:Adrenaline Rush;
#SUBTITLE:;
#ARTIST:siqlo;
#TITLETRANSLIT:;
#SUBTITLETRANSLIT:;
#ARTISTTRANSLIT:;
#GENRE:;
#CREDIT:;
#MUSIC:Adrenaline Rush.ogg;
#BANNER:Adrenaline Rush.png;
#BACKGROUND:Adrenaline Rush-bg.png;
#CDTITLE:;
#SAMPLESTART:80.599;
#SAMPLELENGTH:15.000;
#SELECTABLE:YES;
#OFFSET:-0.093;
#BPMS:0.000=158.000;
#STOPS:;
#BGCHANGES:;
#FGCHANGES:;

//--------------- dance-single - ----------------
#NOTEDATA:;
#STEPSTYPE:dance-single;
#DESCRIPTION:;
#DIFFICULTY:Beginner;
#METER:3;
#RADARVALUES:0,0,0,0,0;
#NOTES:
0000
0000
0000
0000
,
0010
0000
0010
0000
,
0010
0000
0000
0000
,
0100
0000
0000
0000
,
0100
0000
0000
0000
,
1000
0000
1000
0000
,
1000
0000
0000
0000
,
0001
0000
0001
0000
,
0001
0000
0000
0000
,
1000
1000
1000
0000
,
0001
0001
0001
0000
,
0100
0100
0100
0000
,
0010
0000
0010
0000
,
0110
0000
0100
0000
,
0010
0000
0100
0000
,
1000
0000
0001
0000
,
1000
1000
1000
0000
,
0010
0000
0100
0000
,
0010
0000
0100
0000
,
0001
0000
1000
0000
,
0001
0001
0001
0000
,
2000
0000
3000
0000
,
0002
0000
0003
0000
,
0200
0000
0300
0000
,
0010
0000
0100
0000
,
0020
0000
0030
0000
,
0200
0000
0300
0000
,
0002
0000
0003
0000
,
1000
0000
0001
0000
,
1000
0000
1000
0000
,
0001
0000
0001
0000
,
0100
0000
0100
0000
,
0010
0000
0010
0000
,
0100
0000
0100
0000
,
0010
0000
0010
0000
,
1001
0000
0000
0000
,
0001
0000
1000
0000
,
1001
0000
0000
0000
,
0010
0000
0000
0000
,
0100
0000
0000
0000
,
0010
0000
0000
0000
,
0001
0000
0000
0000
,
1000
0000
0000
0000
,
0001
0000
0000
0000
,
1000
0000
0000
0000
,
0100
0000
0100
0000
,
0200
0000
0300
0000
,
0010
0000
0010
0000
,
0020
0000
0030
0000
,
1000
0000
1000
0000
,
2000
0000
3000
0000
,
0001
0000
0001
0000
,
0001
0000
1001
0000
,
0010
0010
0010
0000
,
0100
0000
0010
0000
,
0100
0100
0100
0000
,
0001
0000
1000
0000
,
0001
0001
0001
0000
,
1000
0000
0001
0000
,
1000
1000
1000
0000
,
0010
0000
0110
0000
,
0100
0100
0100
0000
,
0010
0000
0100
0000
,
0010
0010
0010
0000
,
1000
0000
0001
0000
,
1000
1000
1000
0000
,
0001
0000
1000
0000
,
0001
0001
0001
0000
,
1000
0000
0001
0000
,
1001
0000
0001
0000
,
1000
0000
0001
0000
,
0100
0000
0010
0000
,
0100
0000
0010
0010
,
0010
0000
0100
0000
,
0010
0000
0100
0000
,
0110
0000
0000
0000
,
1000
0000
0001
0000
,
1001
0000
0000
0000
;

//--------------- dance-single - ----------------
#NOTEDATA:;
#STEPSTYPE:dance-single;
#DESCRIPTION:;
#DIFFICULTY:Easy;
#METER:7;
#RADARVALUES:0,0,0,0,0;
#NOTES:
0000
0000
0000
0000
,
0010
0010
0100
0010
,
0100
0001
1000
0001
,
1001
0000
0000
0000
,
0011
0000
0000
1000
,
1010
0000
0110
0000
,
0011
0000
0100
0010
,
0101
0000
1100
0000
,
1001
0000
0010
0010
,
0100
1000
0100
1000
,
0001
0100
0010
0000
,
1000
0001
0100
0010
,
1000
0100
0010
0001
,
1000
1000
0001
1000
,
0010
0100
0010
0010
,
0100
0001
0100
0010
,
0200
0302
0203
0320
,
0031
0100
1000
0100
,
0001
1000
0010
0100
,
0010
1000
0100
0001
,
0020
2030
3002
2003
,
3200
0300
0001
0100
,
0020
0030
1000
0100
,
2000
3000
0001
0100
,
0010
0001
0100
1000
,
0020
0030
0100
0010
,
2000
3000
0100
0010
,
0002
0003
1000
0001
,
0100
0010
1000
0001
,
0100
0010
0000
0010
,
1000
0010
0000
0010
,
0100
0001
0000
0001
,
0100
0010
0100
0100
,
0100
1000
0000
1000
,
0001
1000
0000
0010
,
0200
0000
0300
0000
,
0010
0100
0010
0010
,
1001
0000
0000
0000
,
1100
0000
0000
0000
,
0110
0000
0000
0000
,
0101
0000
0011
0000
,
1010
0000
0000
0000
,
0101
0000
0000
0000
,
1100
0000
0000
0000
,
1010
0000
0000
0000
,
0010
1000
0000
1000
,
0001
0100
0000
0100
,
0010
0100
0000
0100
,
1000
0001
0000
0001
,
0020
0031
0000
0001
,
0200
0310
0000
0010
,
2000
3000
0002
0003
,
2000
3010
0100
0110
,
0100
0001
1000
0010
,
0100
0001
0100
0010
,
1000
0001
1000
0001
,
0100
0001
0100
1010
,
1000
0100
0010
0001
,
0010
0100
1000
0001
,
0100
0010
0100
0001
,
1000
0010
0100
0011
,
1000
0010
0100
0001
,
0100
0010
0001
0010
,
0100
1000
0100
0010
,
0002
0003
0010
0100
,
0010
1000
0001
1000
,
0010
0100
0010
0100
,
0001
0010
0001
0100
,
1000
0000
0100
1000
,
0110
0100
0010
0100
,
0001
1000
0010
0100
,
0001
0100
0010
1000
,
0001
0100
0010
0010
,
0010
0100
0001
1000
,
0010
0100
0001
1000
,
0220
0000
0330
0000
,
0001
1000
0010
0100
,
1001
0000
0000
0000
;

//--------------- dance-single - ----------------
#NOTEDATA:;
#STEPSTYPE:dance-single;
#DESCRIPTION:;
#DIFFICULTY:Medium;
#METER:10;
#RADARVALUES:0,0,0,0,0;
#NOTES:
0000
0000
0000
0000
,
0001
0000
0000
1000
0000
0000
0001
0000
0100
0000
0000
0000
0010
0000
0000
0000
,
0000
0100
1000
0000
0010
0100
0001
1000
,
1010
0000
0000
0000
0000
0000
0000
0100
,
1100
0000
0000
0000
0000
0001
0100
0010
,
1010
0000
1100
0000
,
0011
0000
0000
0100
0001
0100
0010
0000
,
1001
0000
1010
0000
,
1100
0000
0000
0000
0001
0000
1000
0000
0000
0010
0000
0000
0101
0000
0000
0000
,
0010
0000
0010
0100
1000
0000
1000
0010
,
0001
0000
0001
0100
0010
0000
0010
1000
,
0001
1000
0100
0000
0010
0001
1000
0000
,
0200
0302
2003
3020
,
0130
0000
0001
0100
0000
0010
1000
0000
,
0001
0000
0010
0100
0000
0010
1000
0100
,
0001
0000
1000
0001
0000
0100
0010
0000
,
2000
3002
0203
0320
,
1030
0000
0100
0001
0000
0100
1000
0010
,
0100
0000
0010
0100
0000
0010
0100
1000
,
0001
0000
1000
0000
0010
0000
0100
0001
,
0020
0230
0302
2003
,
3020
0000
0030
0000
0100
0001
0100
0000
,
2000
0000
3000
0000
0100
1000
0100
0000
,
0020
0000
0030
0000
0100
0010
0100
0000
,
0002
2003
3200
0320
,
0032
0000
0003
0000
1000
0001
1000
0000
,
0020
0000
0030
0000
0100
0001
0100
0000
,
0020
0000
0030
0000
0001
1000
0001
0000
,
0200
2300
3020
0032
,
0103
0000
0010
0000
0100
0000
0001
1000
,
0000
0100
0010
0000
0100
0001
0100
0000
,
1000
0000
0010
0000
0100
0000
0010
0001
,
1000
0000
0100
0000
0010
1000
0100
1000
,
0001
0000
1000
0000
0010
0000
0100
0010
,
0000
0001
0000
1000
0010
0000
0100
0001
,
0200
0300
1000
0010
,
0011
1100
0110
0110
,
0020
0000
0000
0030
,
0002
0000
0000
0003
,
0200
0000
0000
0300
,
2000
3000
0002
0003
,
2000
0000
0000
3000
,
0200
0000
0000
0300
,
0020
0000
0000
0030
,
2000
3000
0002
0003
,
0100
0000
0010
0000
0000
0100
0001
0000
,
1000
0000
0010
1000
0000
1000
0001
0000
,
0100
0000
0010
0000
0000
0100
0001
0000
,
1000
0000
0010
0100
0000
0100
0010
1000
,
0010
0000
0001
0000
0000
1000
0010
0000
,
1000
0000
0001
0100
0000
0100
0001
0000
,
0010
0000
0001
0010
0001
0000
1000
0100
,
1000
0000
0010
0100
0010
0000
1001
0000
,
0010
1000
0001
0100
,
0010
0100
0001
0010
,
0001
0100
0001
1000
,
0010
0000
0100
0000
1000
0001
0100
0000
,
1000
0010
0100
0010
,
0100
0001
1000
0010
,
1000
0000
0100
0000
0001
1000
0100
1000
,
0010
0001
0010
0101
,
1000
0001
1000
0010
,
0100
0000
0001
0000
1000
0000
0100
0001
,
0100
0000
0010
0000
1000
0100
0001
0010
,
0100
0000
1000
0000
0100
0010
0100
0001
,
1000
0010
0100
1000
,
0100
0000
0001
0000
1000
0000
0001
1000
,
0010
1000
0100
0000
0001
0010
0100
0010
,
1000
0000
0100
0000
0001
0000
0100
0010
,
0100
0001
1000
0010
,
0100
0001
1000
0001
,
0100
0010
0100
0001
,
1000
0000
0010
0000
0100
0100
0010
0010
,
1000
0100
0010
0100
,
0001
1000
0010
0100
,
0002
0000
0003
0000
,
1000
0001
0100
0010
,
0110
0000
0000
0000
;

//--------------- dance-single - ----------------
#NOTEDATA:;
#STEPSTYPE:dance-single;
#DESCRIPTION:;
#DIFFICULTY:Hard;
#METER:16;
#RADARVALUES:0,0,0,0,0;
#NOTES:
0000
0000
0000
0000
,
1000
0000
0000
1000
0000
0000
1000
0000
0010
0000
0000
0100
0000
0000
0010
0000
,
0000
0001
0001
0001
0001
0010
0100
1000
,
0110
0001
0010
0001
0010
0001
0010
1000
,
0011
0100
1000
0100
1000
0100
0010
0001
,
1001
0000
1001
0000
,
1001
0000
0000
0000
0000
0000
0100
0010
0100
0000
0010
0000
0100
0000
0010
0000
,
1100
0000
0011
0000
,
0110
0000
0000
0000
0100
0001
0100
0000
0000
1000
0000
0000
0001
0000
0000
0000
,
1000
1000
0100
0100
0010
0010
0001
0001
,
1000
0100
0010
0001
1000
0100
0010
0100
,
0001
0000
1000
0000
0001
0000
1000
0000
0001
1000
0001
1000
0001
1000
0001
1000
,
0020
0030
0200
0300
2000
3000
0002
0003
,
0100
0001
0000
0001
0000
0000
0100
0010
0000
0010
0100
0000
1000
0001
0000
1000
,
0000
0010
0000
0010
0000
0000
0000
0100
0000
0000
0100
0000
0000
0001
0000
0001
,
1000
0000
0000
0001
1000
0000
1000
0001
0000
0010
0100
0000
0001
0000
0100
0000
,
1010
0010
0110
0100
0101
0001
0010
0000
,
1001
1000
0000
0010
0000
0000
0100
0010
0000
0010
1000
0000
0001
0010
0000
0010
,
0000
0100
0000
0100
0000
0000
0001
1000
0000
1000
0010
0000
0100
0001
0000
0001
,
0010
0000
0000
0100
0010
0000
0100
1000
0000
0010
0100
0000
0001
0000
0010
0000
,
0011
0110
1100
1010
,
2001
0000
0000
0000
3000
0010
0001
0010
0000
1000
0100
0000
0000
0010
0100
0010
,
2000
0000
0000
0000
3000
0001
0010
0001
0000
0100
0010
0000
0000
1000
0100
1000
,
0002
0000
0000
0000
0003
0010
0100
0010
0000
1000
0100
0000
0000
0010
0100
0010
,
0110
0011
1010
1100
,
0201
0000
0000
0000
0300
0001
0010
0001
0000
1000
0010
0000
0000
0010
0100
0010
,
2000
0000
0000
0000
3000
0001
0010
0001
0000
0100
0010
0000
0000
0100
0010
0100
,
0002
0000
0000
0000
0003
1000
0010
1000
0000
0000
0010
0100
0000
0100
1000
0100
,
1100
1010
0110
0011
,
0100
0000
0000
0000
0010
0000
0100
0000
0000
0100
1000
0100
1000
0001
0000
0001
,
0000
0000
0010
0000
0100
0010
0000
0110
0000
0010
1000
0100
1000
0000
0001
0000
,
1000
0100
1000
0000
0110
0000
0000
0000
0100
0000
0001
0010
0011
0000
0000
0000
,
0100
0000
0010
0000
0101
0101
1100
1100
,
0100
0000
0010
0000
1000
0001
0010
0000
,
0100
0000
0010
0000
0100
0010
0100
0100
,
1000
0000
0000
0000
0001
1000
0001
1000
0000
0010
0100
0000
0010
0100
0010
0100
,
0011
0000
0000
1100
0000
0000
0011
0011
0011
0011
0000
0000
,
2000
0000
0000
0000
,
3002
0000
0000
0000
,
0023
0000
0000
0000
,
0230
0000
2300
0000
,
3200
0000
0000
0000
,
0320
0000
0000
0000
,
0032
0000
0000
0000
,
2003
0000
0000
3000
,
0100
0000
0010
0000
0000
0100
0010
0000
,
1000
0000
0010
1000
0000
1000
0010
0000
,
0100
0000
0001
0000
0000
0100
0010
0000
,
1000
0000
0010
0100
0000
0100
0010
0000
,
0110
0000
0001
0000
0000
0010
0100
0000
,
1100
0000
0001
1000
0000
1000
0010
0000
,
0011
0100
1010
0010
,
1100
0000
0100
0010
0100
0000
0110
0000
,
0100
0000
0001
0000
0100
0000
0010
0100
0000
1000
0001
0000
0100
0010
0100
0001
,
0000
1000
0100
0010
0100
0001
0010
0100
1000
0000
1000
0001
0000
0100
0010
0000
,
2000
0000
0000
0000
3100
0000
0010
0100
0000
0000
0001
0000
0100
0000
0010
0000
,
0000
0000
1000
0001
1000
0010
1000
0100
0010
0100
0001
0100
0000
1000
0100
0000
,
0010
0000
1000
0010
0000
0001
0100
0001
0000
0100
0010
1000
0010
0100
0001
0100
,
0010
0000
1000
0001
0000
0010
1000
0000
0100
0000
0001
0010
0000
0010
0001
0100
,
0010
0001
1000
0001
0000
0100
0010
0000
1000
0000
0100
0010
0000
0001
0100
0000
,
0010
0000
1000
0100
0000
1000
0001
0000
0010
0000
0100
0000
1000
0100
1000
0000
,
0001
0000
0100
0000
0010
0000
1000
0010
0000
0100
0000
0001
0000
0100
0010
0100
,
1000
0001
1000
0001
0010
0100
0010
0001
0100
0000
0010
0100
0000
0100
0010
0000
,
1000
0000
0000
0000
0001
0000
0010
0001
0000
1000
0100
0000
0100
0000
1000
0000
,
0000
0000
0001
1000
0010
0100
0001
0010
0100
1000
0001
0010
0000
0100
0010
0000
,
1000
0000
0100
1000
0000
0001
1000
0001
0000
0010
0100
0010
0100
1000
0100
0001
,
0010
0000
0100
0010
0000
0100
1000
0000
0001
0000
1000
0010
0000
1000
0001
1000
,
0010
0001
0010
0100
0000
0010
0100
0000
1000
0000
0001
1000
0000
0100
1000
0000
,
0010
0000
0100
0010
0000
0100
0001
0000
0100
0000
0010
1000
0000
0001
0100
0000
,
1000
0000
0000
0000
1100
0000
0100
0000
0000
0010
0100
0010
0001
0010
0000
0100
,
0000
0000
0010
0000
0100
0000
0001
0100
0000
1000
0100
1000
0010
1000
0100
0000
,
0010
0100
0010
0000
0001
0000
0000
0000
0100
0000
0010
0100
0010
1000
0000
1000
,
0001
0000
1000
0010
1010
1100
0011
0101
,
0110
0000
0000
0000
1000
0000
0100
0000
0000
1000
0001
1000
0001
0010
0000
0001
,
0000
0000
0100
0000
0010
0000
0100
0000
0000
0001
0010
0001
0010
0001
0100
0000
,
2000
0000
0000
0000
3100
0010
0100
0001
0000
0010
0001
0000
0100
0010
0100
0010
,
1100
0110
0101
0011
,
1001
0000
0000
0000
;
