#TITLE:Absolute Domination;
#SUBTITLE:;
#ARTIST:Laur;
#TITLETRANSLIT:;
#SUBTITLETRANSLIT:;
#ARTISTTRANSLIT:;
#GENRE:;
#CREDIT:;
#MUSIC:Absolute Domination.ogg;
#BANNER:Absolute Domination.png;
#BACKGROUND:Absolute Domination-bg.png;
#CDTITLE:;
#SAMPLESTART:78.367;
#SAMPLELENGTH:15.000;
#SELECTABLE:YES;
#OFFSET:0.898;
#BPMS:0.000=109.000
,20.000=218.000
,200.000=109.000
,232.000=218.000
,280.000=109.000
,284.021=218.000
;
#STOPS:80.000=0.275
,81.000=0.275
,96.000=0.275
,111.000=0.275
,284.000=0.281
,285.000=0.275
,286.000=0.275
,287.000=0.275
;
#BGCHANGES:;
#FGCHANGES:;

//--------------- dance-single - ----------------
#NOTES:
     dance-single:
     :
     Beginner:
     6:
     0,0,0,0,0:
0000
0000
0000
0000
,
0000
0000
0000
0000
,
0000
0000
0000
0000
,
0000
0000
0000
0000
,
0000
0000
0000
0000
,
1000
1000
1000
0000
,
0001
0001
0001
0000
,
1000
1000
1000
0000
,
0001
0001
0001
0000
,
0100
0000
0100
0000
,
0010
0000
0010
0000
,
0100
0000
0100
0000
,
0010
0000
0010
0000
,
2000
0000
0000
0000
,
3000
0000
0000
0000
,
0002
0000
0000
0000
,
0003
0000
0000
0000
,
0200
0000
0000
0000
,
0300
0000
0000
0000
,
0020
0000
0030
0000
,
0010
0010
0100
0100
,
0100
0000
0010
0010
,
0010
0000
0100
0000
,
0010
0000
0100
0000
,
0110
1000
1000
1000
,
0000
0001
0001
0001
,
0000
1000
0000
0001
,
0000
1000
0000
1001
,
0100
0000
0010
0000
,
0100
0000
0010
0000
,
0100
0000
0010
0000
,
0100
0000
0010
0000
,
1000
0000
0001
0000
,
1000
0000
0001
0000
,
2000
0000
0000
0000
,
3000
0000
0000
0000
,
1001
0000
0000
0000
,
0001
0000
1000
0000
,
0001
0000
1000
0000
,
0001
0000
1000
0000
,
0010
0000
0010
0000
,
0100
0000
0100
0000
,
0010
0000
0100
0000
,
0010
0000
0100
0000
,
1000
1000
1000
0000
,
0001
0000
1000
0000
,
0001
0001
0001
0000
,
1000
0000
0001
0000
,
0200
0000
0000
0000
,
0000
0000
0300
0000
,
0100
0000
0100
0000
,
0010
0000
0010
0000
,
1000
0000
1000
0000
,
0001
0000
0001
0000
,
0100
0100
0100
0000
,
0010
0010
0010
0000
,
1000
1000
1000
0000
,
0002
0000
0003
0000
,
0001
0001
0001
0000
,
1000
0000
0001
0000
,
0100
0100
0100
0000
,
0010
0000
0100
0000
,
0010
0010
0010
0000
,
0100
0000
0010
0000
,
1000
1000
1000
0000
,
0001
0000
1000
0000
,
0010
0010
0010
0000
,
0100
0000
0010
0000
,
0100
0100
0100
0000
,
0010
0000
0100
0000
,
0110
0000
0000
0000
,
1000
0001
1000
0001
,
1000
1000
1000
0000
,
0001
0001
0001
0000
,
1000
0000
1000
0000
,
0001
0000
0001
0000
,
0100
0100
0100
0000
,
0010
0010
0010
0000
,
0100
0000
0100
0000
,
0010
0000
0010
0000
,
1000
1000
1000
0000
,
0001
0001
0001
0000
,
0100
0100
0100
0000
,
0010
0010
0010
0000
,
0001
0001
0001
0000
,
1000
1000
1000
0000
,
0010
0010
0010
0000
,
0100
0100
0100
0000
,
1000
1000
1000
0000
,
2002
0000
0000
0000
,
3003
0000
0000
0000
,
0100
0000
0100
0000
,
0010
0000
0010
0000
,
0110
0000
0000
0000
;

//--------------- dance-single - ----------------
#NOTES:
     dance-single:
     :
     Easy:
     9:
     0,0,0,0,0:
0000
0000
0000
0000
,
0000
0000
0000
0000
,
0000
0000
0000
0000
,
0000
0000
0000
0000
,
0000
0000
0000
0000
,
0010
0100
0010
0000
,
1000
0001
1000
0000
,
0100
1000
0100
0000
,
0010
0100
0010
0000
,
0001
0010
0001
0100
,
1000
0010
0100
0001
,
1000
1000
0001
0001
,
0100
0000
0010
0000
,
2002
0000
3003
0000
,
0020
0000
0230
0000
,
0320
0000
0030
0000
,
2000
0000
3002
0000
,
2003
0000
3000
0000
,
0002
0000
0203
0000
,
0320
0000
2030
0000
,
3001
1001
0110
0001
,
0010
0000
1000
0001
,
0100
0000
0010
1000
,
0010
0100
0001
0100
,
1010
0100
0010
0100
,
0000
0001
1000
0001
,
0000
1000
0100
0010
,
0100
0001
0100
0110
,
0001
0001
1000
1000
,
0010
0010
0100
0100
,
1000
1000
0100
0100
,
1000
1000
0001
0001
,
0010
0010
0001
0001
,
0100
0100
0010
0010
,
1000
0001
1000
0001
,
0100
0010
0100
0010
,
0200
0000
0300
0001
,
0001
0000
1000
0000
,
0001
0000
1000
0010
,
1000
0010
0100
0000
,
0001
0010
0001
0010
,
0100
0010
0100
0010
,
1000
0010
1000
0010
,
1000
0100
0001
0011
,
0100
0100
0001
0001
,
1000
0010
0100
0010
,
1000
1000
0001
0001
,
1000
0010
1000
0001
,
0110
0020
0000
0000
,
0000
0000
0030
0000
,
2000
3000
1000
0001
,
2000
3000
0100
0010
,
0200
0300
0020
0030
,
0020
0030
0001
1000
,
0001
0001
0100
1000
,
0010
0010
1000
0001
,
0100
0100
1000
0010
,
0002
0000
2000
3003
,
0010
0100
0010
0100
,
0001
1000
0010
1000
,
0100
0010
0100
0001
,
0010
0001
0010
0100
,
0001
1000
0010
1000
,
0001
0100
0010
0100
,
0001
0100
0010
1000
,
0001
0100
0100
0010
,
0100
0001
1000
0010
,
1000
0001
1000
0010
,
0100
0100
1000
1000
,
0001
0100
0010
0100
,
2002
0003
0010
3100
,
1100
0110
0011
0101
,
0010
1000
0001
0100
,
0010
0001
0100
1000
,
0010
0100
0001
0100
,
0010
0010
0100
0110
,
1000
0100
0001
0010
,
0001
0100
0010
0001
,
1000
0100
0010
1000
,
0001
0001
1000
1001
,
1000
0010
0100
0001
,
0100
0010
0100
0010
,
1000
0001
1000
1000
,
0010
0010
0200
0300
,
0001
0100
0010
1000
,
0001
1000
0010
0100
,
0001
0100
0010
0100
,
0010
0010
1000
1000
,
0001
0001
0100
0100
,
0010
0200
0000
0000
,
0010
0000
0010
0300
,
1000
0000
1000
0000
0000
0001
0000
0000
,
1000
0000
0001
0001
,
1001
0000
0000
0000
;

//--------------- dance-single - ----------------
#NOTES:
     dance-single:
     :
     Medium:
     12:
     0,0,0,0,0:
0000
0000
0000
0000
,
0000
0000
0000
0000
,
0000
0000
0000
0000
,
0000
0000
0000
0000
,
0000
0000
0000
0000
,
0010
1000
0010
0100
,
0001
0100
0010
0100
,
0100
0001
1000
0010
,
0100
0001
1000
0100
,
0001
0100
0010
0100
,
0001
1000
0010
0100
,
0001
0001
1000
1000
,
0010
0100
0020
0000
,
0030
0200
2300
3200
,
0302
0003
0002
0023
,
0030
0200
0320
0230
,
0320
0030
0020
2030
,
3000
2000
3020
2030
,
3200
0300
0200
0302
,
0003
0020
1030
0000
,
0011
0000
1100
0000
0100
0010
0100
0000
,
0001
0100
0010
0000
1000
0001
1000
0000
,
0010
0100
0001
0000
1000
0000
0010
0100
,
0001
0100
0010
0000
0100
0000
0001
0000
,
1001
0000
0010
0100
0010
0000
0100
0001
,
1000
0000
0010
1000
0010
0000
1000
0010
,
0100
0000
0010
0000
0001
1000
0010
1000
,
0001
1000
0010
0110
,
2000
3200
0302
0203
,
0320
0230
2300
3200
,
0320
0230
0302
0203
,
0320
2030
3200
0302
,
0023
0230
0302
0023
,
0032
2003
3020
2030
,
3002
0100
0100
0100
,
1000
0100
0010
0100
,
2000
0000
0000
3003
0000
0010
0100
0020
,
0000
0001
0001
0001
,
0030
0100
1000
0010
,
1000
0001
1000
1010
,
0100
0010
0100
0001
,
0100
0010
1000
0001
,
0100
0001
1000
0010
,
0100
0100
0100
1001
,
0010
0010
0100
0100
,
0001
0100
0010
1000
,
0100
0010
0100
0001
,
1000
0010
0100
1000
,
0001
2002
0000
0000
,
0000
0000
3003
0000
,
1000
0000
0001
1000
,
0010
0000
0100
0010
,
0100
0000
0100
0000
0000
0000
0001
0000
1000
0000
0000
0100
0000
0000
1000
0000
,
0010
0010
0100
0001
,
2000
0000
3000
0001
2000
0000
3020
0000
,
0230
0000
0000
0300
0002
0000
0203
0000
,
2300
0000
3000
0002
0000
0000
0000
0000
,
0003
0010
0020
0030
,
1000
0000
1000
0001
0000
1000
0010
0100
,
0001
0000
0100
0010
0000
1000
0010
0000
,
0001
0000
0100
0001
0000
1000
0100
1000
,
0001
0000
0010
0100
0000
0010
1000
0000
,
0100
0000
0110
0000
0000
0100
0001
0100
,
0010
0000
0010
0001
0000
0001
1000
0000
,
0100
0000
0010
0100
0000
1000
0001
0000
,
0010
0000
0100
0001
0000
0100
0010
0000
,
1000
0000
0010
0000
0100
0000
0001
1000
,
0001
0000
0100
0010
0000
0100
0000
0001
,
1000
0000
0010
0000
0100
0000
1000
0001
,
1000
0000
0010
1000
0000
0010
0001
0100
,
0001
2000
0000
0010
3010
0001
1000
0010
,
0110
1010
0101
1001
,
1000
0100
0001
0010
,
0100
0000
1000
0000
0010
0000
1000
0001
,
0100
0010
0001
0010
,
1000
0001
1000
0101
,
0010
0100
0010
0000
0100
0001
0100
0000
,
0010
0100
0010
0000
1000
0010
1000
0000
,
0100
1000
0100
0001
,
1000
0001
1000
1001
,
0010
0000
0100
0000
0001
0000
0100
0010
,
0100
0000
0001
0000
1000
0010
0100
0010
,
1000
0000
0001
0000
1000
0000
0010
1000
,
0010
1000
2002
3003
,
0001
0000
1000
0000
0010
0000
0100
0001
,
0100
0000
0010
0000
1000
0001
1000
0010
,
1000
0001
0100
0010
,
0100
0001
0100
0000
1000
0001
1000
0000
,
0010
1000
0001
1000
0100
0001
0010
0000
,
0110
0020
0000
0000
,
0230
0000
0020
0330
,
0001
0000
1000
1000
0000
0001
0001
0000
,
0100
0100
0000
0010
0010
0000
0010
0000
,
0220
0000
0000
0000
,
0000
0000
0000
0000
,
0000
0000
0000
0000
0000
0330
0000
0000
;

//--------------- dance-single - ----------------
#NOTES:
     dance-single:
     :
     Hard:
     16:
     0,0,0,0,0:
0000
0000
0000
0000
,
0000
0000
0000
0000
,
0000
0000
0000
0000
,
0000
0000
0000
0000
,
0000
0000
0000
0000
,
0001
1000
0010
0100
,
0001
0000
0000
0100
0000
0000
0010
0000
0000
0100
0000
0100
,
0010
0000
0000
1000
0000
0000
0001
0000
0000
1000
0000
1000
,
0100
0000
0000
0010
0000
0010
0001
0010
0001
0100
0000
0100
,
1000
0000
1000
0001
0000
0001
0100
0000
0100
0010
0000
0010
,
0100
0000
0100
0001
0000
0001
1000
0100
1000
0001
0000
0001
,
1000
0010
0100
0001
1000
0010
0100
1000
0010
0100
0010
0001
,
4000
0400
0000
0000
0000
0000
0000
0000
0000
0000
0000
0000
0000
0000
0000
0000
0000
0000
0000
0000
0000
0000
3300
0000
,
0001
0101
1100
0101
,
0011
0000
0011
0101
,
1000
0110
0011
0110
,
1010
0000
1010
1001
,
0010
1001
1100
0011
,
0110
0000
0101
0110
,
1000
1010
1100
0000
,
1010
0000
0011
0000
1000
0001
0010
0100
,
0010
0100
1000
0100
0010
0100
0001
0010
,
0100
1000
0010
0100
0001
0000
1000
1000
,
0001
0001
0100
0100
0010
0010
0100
0100
,
1001
0000
0001
0010
1000
0100
0001
1000
,
0010
0100
0010
0100
0001
0010
1000
0001
,
1000
0010
0100
0000
1000
1000
0100
0100
,
1000
1000
0011
0000
1001
0000
1100
0000
,
0010
0100
0010
0001
,
0010
1000
0001
0100
,
0010
0100
0010
0001
,
0010
0001
1000
0100
,
1000
0100
0010
0001
,
1000
0010
0100
0010
,
1001
0000
0010
0001
0100
0010
1000
0001
,
0010
0000
1000
0000
0100
0000
0001
0000
0010
0000
1000
0000
0010
1000
0001
1000
,
0100
0000
0000
0000
0000
0100
0010
0001
,
0000
0000
0000
0001
0000
0000
0010
0000
0001
0000
0010
0000
0001
0000
0010
0000
0001
0000
0010
0000
0001
0000
0010
0000
,
0001
0000
1000
0100
0010
0100
1000
0001
,
0000
0000
0000
1000
0000
0000
0100
0000
1000
0000
0100
0000
1000
0000
0100
0000
1000
0000
0200
0000
0000
0000
0000
0000
,
0310
0001
0010
1000
0010
0100
0001
0010
,
0100
1000
0100
1000
0001
0010
0100
1000
,
0010
0100
0001
1000
0010
0100
0001
1000
,
0100
0000
0100
0001
0000
0001
1000
0001
1000
0011
0000
0000
,
0010
1000
0010
1000
0010
1000
0010
0100
0010
0100
0010
0100
,
0001
0010
0001
0010
0001
0010
0001
0010
0100
1000
0000
0000
,
0100
0000
0100
1000
0000
1000
0001
0000
0001
0010
0000
0010
,
1000
0000
1000
0001
0000
0001
0010
0100
0010
0100
1000
0100
,
0001
0000
0000
0000
0004
4000
0000
0000
0000
0000
0000
0000
0000
0000
0000
0000
,
0000
0000
3003
0000
,
0010
0000
0000
0000
0001
0000
0010
0000
0000
0000
0100
0000
0010
0000
1000
0000
0100
0000
0000
0000
1000
0000
0001
0000
0000
0000
1000
0000
0000
0000
0010
0100
,
0010
0000
0000
0000
0100
0000
0010
0000
0000
0000
0100
0000
1000
0000
0100
0000
0001
0000
0000
0000
1000
0000
0001
0000
0000
0000
0010
0000
0000
0000
0100
1000
,
0001
0000
0010
0000
0000
0100
0010
0100
1000
0000
0001
1000
0000
0010
0001
0100
,
0010
0000
1000
1000
0000
0001
1000
0010
0100
0000
0010
0100
0000
0001
0000
0000
,
2000
0000
0000
3200
0320
0000
0032
0000
,
0203
0000
0000
0300
0200
0000
0320
0000
,
2030
0000
0000
0000
0000
0000
3001
0002
0000
0000
0000
0000
0000
0000
0000
0000
,
0003
0000
1000
0001
1000
0001
0000
0000
,
0100
0100
0100
0001
0000
1000
0100
1000
,
0010
0000
0100
0000
0010
0000
1000
0000
0000
0000
0001
0000
0000
0000
0100
1000
,
0100
0010
0100
0001
0000
1000
0010
0100
,
0001
0000
0000
0000
0010
0000
0100
0000
0000
0000
1000
0000
0000
0000
0001
0100
,
1000
0000
0001
0000
0000
0100
0010
1000
,
0001
0000
0100
0001
0000
0010
0100
0000
,
1000
0100
1000
0001
0000
0010
0100
0010
,
1000
0000
0000
0000
1000
0000
1100
0000
0000
0000
0101
0000
0000
0000
0001
0010
,
0001
0100
0100
0001
0000
0100
0010
0100
,
1000
0000
0000
0000
0001
0000
0100
0000
0000
0000
0010
0000
0000
0000
1000
0010
,
1000
0000
0100
1000
0000
0010
0100
0010
,
0001
0000
0000
0000
0100
0000
0010
0000
0000
0000
0100
0000
0000
0000
1000
0010
,
0100
0000
0200
0000
0000
0301
0010
0001
0010
0100
1000
0100
0001
0010
0100
1000
,
1010
0110
1001
0011
,
1000
0100
0001
0100
0010
1000
0001
0100
,
0010
0100
0001
1000
0010
0100
0001
0100
,
0100
1000
0100
1000
0010
0100
0001
0100
,
0010
0000
1000
0001
0000
0100
0010
0000
1000
1001
0000
0000
,
0001
1000
0001
1000
0010
0100
0010
0100
,
0001
0100
0010
1000
0010
0100
0001
0100
,
0010
0000
0010
0001
0000
0001
0100
0000
0100
0010
0000
0010
,
1000
0000
0001
1000
0000
0001
1000
0100
0010
0001
0000
0000
,
0100
1000
0010
0001
1000
0100
0010
0100
,
0001
0000
0100
0000
0010
0000
0001
0000
1000
0000
0010
0000
1000
0000
0001
1000
,
0001
0010
0100
0001
0100
0010
1000
0001
,
1000
0010
0100
0001
1010
2000
0000
0000
,
3100
0010
0001
0100
0010
0100
0001
1000
,
0010
0100
0001
1000
0010
1000
0010
1000
,
0001
0100
0010
0001
0100
0010
0100
0001
,
1000
1000
0100
0100
0010
0010
0001
0001
,
0100
0001
0100
0010
0001
1000
0010
0100
,
0001
0000
0000
0000
0000
0000
0100
0000
0010
0000
0100
0000
0010
0000
0100
0000
0010
0000
1000
0000
0000
0001
0000
0000
,
0100
1000
0100
1000
0100
1000
0001
0100
0001
0020
0000
0000
,
1030
0000
0000
0000
0011
0000
0011
0000
0000
0000
1000
0100
1000
0000
0000
0000
,
1001
0000
1001
0000
0000
0000
0001
1000
0001
0000
0000
0000
1010
0000
0000
0000
,
0220
0000
0000
0000
,
0000
0000
0000
0000
,
0000
0000
0000
0000
0000
0330
0000
0000
;
