#VERSION:0.83;
#TITLE:AREA 51;
#SUBTITLE:;
#ARTIST:96;
#TITLETRANSLIT:;
#SUBTITLETRANSLIT:;
#ARTISTTRANSLIT:;
#GENRE:;
#CREDIT:;
#MUSIC:AREA 51.ogg;
#BANNER:AREA 51.png;
#BACKGROUND:AREA 51-bg.png;
#CDTITLE:;
#SAMPLESTART:44.338;
#SAMPLELENGTH:10.213;
#SELECTABLE:YES;
#OFFSET:0.139;
#BPMS:0.000=188.020;
#STOPS:;
#SPEEDS:0.000=1.000=0.000=0;
#SCROLLS:0.000=1.000;
#TICKCOUNTS:0.000=4;
#TIMESIGNATURES:0.000=4=4;
#LABELS:0.000=Song Start;
#COMBOS:0.000=1;
#ORIGIN:;
#PREVIEWVID:;
#JACKET:AREA 51-jacket.png;
#CDIMAGE:;
#DISCIMAGE:;
#BGCHANGES:;
#FGCHANGES:;

//--------------- dance-single - ----------------
#NOTEDATA:;
#STEPSTYPE:dance-single;
#DESCRIPTION:;
#DIFFICULTY:Beginner;
#METER:4;
#RADARVALUES:0.298842,0.346053,0.123612,0.332801,0,220,207,13,35,0,0,0,0,0,0.298842,0.346053,0.123612,0.332801,0,220,207,13,35,0,0,0,0,0;
#CHARTNAME:;
#CHARTSTYLE:;
#CREDIT:;
#NOTES:
0000
0000
0000
0000
,
0000
0000
0000
0000
,
0000
0000
0000
0000
,
0000
0000
0000
0000
,
0000
0000
0000
0000
,
0000
0000
0000
0000
,
0000
0000
0000
0000
,
0001
0000
0001
0000
,
0001
0000
1001
0000
,
0100
0100
0100
0000
,
0100
0100
0100
0000
,
0010
0010
0010
0000
,
0010
0010
0010
0000
,
1000
1000
1000
0000
,
1000
1000
1000
0000
,
0001
0001
0001
0000
,
0001
0001
0001
0000
,
0200
0000
0300
0000
,
0100
0000
0100
0000
,
0110
0000
0010
0000
,
0100
0000
0010
0000
,
0100
0000
0100
0000
,
0001
0000
0100
0000
,
1000
0000
0001
0000
,
1000
0000
0001
0000
,
1000
0000
1000
0000
,
0010
0000
1000
0000
,
1001
0000
0001
0000
,
0100
0000
0001
0000
,
0100
0000
0100
0000
,
1000
0000
0100
0000
,
0010
0000
1000
0000
,
0010
0000
1000
0000
,
0010
0000
0010
0000
,
0100
0000
0010
0000
,
1000
0000
1000
0000
,
2000
0000
3000
0000
,
0001
0000
0001
0000
,
0002
0000
0003
0000
,
0100
0000
0100
0000
,
0200
0000
0300
0000
,
0010
0000
0010
0000
,
0020
0000
0030
0000
,
0001
0000
1000
0000
,
0002
0000
0003
0000
,
0100
0000
0010
0000
,
0200
0000
0300
0000
,
0010
0000
0001
0000
,
0020
0000
0030
0000
,
2000
0000
3000
0000
,
0001
0000
0001
0000
,
0002
0000
0003
0000
,
2002
0000
3003
0000
,
0100
0000
0100
0000
,
0010
0000
0010
0000
,
0100
0000
0010
0000
,
1000
0000
0001
0000
,
1000
0000
1000
0000
,
0001
0000
0001
0000
,
1000
0000
0001
0000
,
0010
0000
0100
0000
,
0001
0001
0001
0000
,
0100
0100
0100
0000
,
0001
0000
0001
0000
,
0010
0000
0010
0000
,
1000
1000
1000
0000
,
0010
0010
0010
0000
,
1000
0000
0001
0000
,
1000
0000
1001
0000
,
0100
0000
0100
0000
,
0001
0000
0001
0000
,
1000
0000
1000
0000
,
0010
0000
0010
0000
,
1000
0000
1000
0000
,
0100
0000
0100
0000
,
0010
0000
0010
0000
,
0001
0000
0001
0000
,
1001
0000
0000
0000
,
1001
0000
0000
0000
,
2002
0000
0000
0000
,
0000
0000
0000
0000
0000
0000
0000
3003
;

//--------------- dance-single - ----------------
#NOTEDATA:;
#STEPSTYPE:dance-single;
#DESCRIPTION:;
#DIFFICULTY:Easy;
#METER:6;
#RADARVALUES:0.298842,0.346053,0.123612,0.332801,0,220,207,13,35,0,0,0,0,0,0.298842,0.346053,0.123612,0.332801,0,220,207,13,35,0,0,0,0,0;
#CHARTNAME:;
#CHARTSTYLE:;
#CREDIT:;
#NOTES:
0000
0000
0000
0000
0000
0000
0000
1001
,
0000
0000
0000
0000
0000
0000
0000
1001
,
0000
0000
0000
0000
0000
0000
0000
0110
,
0000
0000
0000
0000
0000
0000
0000
0110
,
0000
0000
0000
0000
0000
0000
0000
1100
,
0000
0000
0000
0000
0000
0000
0000
1100
,
0000
0000
0000
0000
0000
0000
0000
0102
,
0000
1000
1000
0100
,
0013
0100
0010
0000
,
0011
0010
0001
0000
,
0100
1000
0100
0000
,
0010
1000
0001
0000
,
0001
0010
0001
0000
,
0110
0100
0010
0000
,
0001
0001
0010
0000
,
1000
0100
0001
0000
,
0001
0010
1000
0000
,
2000
3000
0020
0030
,
0002
0003
0200
0300
,
1001
0000
0100
0000
,
0010
0100
0010
0000
,
1000
0000
0001
0000
,
0100
0100
0010
0000
,
0110
0000
1000
0000
,
0001
0010
1000
0000
,
0100
0000
0001
0000
,
1000
1000
0010
0000
,
1010
0000
1000
0000
,
0100
0010
0001
0000
,
0001
0000
0010
0000
,
0100
1000
0010
0000
,
0101
0000
0100
0000
,
0001
1000
0010
0000
,
1000
0000
0100
0000
,
0010
1000
0010
0000
,
0002
0003
0010
0100
,
0020
0030
1000
0001
,
2000
3000
0010
0100
,
0010
0002
0003
0000
,
2002
3003
1000
0010
,
0200
0300
0001
0100
,
0020
0030
1000
0100
,
2000
0100
3100
0000
,
0010
1000
0020
0030
,
0001
0100
0002
0003
,
0100
1000
0200
0300
,
0010
0100
0020
0030
,
0001
0010
2000
3000
,
0010
1000
0200
0300
,
0100
0100
0010
0010
,
1000
1000
0001
0001
,
0020
0030
0200
0300
,
2000
3000
2002
3003
,
0010
0010
0100
0000
,
1000
1000
0001
0000
,
0010
1000
0010
0000
,
0001
0100
0001
0000
,
0010
1000
0100
1000
,
0010
0001
0100
0000
,
0100
0010
0100
0001
,
0010
0001
1000
0000
,
1001
0000
0100
0010
,
0100
1000
0100
0000
,
0110
0000
0010
1000
,
0010
0010
0001
0000
,
1100
0000
0010
0001
,
0010
0100
0001
0000
,
0011
0000
1000
0010
,
1000
0001
0100
0000
,
2000
3000
1000
0100
,
0020
0030
0010
0001
,
0200
0300
0100
1000
,
0002
0003
0001
0010
,
1000
0100
0020
0030
,
0010
0001
0200
0300
,
0010
0100
0002
0003
,
0010
0100
2000
3000
,
1000
0000
1000
0000
,
0001
0000
0000
0000
0001
0000
0000
0110
,
0000
0000
0000
0000
,
0000
0000
0000
0000
0000
0000
0000
1001
;

//--------------- dance-single - ----------------
#NOTEDATA:;
#STEPSTYPE:dance-single;
#DESCRIPTION:;
#DIFFICULTY:Medium;
#METER:10;
#RADARVALUES:0.490372,0.576756,0.171155,0.313784,0,361,343,18,33,0,0,0,0,0,0.490372,0.576756,0.171155,0.313784,0,361,343,18,33,0,0,0,0,0;
#CHARTNAME:;
#CHARTSTYLE:;
#CREDIT:;
#NOTES:
0000
0000
0000
0000
0000
0000
0000
0100
,
0000
0100
0000
0000
0000
0000
0000
1000
,
0000
1000
0000
0000
0000
0000
0000
0010
,
0000
0010
0000
0000
0000
0000
0000
0001
,
0000
0001
0000
0000
0000
0000
0000
0010
,
0000
0100
0000
0000
0000
0000
0000
0001
,
0000
1000
0000
0000
0000
0000
0000
2010
,
0000
0000
0100
0000
0100
0000
0100
3000
,
0001
1000
0001
1000
0010
0100
0000
1001
,
0000
0000
1000
0000
1000
0000
0010
0001
,
0000
0000
0001
0000
0001
0000
0100
1000
,
0000
0000
0100
0000
0100
0000
0001
1000
,
0000
0000
1000
0000
1000
0000
0010
0001
,
0000
0000
0001
0000
0010
0000
1000
0001
,
0000
0000
1000
0000
0100
0000
0010
1000
,
0000
0000
0001
0000
0100
0000
0001
0010
,
0000
0000
0010
0000
0001
0000
1000
0002
,
0000
0000
1000
0000
0100
0000
1000
0003
,
1000
0010
0001
0010
0100
0010
0000
0101
,
0000
0000
1000
0000
0010
0000
1000
0100
,
0000
1000
0100
0000
0010
0100
0000
0001
,
0000
0001
0100
0010
,
0100
0000
0100
0000
0100
0010
0000
1000
,
0000
0000
0010
0000
0100
0000
0001
1000
,
0000
0010
0100
0000
1000
0100
0000
0001
,
0000
0100
1000
0100
0000
0000
1000
0001
,
1000
0000
0010
0000
0100
0010
0000
1100
,
0000
0000
0001
0010
0001
0000
0000
0010
,
0000
0010
1000
0000
1000
0001
0000
0100
,
0000
0000
1000
0100
1000
0000
0000
0100
,
0000
0010
0010
0000
0001
0010
0000
1000
,
0000
0000
0001
1000
0100
0000
0000
1000
,
0000
1000
0010
0000
0100
1000
0000
0001
,
0000
0010
0100
0000
0001
0000
0100
0010
,
0000
1000
0001
1000
0010
0000
0000
2002
,
0000
0000
3003
0000
0100
1000
0010
1000
,
0000
0000
0000
0000
0010
1000
0000
0220
,
0000
0000
0330
0000
1000
0001
0000
1000
,
0000
0010
0010
0000
0010
0000
0000
2200
,
0000
0000
3300
0000
0010
0100
0001
1000
,
0000
0000
0000
0000
0100
0001
0000
0202
,
0000
0000
0303
0000
1000
0001
1000
0020
,
0000
0000
0100
0000
0100
0030
0000
2020
,
0000
0000
3030
0000
0001
1000
0100
0010
,
0000
0000
0000
0000
0001
0010
0000
0022
,
0000
0000
0033
0000
0100
1000
0000
0100
,
0000
0001
0001
0000
0001
0000
0000
2020
,
0000
0000
3030
0000
0100
0010
0100
0010
,
0000
0000
0000
0000
0100
1000
0000
0202
,
0000
0300
0200
0303
,
1000
0000
1000
0000
0010
0001
0000
0220
,
0000
0000
0330
0000
1000
0100
0000
0022
,
0000
0003
0002
0033
,
0001
0100
0010
0000
0010
0100
0010
1000
,
0000
0001
1000
0000
0100
0010
0000
1000
,
0000
0100
0010
0000
0001
1000
0100
0010
,
0000
0100
1000
0100
0000
0010
1000
0000
,
1000
0001
1000
0100
0000
0001
1000
0100
,
0000
1000
0100
0001
0100
1000
0010
0000
,
0100
0001
0100
0010
1000
0010
0000
1000
,
0000
0100
0010
1000
0100
0000
1001
0000
,
0100
1000
0100
0000
1000
0001
1000
0000
,
0001
0010
1000
0010
0001
0000
0000
0010
,
0000
0010
0100
0000
0001
1000
0000
0001
,
0000
2000
0000
0000
0001
0000
3001
0000
,
0100
1000
0010
0000
1000
0010
0001
0000
,
0001
0100
0010
0001
0100
0000
1000
0000
,
0010
0100
0001
1000
0010
0000
1000
1000
,
0000
0100
0001
0100
0010
0100
0000
2000
,
0000
0000
3100
0010
0100
1000
0100
0001
,
0000
0000
0001
0100
0010
1000
0100
0010
,
0000
0000
0100
0001
1000
0100
1000
0010
,
0000
0000
0100
1000
0001
0010
1000
0001
,
0000
0000
0010
0100
0010
0100
0010
0001
,
0000
0000
1000
0100
0010
0001
0100
1000
,
0000
0000
0001
1000
0010
0100
1000
0100
,
0000
0000
0100
0001
0010
0001
0000
2002
,
0000
3003
0000
0100
0000
0100
0000
2020
,
0000
3030
0000
0010
0000
0010
0000
0220
,
0000
0000
0000
0000
,
0000
0000
0000
0000
0000
0000
0000
0330
;

//--------------- dance-single - ----------------
#NOTEDATA:;
#STEPSTYPE:dance-single;
#DESCRIPTION:;
#DIFFICULTY:Hard;
#METER:14;
#RADARVALUES:0.672394,0.692107,0.484938,0.484938,0,495,444,51,51,0,0,0,0,0,0.672394,0.692107,0.484938,0.484938,0,495,444,51,51,0,0,0,0,0;
#CHARTNAME:;
#CHARTSTYLE:;
#CREDIT:;
#NOTES:
0000
0000
0000
0000
0000
0000
1000
0001
,
0000
0011
0000
0000
0000
0000
0000
0010
,
0000
0110
0000
0000
0000
0000
0000
0100
,
0000
1100
0000
0000
0000
0000
0000
1000
,
0000
1001
0000
0000
0000
0000
0000
0010
,
0000
1010
0000
0010
0001
0010
0100
1000
,
0000
1001
0000
0100
1000
0010
0100
0011
,
0000
0001
0010
0001
0100
1000
0100
0001
,
0010
0010
0010
0100
0001
1000
0100
0110
,
0000
0001
0100
1000
0100
0010
0010
1100
,
0000
0010
0100
0001
1000
0100
0100
1010
,
0000
0100
1000
0100
0001
0010
0100
0011
,
0000
0010
0100
0010
1000
0100
0010
1001
,
0000
0100
1000
0100
1000
0010
0100
1010
,
0000
0001
1000
0010
0001
0100
0010
0101
,
0000
1000
1000
0010
0100
0010
1000
1100
,
0000
1000
0001
0010
0100
1000
0100
2000
,
0000
0001
3001
0100
0010
1000
0100
0000
,
0001
1000
0001
0010
0001
0001
0001
0020
,
0000
0100
0130
1000
0100
0000
0010
0001
,
0000
0001
1000
1000
0001
1000
0000
0100
,
0000
0100
1000
0100
1000
0100
0010
0001
,
0100
0010
0001
0100
1000
0010
0000
0200
,
0000
1000
1300
0010
0100
0000
0100
0010
,
0000
0001
0010
0001
0100
0010
0000
2000
,
0000
0010
3010
0020
0000
0200
0030
1000
,
1300
0010
0001
0010
1000
0100
0000
1100
,
0000
0100
1000
0100
1000
0000
1000
0001
,
0000
0001
0010
0010
0100
0010
0000
0110
,
0000
0000
0100
0001
0100
0010
0100
1000
,
0100
0010
0001
0010
0100
0010
0000
1001
,
0000
0100
1000
1000
0100
0000
0100
0001
,
0000
0010
1000
0010
0100
0010
0000
0101
,
0000
0100
1000
0100
0001
0000
1000
0100
,
0001
0010
1000
0100
0010
1000
0000
2002
,
0000
0000
3003
0000
0010
0100
0010
0002
,
0000
1000
0003
0000
0001
0100
0010
2020
,
0000
0000
3030
0000
0100
1000
0000
2000
,
0000
0001
0002
0000
3000
0000
0003
2200
,
0000
0000
3300
0000
1000
0010
1000
0200
,
0000
1000
0300
0000
0100
0010
0001
0022
,
0000
0000
0033
0000
0010
1000
0020
0200
,
0000
0030
0001
0000
0301
0000
0001
0220
,
0000
0000
0330
0000
0010
0100
0010
0200
,
0000
0010
0300
0000
0100
1000
0010
2020
,
0000
0000
3030
0000
1000
1000
0000
0200
,
0000
1000
2000
0000
0300
0000
3000
0022
,
0000
0000
0033
0000
1000
0001
1000
0020
,
0000
0100
0030
0000
0001
0010
0100
2000
,
0000
0010
0010
3010
,
0202
0000
0003
0000
1000
1000
0300
2020
,
0000
0000
3030
0000
0010
0001
0000
2002
,
0000
0000
0000
0000
0000
0000
3003
0100
,
0000
0100
0001
0010
0001
0100
1000
0010
,
0000
0010
0100
0001
0010
0001
0000
1100
,
0000
0100
0010
0100
1000
0100
0000
0001
,
0000
0010
0100
0010
0000
1000
0000
0011
,
0000
1000
0001
1000
0001
0010
0100
0010
,
0001
0100
1000
0010
0100
0010
1000
0100
,
0000
1000
0010
1000
0010
0100
0000
0101
,
0000
0010
0001
0010
0000
0100
0000
1001
,
0000
1000
0010
0001
0100
1000
0001
0010
,
1000
0100
1000
0010
0100
0001
0100
0002
,
0000
0000
0023
0000
1030
1000
0000
0011
,
0000
0202
0000
0000
0300
0000
0003
1010
,
0000
0010
0100
1000
0010
0100
1000
0001
,
0010
0001
0100
0010
1000
0100
0010
1010
,
0000
1000
0001
0100
1000
1000
0100
0100
,
1000
0001
1000
0010
0100
0010
0001
2100
,
0000
0100
3010
0001
0010
0100
0001
0201
,
0000
0001
1300
0010
1000
0100
0010
0021
,
0000
0031
0100
0001
0010
0100
1000
0102
,
0000
0100
0013
0001
0010
0001
0100
2010
,
0000
0001
3100
0010
1000
0100
1000
1020
,
0000
0100
1030
0100
0010
1000
0010
0210
,
0000
1000
0310
0100
1000
1000
1000
0012
,
0000
0100
1003
0100
0010
1000
0100
0101
,
0000
1010
0000
0010
0100
0010
1000
0101
,
0000
1001
0000
0010
0100
0010
0001
2002
,
0000
0000
0000
0000
,
0000
0000
0000
0000
0000
0000
3003
0110
;
