#TITLE:ARACHNE;
#SUBTITLE:(DJ Noriken Remix);
#ARTIST:DJ Noriken;
#TITLETRANSLIT:;
#SUBTITLETRANSLIT:;
#ARTISTTRANSLIT:;
#GENRE:REFLEC BEAT groovin'!!;
#CREDIT:;
#MUSIC:ARACHNE (DJ Noriken Remix).ogg;
#BANNER:ARACHNE (DJ Noriken Remix).png;
#BACKGROUND:ARACHNE (DJ Noriken Remix)-bg.png;
#CDTITLE:;
#SAMPLESTART:23.113;
#SAMPLELENGTH:15.000;
#SELECTABLE:YES;
#OFFSET:-0.076;
#BPMS:0.000=177.000
,64.000=354.000
,65.000=177.000
,128.000=354.000
,129.000=177.000
,193.000=88.500
,207.000=177.000
,239.000=354.000
,240.000=88.500
,242.000=177.000
,301.000=354.000
,302.000=177.000
;
#STOPS:32.000=1.017
,64.000=0.169
,128.000=0.169
,207.000=1.017
,239.000=0.169
,301.000=0.169
;
#DISPLAYBPM:89.000:177.000;
#ORIGIN:;
#PREVIEWVID:;
#JACKET:ARACHNE (DJ Noriken Remix)-jacket.png;
#CDIMAGE:;
#DISCIMAGE:;
#BGCHANGES:;
#FGCHANGES:;

//--------------- dance-single - ----------------
#NOTES:
     dance-single:
     :
     Beginner:
     4:
     0,0,0,0,0:
0000
0000
0000
0000
,
0000
0000
0000
0000
,
0000
0000
0000
0000
,
0000
0000
0000
0000
,
0000
0000
0000
0000
,
0001
0000
0000
0000
,
0001
0000
0000
0000
,
1000
0000
0000
0000
,
1000
0010
0000
0000
,
0000
0010
0000
0000
,
0000
0100
0000
0000
,
0000
0100
0000
0000
,
0000
1000
0000
1000
,
0000
0001
0000
0001
,
0000
0010
0000
0010
,
0000
0220
0000
0330
,
0000
0001
0000
0001
,
0000
1000
0000
1000
,
0000
0001
0000
1000
,
0000
0010
0000
0100
,
0000
0010
0000
0010
,
0000
0100
0000
0100
,
0000
0010
0000
0100
,
0000
1000
0000
0001
,
0000
1000
0000
1000
,
0000
0010
0000
0010
,
0000
1000
0000
0010
,
0000
0100
0000
0001
,
0000
0100
0000
0100
,
0000
0001
0000
0001
,
0000
1000
0000
0001
,
0000
2002
0000
3003
,
0000
0100
0000
0100
,
0000
0010
0000
0010
,
0000
0001
0000
1000
,
0000
0001
0000
1000
,
0000
0001
0000
0001
,
0000
1000
0000
1000
,
0000
0010
0000
0100
,
0000
0010
0000
0100
,
0000
0110
0000
0001
,
0001
0001
0000
1000
,
1000
1000
0000
0010
,
0010
0010
0000
0100
,
0100
0100
0000
1000
,
0000
0001
0000
0010
,
0000
0001
0000
1000
,
0000
2002
0000
3003
,
0000
0001
0000
0001
,
0000
0100
0000
0100
,
0000
0010
0000
0010
,
0000
1000
0000
1000
,
0001
0000
0001
0000
,
1000
0000
1000
0000
,
0001
0000
0010
0000
,
0100
0000
1000
0000
,
0100
0000
0100
0000
,
0010
0000
0010
0000
,
0100
0000
1000
0000
,
2002
0000
3003
0000
,
0000
0000
0100
0000
,
0100
0000
1000
0000
,
1000
0000
0010
0000
,
0010
0000
1000
0000
,
1000
0000
0001
0000
,
0001
0000
0010
0000
,
0010
0000
0100
0000
,
0100
0000
1000
0000
,
1000
0000
0001
0000
,
0001
0000
1000
0000
,
0001
0000
0010
0000
,
0100
0000
0010
0000
,
0010
0000
0100
0000
,
0100
0000
1000
0000
,
1000
0000
0001
0000
,
0001
0000
0200
0000
,
0300
0000
0200
0000
,
0300
0000
0020
0000
,
0030
0000
0020
0000
,
0000
0000
0030
0000
;

//--------------- dance-single - ----------------
#NOTES:
     dance-single:
     :
     Easy:
     6:
     0.304602,0.444679,0.152301,0.136269,0,266,247,19,17,0,0,0,0,0,0.304602,0.444679,0.152301,0.136269,0,266,247,19,17,0,0,0,0,0:
0000
0000
0000
0000
,
0000
0000
0000
0000
,
0000
0000
0000
0000
,
0000
0000
0000
0000
,
0000
0000
0000
0000
,
0020
0000
1030
0100
,
0200
0300
0001
1000
,
2000
3000
0100
0100
,
0010
1000
1000
1000
,
0000
0100
0100
0100
,
0000
0010
0010
0010
,
0000
0001
0001
0001
,
0000
0100
0100
1000
,
1000
0001
0001
0010
,
0010
0100
0010
1000
,
0001
0200
0000
0000
,
0300
0011
0000
0010
,
0100
0110
0000
1000
,
0001
1001
0000
1000
,
0100
0010
0100
1000
,
0100
1100
0000
0010
,
0001
0101
0000
1000
,
0010
1010
0000
0010
,
1000
0100
0001
0002
,
0003
0010
0100
0010
,
0010
1000
0010
1000
,
1000
0100
0001
0010
,
1000
0010
0100
0001
,
0001
1100
0000
1001
,
0000
0101
0000
0110
,
0000
0010
0001
0100
,
1000
0002
0000
0000
,
0003
0010
0000
0010
,
0001
0100
0000
0100
,
1000
0001
0000
0001
,
1000
0001
0010
0010
,
0000
0100
0001
0100
,
0000
1000
0010
1000
,
0000
0001
1000
0001
,
0100
0010
0100
0100
,
0000
1001
0000
0100
,
0100
0110
0000
0010
,
1000
1010
0000
0001
,
0001
0101
0000
0100
,
0110
2000
3000
0002
,
0003
0200
0300
0020
,
0030
1000
0001
0100
,
0010
0200
0000
0000
,
0300
1000
1000
0100
,
0010
0010
0001
0000
0001
0000
0100
0000
,
1000
1000
0010
0000
1000
0001
1000
0000
,
0100
0010
0100
0001
0010
0000
0011
0000
,
1000
0001
1000
1000
,
0010
0100
0010
0010
,
0001
0100
1000
0100
,
0001
1000
0001
0001
,
0010
0010
0100
0100
,
1000
1000
0001
0001
,
1000
0001
0010
0100
,
0020
0000
0000
0030
,
2002
0000
3003
0110
0100
0000
0010
0000
,
0100
1000
0100
0001
,
0010
1000
0001
0100
,
1000
1000
0010
1000
,
0001
1000
0100
0001
,
0010
0001
0100
0100
,
0010
0010
0100
1000
,
0200
0300
0001
0010
,
1000
0010
1000
0100
,
0001
1000
0010
0001
,
0100
1000
1000
0100
,
2000
3000
0100
0100
,
0001
0001
0010
0010
,
1000
1000
0001
1000
,
0010
0100
2000
0000
,
0000
3000
0100
0000
,
1000
0000
0100
0000
,
0010
0010
1000
0000
,
0001
0000
1000
0000
,
0001
1001
0000
0000
;

//--------------- dance-single - ----------------
#NOTES:
     dance-single:
     :
     Medium:
     10:
     0.491256,0.573082,0.240475,0.160317,0.008016,429,399,30,20,0,0,0,0,0,0.491256,0.573082,0.240475,0.160317,0.008016,429,399,30,20,0,0,0,0,0:
0000
0000
0000
0000
,
0000
0000
0000
0000
,
0000
0000
0000
0000
,
0000
0000
0000
0000
,
0000
0000
0000
0000
,
1000
0000
1000
0000
0010
1000
0010
1000
,
0001
0000
0001
0000
1000
0100
1000
0100
,
0010
0000
0010
0000
0100
0001
0010
0001
,
0200
0300
0000
0000
0000
0000
0000
0000
0000
0000
0000
0000
0000
0000
0000
0000
0010
0000
0000
0000
0000
0000
0000
0000
0000
0000
0000
0000
0000
0000
0000
0000
1000
0000
0000
0000
0000
0000
0000
0000
0000
0000
0000
0000
0000
0000
0000
0000
0100
0000
0000
0000
0000
0000
0000
0000
0000
0000
0000
0000
0000
0000
0000
0000
,
1000
1000
0100
0010
,
0001
0100
0110
0001
,
0010
0010
0100
0001
,
0100
0000
1000
0000
0001
1000
0001
0000
,
0010
0100
0010
0000
0100
1000
0100
0000
,
0010
1000
0001
0000
0100
0010
1000
0010
,
0100
0000
0001
0010
0001
1000
1000
0000
,
1001
0000
0010
0000
0100
0000
0010
0100
,
0010
1000
0100
0000
0001
0000
0100
0001
,
0100
0010
1000
0000
0001
0000
1000
0001
,
1000
0100
0001
0000
0010
0000
0001
0010
,
0100
0100
1000
0000
0001
0000
0010
1000
,
0100
1000
0010
0000
0001
0000
0100
0010
,
1000
0010
0100
0000
1000
0000
0001
0100
,
1000
0100
0010
0000
0001
0000
0100
0000
,
1100
0000
0010
0000
0010
0000
0001
0010
,
1000
0001
0100
0000
0100
0000
1000
0010
,
1000
0100
0001
0000
0001
0000
0100
1000
,
0010
0100
1000
0000
1000
0000
0001
0010
,
0010
1000
1100
0100
,
0101
0001
0011
0010
,
1010
0020
2030
3002
,
0203
0000
1300
0010
0001
0010
0010
0000
,
0110
0010
0100
0100
,
0001
1000
0001
0000
1000
0000
1000
0000
,
0010
0001
0010
0000
0100
0000
1000
0000
,
0100
0010
0100
0000
0001
0000
0100
1000
,
1000
0000
0010
1000
0100
0000
1000
0000
,
0100
0001
0010
0000
0001
0000
1000
0000
,
0001
0010
0100
0000
1000
0010
0100
0010
,
0001
0000
0100
0010
0100
0010
1000
0001
,
0001
0000
0011
0000
0000
0000
0100
1000
,
0100
1000
1000
0000
0000
0000
0010
0010
,
0010
0000
0110
0000
0000
0000
1000
0001
,
1000
0001
0001
0000
0000
0000
1000
1000
,
1000
0000
0020
0000
0130
1000
0200
0000
,
0301
0010
0002
0000
1003
0100
2000
0000
,
3001
0010
1000
0000
1000
0010
0100
0010
,
0100
2200
0000
0000
,
3300
0000
1010
0000
0010
0000
0100
0001
,
0010
0001
1000
0000
1000
0000
0010
0010
,
0001
0100
0001
0000
1001
0000
0000
0000
0100
0000
0000
0000
0100
0000
0010
0000
,
1000
0000
0000
0000
0000
0000
0000
0000
0010
0000
0000
0000
0000
0000
0000
0000
0001
0000
0000
0000
0000
0000
0000
0000
0001
0000
0000
0000
0000
0000
0000
0000
1000
0000
0000
0000
0100
0000
0000
0000
1000
0000
0000
0000
0000
0000
0000
0000
0020
0030
0000
0000
0000
0000
0000
0000
0000
0000
0000
0000
0000
0000
0000
0000
,
0100
0000
0001
0000
0101
0000
0010
1000
,
0010
0000
0100
0000
0110
0000
1000
0100
,
1000
0000
0010
0000
1010
0000
0001
0010
,
0001
0000
1000
0000
1001
0000
0100
0010
,
1000
0001
0100
0000
0100
1000
0010
0000
,
0010
0001
1000
0000
1000
0100
0001
0000
,
1010
1100
0101
0011
,
0100
0010
0100
1000
1000
0000
0110
0000
,
0100
0100
0100
1001
0010
0000
0100
0000
,
0100
1000
0001
1000
0001
0000
1000
0000
,
0010
0100
0010
1000
0001
0000
0100
0000
,
1000
0001
0100
0100
0010
0000
1000
0100
,
0001
0100
0010
0000
1000
0000
0010
0100
,
0001
0100
1000
0000
0010
0000
1000
0100
,
0010
0100
0010
0000
0100
0001
0100
1000
,
1000
1010
0200
1000
,
1300
0010
0001
0010
0002
0000
0100
0000
,
0103
1000
0010
1000
0020
0000
0001
0000
,
0031
0100
1000
0100
2000
0000
0001
0000
,
3001
0100
0100
0000
0010
0000
0101
0000
,
1000
0011
0100
1001
,
0010
0000
1100
0000
0100
0000
0010
0100
,
0001
0100
1000
0000
0010
0001
0100
0001
,
0001
1001
0200
0001
,
1000
0001
0301
0010
,
0100
0010
0020
1000
,
0100
1000
1030
0100
,
0001
0000
0000
0000
2020
0000
0000
3030
0000
0000
0000
0000
0000
0000
0000
0000
;

//--------------- dance-single - ----------------
#NOTES:
     dance-single:
     :
     Hard:
     14:
     0.625235,0.768318,0.312618,0.19238,0.284562,546,507,39,24,0,0,0,0,0,0.625235,0.768318,0.312618,0.19238,0.284562,546,507,39,24,0,0,0,0,0:
0000
0000
0000
0000
,
0000
0000
0000
0000
,
0000
0000
0000
0000
,
0000
0000
0000
0000
,
0000
0000
0000
0000
,
1020
0000
0000
0100
0000
0000
0100
0000
0030
0000
0001
0000
0100
0000
0001
0000
,
1000
0000
0000
0010
0000
0000
0010
0000
0000
0000
0100
0000
0010
0000
0010
0000
,
0002
0000
0000
1000
0000
0000
1000
0000
0013
0000
0100
0000
0010
0000
1000
0000
,
1001
0020
0001
1000
,
0100
0100
1000
0001
,
1000
0000
0000
0000
0130
0000
0000
1200
0000
0000
0000
0000
0001
0000
0000
0000
,
0010
0010
1000
0010
,
0301
0000
0010
1000
0010
1000
0100
0001
,
0100
0001
1000
0100
1000
0010
0100
0001
,
0100
1000
0100
0100
0010
0010
1000
0001
,
1000
0000
0001
0000
0010
0001
0010
0000
0100
0000
0010
0100
1000
0000
1000
0000
,
0101
0000
0000
0000
0100
0000
0000
0001
0000
0000
0100
0000
0010
0000
1000
0000
,
0010
0000
0100
0000
0001
0000
0000
1000
0000
0000
0001
0000
0100
0000
0010
0000
,
0001
0000
0010
0000
1000
0000
0000
0100
0000
0000
1000
0000
0001
0000
0100
0000
,
1000
0000
0100
0000
0010
0000
0000
0100
0000
0000
0010
0000
0001
0000
1000
0000
,
0001
0000
0001
0000
1000
0000
0000
0010
0000
0000
1000
0000
0000
0000
0001
0000
,
0100
0000
0010
0000
0100
0000
0000
1000
0000
0000
0100
0000
0000
0000
0001
0000
,
0010
0000
0010
0000
1000
0000
0000
0001
0000
0000
0001
0000
0100
0000
0000
1000
,
0000
0000
1000
0000
0010
0000
0000
1000
0000
0000
0001
0000
0010
0000
0000
0001
,
0200
0000
0000
0000
1300
0000
0000
0010
0000
0000
1010
0000
0000
0000
0100
0000
,
0001
0000
0100
0000
0010
0000
0000
0001
0000
0000
0011
0000
0000
0000
1000
0000
,
0001
0000
1000
0000
0001
0000
0000
0100
0000
0000
0001
0000
0100
0000
0000
0010
,
0000
0000
0100
0000
0010
0000
0000
1000
0000
0000
1100
0000
0000
0000
0010
0000
,
0100
0000
0100
0000
0001
0000
0000
0011
0000
0000
0010
0000
1000
0000
0000
1010
,
0000
0000
0100
0000
0001
0000
0000
1001
0000
0000
0010
0000
0100
0000
0000
0110
,
0000
1000
0010
0010
0100
0100
1000
0001
,
1000
0010
1000
0020
0100
0000
0000
0000
0100
0000
0000
0000
0100
0000
0030
0000
,
1100
0000
0010
0000
1001
0000
0010
0001
,
0010
0100
1000
0000
0001
0010
0100
0010
,
1000
0000
0100
1000
0001
0000
0110
0000
,
0010
0001
0010
0000
1000
0100
1000
0001
,
0011
0000
0100
0010
1000
0010
0001
0000
,
0001
1000
0010
0001
0100
0000
0100
0010
,
0001
0100
1000
0000
1000
0100
0010
0001
,
0010
0000
0010
0100
1000
0100
0001
0010
,
0010
0000
2002
0000
3003
0000
0011
0010
,
1010
1000
0220
0000
0330
0000
1100
0100
,
0101
0000
2020
0000
3030
0000
0101
0001
,
1001
0000
1000
0000
2200
0000
0000
0000
3300
0000
0000
0000
0001
1000
0001
0000
,
0011
0000
1010
1000
0001
0100
0110
1000
,
0100
1000
1001
0010
0001
0010
1010
0100
,
0001
0000
1000
0000
0010
1000
0010
0000
0100
0010
0100
0000
0001
0010
0001
0000
,
1000
0001
1000
0000
0220
0000
0000
0000
0300
0000
0000
0000
1000
0000
1000
0000
,
1030
0002
0100
0100
,
0013
0000
0000
0100
0000
0000
1000
0000
0200
0000
0000
0000
0000
0000
0000
0000
1000
0000
0000
0000
0000
0000
0000
0000
0301
0000
0000
0010
0000
0000
0010
0000
,
0100
0000
1000
0000
0100
0000
0001
0000
2001
0000
0000
0000
0000
0000
0000
0000
0010
0000
0000
0000
0000
0000
0000
0000
3010
0000
0000
0001
0000
0000
1000
0000
,
0100
0000
0000
1000
0000
0000
0001
0000
0020
0000
0000
0000
0001
0000
0000
0000
0001
0000
0000
0000
1000
0000
0000
0000
0130
0000
0000
0000
0000
0000
0000
0000
,
1000
0000
0001
0000
0100
0000
0001
0000
0010
0000
0000
1000
0000
0000
1000
0000
,
0100
0000
0010
0000
0100
0000
1000
0000
0010
0000
0000
0001
0000
0000
0001
0000
,
0010
0000
1000
0000
0100
0000
0001
0000
0100
0000
0000
0010
0000
0000
0010
0000
,
0010
0000
1000
0000
0010
0000
1000
0000
0100
0000
0000
0100
0000
0000
0100
0000
,
1000
0001
1000
0001
0010
0001
0010
0001
,
0100
0010
0100
0001
1000
0010
0100
1000
,
0001
0001
1000
1000
0010
0100
0010
1000
,
0010
0001
0010
0000
0100
0000
1000
0100
0010
0000
0010
0000
1010
0000
0000
0000
,
2000
0000
0000
0001
0000
0000
0001
0000
3000
0000
0010
0000
0010
0000
0010
0000
0110
0000
0000
0000
0000
0000
1000
0000
0001
0000
0000
0000
0010
0000
0000
0000
,
1000
0000
0100
0000
0001
0000
0100
0000
0010
0000
0000
0001
0010
0000
1000
0000
,
0100
0000
1000
0000
0001
0000
0010
0000
0100
0000
0000
0010
0100
0000
0010
0000
,
1000
0000
0100
0000
0001
0000
0001
0000
0010
0000
0000
1000
0001
0000
0100
0000
,
0001
0000
0010
0000
1000
0000
0001
0000
0100
0000
0000
0001
0010
0000
1000
0000
,
0001
0000
0010
0000
0001
0000
0010
0000
1000
0000
0000
0100
0010
0000
1000
0000
,
0001
0000
0000
1000
0100
0000
0001
0000
1000
0000
0001
0000
0010
0000
0100
0000
,
1000
1000
0002
0000
0103
0000
1100
0000
,
0001
1000
0010
1000
0100
0000
0101
0000
,
0010
1000
0001
1000
0010
0000
0011
0000
,
0100
0001
0100
1000
0001
0000
1001
0000
,
0010
0000
1000
0000
0100
0000
0100
0000
1000
0000
0000
0001
1000
0000
0010
0000
,
0100
0000
0000
1000
0100
0000
0001
0000
0010
0000
0000
0100
0010
0000
1000
0000
,
0001
0000
0000
0010
0001
0000
0100
0000
0010
0000
1000
0000
0100
0000
0001
0000
,
0010
0000
1000
0000
0010
0001
0010
2000
0001
0000
0000
0000
0001
0000
0000
0000
,
3001
0000
0000
0000
0011
0000
0000
0000
0100
0000
0000
0010
0000
0000
0100
0000
,
0001
0000
0001
0000
1000
0000
0001
0000
0010
0000
0000
1000
0000
0000
0010
0000
,
1000
0000
1000
0000
0100
0000
1000
0000
0001
0000
0000
0010
0000
0000
0001
0000
,
0100
0000
0100
0000
1000
0000
0010
0000
1000
0000
0000
0010
0000
0000
0001
0000
,
0010
0000
1000
0000
0100
0001
0100
0020
0000
0000
0000
0000
0000
0000
0030
0000
;
