#TITLE:ANDROMEDA;
#SUBTITLE:;
#ARTIST:Sota Fujimori;
#TITLETRANSLIT:;
#SUBTITLETRANSLIT:;
#ARTISTTRANSLIT:;
#GENRE:;
#CREDIT:;
#BANNER:ANDROMEDA.png;
#BACKGROUND:ANDROMEDA-bg.png;
#LYRICSPATH:;
#CDTITLE:;
#MUSIC:ANDROMEDA.ogg;
#OFFSET:-0.890292;
#SAMPLESTART:64.885147;
#SAMPLELENGTH:12.800003;
#SELECTABLE:YES;
#BPMS:0.000000=150.000000
;
#STOPS:
;
#BGCHANGES:0.000=ANDROMEDA.avi=1.000=0=0=0=StretchNoLoop====,
99999=-nosongbg-=1.000=0=0=0 // don't automatically add -songbackground-
;
#KEYSOUNDS:;
#ATTACKS:;

//---------------dance-single - ----------------
#NOTES:
     dance-single:
     :
     Hard:
     11:
     0.445464,0.481375,0.184294,0.331729,0.025801,423.000000,398.000000,25.000000,45.000000,0.000000,0.000000,0.445464,0.481375,0.184294,0.331729,0.025801,423.000000,398.000000,25.000000,45.000000,0.000000,0.000000:
// measure 0
0000
0000
0000
0000
,  // measure 1
0000
0000
0000
0000
,  // measure 2
0000
0000
0000
0000
,  // measure 3
0000
0000
0000
0000
,  // measure 4
1000
0001
0100
0000
0010
0000
1000
0000
,  // measure 5
0010
0100
0001
0000
1000
0000
0100
0000
,  // measure 6
0010
1000
0100
0000
0010
0000
0100
0000
,  // measure 7
2002
0000
0000
0000
3000
0010
0013
0000
,  // measure 8
0100
0000
0001
0000
0100
0000
0010
1000
,  // measure 9
0001
0000
1000
0000
0001
0000
1000
0100
,  // measure 10
1000
0000
0010
0000
1000
0000
0100
0001
,  // measure 11
0010
0000
0100
0000
0010
1000
0100
1000
,  // measure 12
0001
0000
0010
0000
0100
0000
1000
0010
,  // measure 13
0001
0000
1000
0000
0100
0000
0010
1000
,  // measure 14
0100
0000
1000
0000
0001
0100
0100
0000
,  // measure 15
0020
0000
0000
0000
0000
0000
0030
0000
1000
0100
1000
0100
1000
0000
0000
0000
,  // measure 16
0001
0000
0101
0000
0010
1000
0100
1000
,  // measure 17
0100
0000
0101
0000
1000
0010
0100
0010
,  // measure 18
1000
0000
1001
0000
0100
0010
0001
0010
,  // measure 19
0100
0000
0110
0000
0010
0010
1000
1000
,  // measure 20
0001
0000
1100
0000
0100
0010
0001
0100
,  // measure 21
0001
0000
1010
0000
0010
0100
0001
1000
,  // measure 22
0010
0000
0101
0000
0010
0100
1000
0100
,  // measure 23
0001
0000
0010
1000
1000
0000
1001
0000
,  // measure 24
0100
0000
0001
0000
0100
0010
1000
0100
,  // measure 25
0001
0000
1000
0000
0001
0010
0001
0100
,  // measure 26
0010
0000
0100
0000
0010
1000
0100
0001
,  // measure 27
0100
0000
1000
0000
0100
0100
0010
0010
,  // measure 28
1000
0000
0100
0010
0001
0010
1000
0000
,  // measure 29
0100
0000
0001
1000
0100
1000
0001
0000
,  // measure 30
0010
0000
1000
0001
1000
0100
0010
0000
,  // measure 31
0200
0000
0000
0000
0000
0000
0300
0000
0011
0000
0000
1001
0000
0000
1100
0000
,  // measure 32
0100
0001
1000
1010
,  // measure 33
0010
0000
0100
0000
0010
0000
0010
0001
,  // measure 34
2000
3001
0002
0013
,  // measure 35
0020
0000
0130
0000
1000
0000
0100
0100
,  // measure 36
0001
0010
0100
0110
,  // measure 37
0001
0000
0010
0000
0100
0000
1000
0010
,  // measure 38
1000
0010
0100
0100
,  // measure 39
2001
0000
0000
3000
0010
0100
0110
0000
,  // measure 40
0010
0001
0100
0000
1000
0100
1000
0001
,  // measure 41
0010
0000
0010
0100
0000
0100
1000
0000
,  // measure 42
0200
0000
0010
0000
0301
0010
1000
0002
,  // measure 43
0000
0010
0100
0103
,  // measure 44
0010
0000
1010
0000
0100
0001
0100
0000
,  // measure 45
1000
0000
0010
1000
0100
0000
0010
2000
,  // measure 46
0000
0100
0010
3001
,  // measure 47
0100
0000
0100
1000
0001
0000
1001
0000
,  // measure 48
0100
0010
1000
0000
1000
0001
0010
0001
,  // measure 49
0100
0000
0100
0010
0000
0010
1000
0000
,  // measure 50
0020
0000
0001
0000
1030
1000
0100
0002
,  // measure 51
0000
0010
0100
0013
,  // measure 52
1000
0100
0001
0000
0001
0010
1000
0000
,  // measure 53
0100
0000
1000
0100
1000
0000
0010
0200
,  // measure 54
0000
0001
1000
0301
,  // measure 55
0022
0000
0000
0000
0000
0000
0033
0000
0100
0001
0100
0001
0100
0000
0000
0000
,  // measure 56
0010
0000
0010
0000
1000
0100
0001
0010
,  // measure 57
1000
0001
2000
3002
,  // measure 58
0023
0000
1000
0000
1030
0001
0100
2000
,  // measure 59
0000
0010
0001
3001
,  // measure 60
0100
0000
0100
0000
0001
0010
0001
1000
,  // measure 61
0200
0000
0310
0010
2000
0000
3001
0200
,  // measure 62
0000
1000
1000
0310
,  // measure 63
2200
0000
0000
0000
0000
0000
0000
0000
3300
0000
0000
0000
1000
0001
0000
0001
,  // measure 64
0020
0000
0100
0000
0130
0001
1000
0010
,  // measure 65
0200
0310
0002
2003
,  // measure 66
3020
0000
1000
0000
1030
0100
0001
2000
,  // measure 67
0010
0000
0001
0000
0010
0000
3100
0100
,  // measure 68
0001
0010
0002
0000
1003
0010
2000
0000
,  // measure 69
3200
0000
1300
0010
0002
0000
0103
0020
,  // measure 70
0100
1000
0001
1030
,  // measure 71
1000
0100
0010
0001
0010
0000
1010
0000
,  // measure 72
0001
1000
0010
0000
0100
0010
0100
0001
,  // measure 73
0010
0100
0100
0000
1100
0000
0101
0000
,  // measure 74
0021
0000
1000
0000
0130
0100
1000
0200
,  // measure 75
0010
0001
1000
1300
,  // measure 76
0010
0100
0200
0000
1300
0010
0020
0000
,  // measure 77
0032
0000
0103
1000
0200
0000
0310
0002
,  // measure 78
1000
0100
1000
0013
,  // measure 79
0100
1000
0100
0010
0001
1000
1000
0010
,  // measure 80
0220
0000
0000
0000
,  // measure 81
0000
0000
0000
0000
0000
0330
0000
0000
;

//---------------dance-single - ----------------
#NOTES:
     dance-single:
     :
     Medium:
     8:
     0.390703,0.417333,0.147435,0.125320,0.000000,371.000000,351.000000,20.000000,17.000000,0.000000,0.000000,0.390703,0.417333,0.147435,0.125320,0.000000,371.000000,351.000000,20.000000,17.000000,0.000000,0.000000:
0000
0000
0000
0000
,
0000
0000
0000
0000
,
0000
0000
0000
0000
,
0000
0000
0000
0000
,
0001
0001
1000
0001
,
0100
0100
0010
0100
,
1000
1000
0100
0001
,
0220
0000
0000
0330
,
0001
0010
0001
0000
0100
0000
1000
0000
,
0100
0010
0100
0000
1000
0000
0001
0000
,
1000
0100
1000
0000
0010
0000
0001
0000
,
0010
0100
0010
0000
0100
0000
0100
0000
,
1000
1000
1000
0000
0001
0000
0010
0000
,
0001
0001
0001
0000
0100
0000
0001
0000
,
0100
0100
0100
0000
0010
0000
1000
0000
,
0020
0000
0100
0130
,
0010
0000
1000
0000
0001
0000
0100
1000
,
0100
0000
0010
0000
0001
0000
1000
0001
,
1000
0000
0010
0000
0100
0000
0001
0010
,
0001
1000
1100
0101
,
0010
0001
0010
0000
0100
0000
1000
0000
,
0001
0100
0001
0000
1000
0000
0100
0000
,
0010
0100
0010
0000
0001
0000
1000
0000
,
1000
0100
1000
0000
0011
0000
1010
0000
,
0010
0000
1000
0010
1000
0000
0100
0000
,
0001
0010
0001
0000
0100
0000
1000
0001
,
1000
0000
0010
0100
0010
0000
0100
0000
,
0100
0010
0100
0000
0001
0000
1000
0100
,
1000
0000
0010
0001
0010
0000
0100
1000
,
0100
1000
0100
0000
1000
0001
1000
0000
,
0001
0000
0010
0100
0010
0100
0010
0000
,
1001
0000
0110
0110
,
2000
0100
0001
3001
,
0020
1000
0100
0130
,
0001
0001
1000
1000
,
0100
0010
0100
0101
,
0200
1000
0001
0310
,
0002
0010
0100
1003
,
0100
0100
1000
1000
,
0020
0000
0000
0000
0031
1000
1001
0000
,
0010
0000
0011
0000
0100
0001
0100
0000
,
0010
1000
0001
0001
,
0100
0000
0010
0000
0001
0000
0010
1000
,
0010
0001
0020
0030
,
1000
0000
1010
0000
0001
1000
0001
0000
,
0100
0000
0001
0000
0100
1000
0100
0000
,
0002
0003
1000
0001
,
0010
0000
1000
0010
1000
0000
1100
0000
,
0100
0000
0110
0000
1000
0010
1000
0000
,
0001
1000
0001
0001
,
1000
0000
0010
0000
0100
0000
0010
1000
,
0010
0100
2000
3000
,
1000
0000
1001
0000
0010
0100
0010
0000
,
0001
0000
0010
0000
1000
0001
1000
0000
,
0020
0030
0010
0100
,
2200
0000
0300
0000
0001
0001
3001
0000
,
0001
0000
0010
0000
0001
0010
0100
0000
,
1000
0000
0001
0000
1000
0001
0100
0000
,
0010
0000
0001
0000
0001
0000
1000
0100
,
1000
0000
0100
0010
0100
0000
0100
0000
,
0001
0000
0100
0000
0010
1000
0001
0000
,
0100
0000
1000
0000
0100
0001
0010
0000
,
0100
0100
0001
0100
,
0002
0000
0003
1010
,
0100
0000
0010
0000
1000
0010
0001
0000
,
0100
0000
1000
0000
0010
1000
0001
0000
,
0100
0000
1000
0000
0100
0000
0001
0010
,
0100
0000
0010
0000
0010
0100
1000
0000
,
0001
1000
0010
0010
,
0001
0100
1000
1000
,
0010
0100
0001
0000
1000
0010
0001
0000
,
0001
1000
0001
0010
0100
0000
0110
0000
,
0100
0000
0010
0000
1000
0000
0100
0001
,
0100
0000
0001
0000
1000
0010
0001
0000
,
0100
0010
0001
0010
,
0100
1000
0100
0000
0010
0000
0011
0000
,
1000
0001
0100
0000
0100
0001
0010
0000
,
0010
1000
0001
0000
0001
0010
1000
0000
,
0001
1000
0010
1000
,
0010
0000
0100
0001
0010
0000
0010
0000
,
2002
0000
0000
0000
0000
0000
0000
3003
;

//---------------dance-single - ----------------
#NOTES:
     dance-single:
     :
     Easy:
     5:
     0.248533,0.265383,0.073717,0.140063,0.000000,236.000000,226.000000,10.000000,19.000000,0.000000,0.000000,0.248533,0.265383,0.073717,0.140063,0.000000,236.000000,226.000000,10.000000,19.000000,0.000000,0.000000:
0000
0000
0000
0000
,
0000
0000
0000
0000
,
0000
0000
0000
0000
,
0000
0000
0000
0000
,
0100
1000
0010
0010
,
0001
0100
1000
1000
,
0010
1000
0001
0001
,
0200
0000
0000
0300
,
0010
0001
0001
0000
,
1000
0100
0100
0000
,
1000
0010
0010
0000
,
0001
1000
1000
0000
,
0010
0001
0010
0000
,
0100
0001
0100
0000
,
0010
1000
0010
0000
,
0220
0000
0000
0330
,
1000
0000
1000
0010
,
0001
0000
0001
0100
,
0010
0000
0010
1000
,
0001
0100
0100
0000
,
0110
0000
0001
1000
,
0010
0000
0010
0100
,
0001
0000
0001
1000
,
0010
0000
1001
0000
,
0200
0300
0010
0001
,
0010
1000
1000
0000
,
0002
0003
0010
1000
,
0100
1000
0010
0000
,
2000
3000
0100
0010
,
0100
0001
0001
0000
,
0020
0030
0100
1000
,
0001
0000
1001
0000
,
0200
0300
0010
1000
,
2000
3000
0100
0001
,
0002
0003
0010
0010
,
2000
3000
0002
0003
,
0010
0100
0200
0300
,
0001
1000
2000
3000
,
0001
0100
1000
0100
,
0020
0030
2002
3003
,
0100
0000
0010
1000
,
0001
0000
0100
0010
,
1000
0000
1000
0100
,
0001
0010
0010
0000
,
1001
0000
0100
0010
,
0100
0000
0001
0100
,
1000
0000
1000
0010
,
0100
0001
0001
0000
,
0010
0000
0100
0010
,
0100
0000
0001
0010
,
1000
0000
0010
0001
,
1000
0100
0010
0000
,
0110
0000
0100
0001
,
0100
0000
1000
0100
,
0010
0000
1000
1000
,
0002
0000
0000
0003
,
0010
0000
0010
0000
,
0100
1000
0001
0000
,
0001
1000
0100
1000
,
0010
0000
0100
0000
,
0001
0000
0100
0001
,
0001
0000
1000
0100
,
0010
0000
1000
0100
,
2000
0000
0000
3000
,
0110
0000
0010
0001
,
0010
1000
0001
0000
,
0001
0000
0100
0010
,
1000
0010
0010
0000
,
1001
0000
1000
0100
,
0010
0000
0010
0001
,
1000
0000
1000
0100
,
0001
0010
0010
0000
,
0100
0001
0100
0001
,
0010
1000
0010
1000
,
0100
0010
0100
0010
,
1000
0001
1000
0001
,
0010
1000
0100
0100
,
0001
1000
0010
0010
,
1000
0001
0100
0010
,
0100
0000
0001
0000
,
0110
0000
0000
0000
;

//---------------dance-single - ----------------
#NOTES:
     dance-single:
     :
     Beginner:
     3:
     0.159019,0.205119,0.022115,0.088461,0.000000,151.000000,148.000000,3.000000,12.000000,0.000000,0.000000,0.159019,0.205119,0.022115,0.088461,0.000000,151.000000,148.000000,3.000000,12.000000,0.000000,0.000000:
0000
0000
0000
0000
,
0000
0000
0000
0000
,
0000
0000
0000
0000
,
0000
0000
0000
0000
,
0010
0010
0000
0000
,
0100
0100
0000
0000
,
0001
0001
0000
0000
,
1001
0000
0000
0000
,
0020
0000
0030
0000
,
0100
0000
1000
0000
,
0200
0000
0300
0000
,
1000
0000
0001
0000
,
2000
0000
3000
0000
,
0010
0000
0001
0000
,
0020
0000
0030
0000
,
0100
0000
0000
0110
,
0000
0001
0000
1000
,
0000
0001
0000
0001
,
0000
0100
0000
1000
,
0000
0100
0000
0100
,
0000
0010
0000
0100
,
0000
0010
0000
0010
,
0000
1000
0000
0100
,
0000
1000
0000
1000
,
1000
0000
0001
0000
,
1000
0000
0001
0001
,
0001
0000
0010
0000
,
0100
0000
0010
0010
,
0010
1000
0000
0000
,
0100
0000
1000
1000
,
1000
0000
0001
0000
,
1001
0000
0000
0000
,
0000
0100
0000
0100
,
0000
0010
0000
0010
,
0000
0001
0000
1000
,
0000
0001
0000
1000
,
0000
0010
0000
0001
,
0000
0010
0000
0001
,
0000
0100
0000
1000
,
1000
0000
0000
0000
,
0001
0000
0100
0000
,
0001
0000
0001
0000
,
0020
0000
0030
0100
,
0200
0000
0300
0000
,
1000
0000
0010
0000
,
1000
0000
1000
0000
,
0002
0000
0003
0000
,
0200
0000
0300
0000
,
1000
1000
1000
0000
,
0001
0000
0100
0000
,
0001
0001
0001
0000
,
0010
0000
1000
0000
,
0010
0010
0010
0000
,
0100
0000
0001
0000
,
0100
0100
0100
0000
,
0000
0000
0000
0000
,
1000
0000
0010
0000
,
1000
0000
0010
0000
,
0001
0000
0100
0000
,
0001
0000
0100
0000
,
1000
0000
0001
0000
,
1000
0000
0001
0000
,
0100
0000
0010
0000
,
0100
0000
0100
0000
,
0010
0010
0010
0000
,
0100
0000
1000
0000
,
0100
0100
0100
0000
,
0001
0000
0010
0000
,
0001
0001
0001
0000
,
1000
0000
0010
0000
,
1000
1000
1000
0000
,
0100
0000
0010
0000
,
0200
0000
0300
0000
,
0002
0000
0003
0000
,
0020
0000
0030
0000
,
2000
0000
3000
0000
,
0001
0000
0010
0000
,
1000
0000
0010
0000
,
1000
1000
1000
0000
,
0010
0000
0010
0000
;
