#VERSION:0.83;
#TITLE:ALBIDA Powerless Mix;
#SUBTITLE:;
#ARTIST:MuryokuP;
#TITLETRANSLIT:;
#SUBTITLETRANSLIT:;
#ARTISTTRANSLIT:;
#GENRE:;
#ORIGIN:;
#CREDIT:;
#BANNER:ALBIDA Powerless Mix.png;
#BACKGROUND:ALBIDA Powerless Mix-bg.png;
#PREVIEWVID:;
#JACKET:;
#CDIMAGE:;
#DISCIMAGE:;
#LYRICSPATH:;
#CDTITLE:;
#MUSIC:ALBIDA Powerless Mix.mp3;
#OFFSET:2.462490;
#SAMPLESTART:32.922001;
#SAMPLELENGTH:12.307693;
#SELECTABLE:YES;
#BPMS:0.000=78.000,
12.000=39.000,
13.000=156.000,
141.000=78.000,
173.000=39.000,
174.000=156.000;
#STOPS:;
#DELAYS:;
#WARPS:;
#TIMESIGNATURES:0.000=4=4;
#TICKCOUNTS:0.000=4;
#COMBOS:0.000=1;
#SPEEDS:0.000=1.000=0.000=0;
#SCROLLS:0.000=1.000;
#FAKES:;
#LABELS:0.000=Song Start;
#BGCHANGES:;
#KEYSOUNDS:;
#ATTACKS:
;

//---------------dance-single - ----------------
#NOTEDATA:;
#CHARTNAME:;
#STEPSTYPE:dance-single;
#DESCRIPTION:;
#CHARTSTYLE:;
#DIFFICULTY:Hard;
#METER:14;
#RADARVALUES:0.499756,0.867320,0.341297,0.332764,0.319966,410.000000,370.000000,40.000000,39.000000,0.000000,0.000000,0.000000,0.000000,0.000000,0.499756,0.867320,0.341297,0.332764,0.319966,410.000000,370.000000,40.000000,39.000000,0.000000,0.000000,0.000000,0.000000,0.000000;
#CREDIT:;
#NOTES:
0000
0000
0000
0000
,
0100
1000
0100
1100
0000
1000
0010
1001
0000
0001
0100
0110
0000
1000
1000
0000
,
0002
0000
0000
0000
1000
0000
0000
0000
0013
0000
0000
1000
0000
0000
0010
0000
0200
0000
0000
0000
0000
0000
0000
0000
0000
0000
0000
0000
0000
0000
0000
0000
,
2000
0000
0000
3300
0020
0000
0000
0000
0000
0000
0000
0000
0200
0000
0000
0000
,
0300
1000
0100
0001
,
0100
2000
3000
0002
,
0003
0001
0100
1000
,
0001
0000
0001
0000
0031
0000
0000
0000
0101
0000
0000
0000
0000
0010
0000
1000
,
0010
0000
0000
0000
1000
0000
0000
0000
1010
0000
0000
0000
0000
0100
0000
0010
,
0100
0010
0011
0100
,
0110
0000
0010
1000
0100
1000
0001
0010
,
1100
0000
0001
0010
0001
0200
0000
0010
,
0302
0000
0100
0000
1000
0000
0100
1000
,
0013
0000
0010
0100
0010
2000
0000
0001
,
3200
0000
0010
0000
0001
0000
0010
0010
,
1300
0000
0100
1000
0100
0002
0000
0010
,
1003
0020
0000
0100
0000
1000
1000
0100
,
0031
0000
0100
0010
0100
0002
0000
1000
,
0103
0110
0000
0010
0001
0010
1000
1000
,
1001
0000
0100
0001
0100
1000
0000
0010
,
1000
0100
0000
0001
0100
0010
0000
0001
,
1000
0010
0100
0000
0101
0001
0000
0010
,
0000
1100
0000
1010
0000
0101
0000
0010
,
0100
0010
1000
0001
0010
0100
0000
0100
,
1000
0010
0000
0010
1000
0100
0000
0001
,
0010
0001
0100
0000
1001
1000
0000
0001
,
0000
0100
0010
0010
1000
1000
0001
0010
,
0001
0100
0001
0000
0010
0000
1000
0000
0100
0000
0002
0000
0000
0000
0010
0000
,
0103
2000
0000
0010
3001
0200
0000
0001
,
1300
0010
1000
0000
1100
0100
0000
0001
,
0000
0110
0000
0011
0000
1100
0000
0001
,
0010
1000
0010
0100
0010
2000
0000
0010
,
3100
0020
0000
1000
0031
0200
0000
0010
,
0301
0010
1000
0000
0011
0001
0000
0100
,
0000
0000
1000
0000
0010
0000
0010
0000
0100
0000
0001
0000
1000
0100
1000
0000
,
0010
1000
0010
0000
0120
1000
0100
0002
0000
0000
0033
0000
2100
0001
0100
0020
,
0000
0000
3030
0000
0210
0001
0010
2000
0000
0000
3300
0000
0012
1000
0100
2000
,
0000
0000
3003
0000
0100
0010
0001
0100
0000
0100
1000
0010
0000
0010
1000
0001
,
0000
0001
0010
0100
0010
0000
1000
0100
0000
0001
0000
0010
1000
0100
1000
0001
,
0010
0100
0010
0000
0001
0100
0001
0000
0100
0000
0000
0000
1000
0000
0000
0000
2200
0000
0000
0000
3300
0000
0001
0000
0001
0000
1000
0000
0010
0000
0000
0000
,
0220
0000
0330
0000
0001
0000
1000
0000
2002
0000
3003
0010
0010
0001
0100
0000
,
0202
0303
0010
1000
1010
0100
0001
0010
,
0011
0000
0100
0000
0010
1000
0010
0100
1000
0100
0001
0100
0010
0010
0001
0001
,
1000
0100
1000
0010
0100
0001
0010
0000
0110
0000
0101
0000
1100
1000
1001
0000
0010
0000
1000
0000
0010
0000
0000
0000
0100
0000
1000
0000
0100
0000
1000
0000
,
0000
0001
0010
0000
0100
0000
0010
0000
0100
0001
0100
0000
0010
0001
0010
0001
,
0000
0100
0001
0000
0010
0000
1000
0000
0101
0000
0001
0000
0000
0000
0011
0000
,
0000
1100
0100
0210
0000
0010
0301
1000
,
0010
0000
0001
0000
0010
1000
0100
1000
0010
0000
0001
0000
0100
0000
0010
0000
,
0001
0100
0010
0001
1000
0100
0010
1000
,
0100
0000
0010
0000
1000
0000
0001
0010
0001
0000
0001
0100
0001
0000
0110
0000
,
0010
1000
0010
0000
1100
0000
0100
0000
0001
0000
0010
0000
0100
0000
1000
0000
,
0100
0010
0100
0010
1000
0100
0010
0000
0002
0000
0000
0000
0000
0000
0000
0000
,
0000
0000
0200
0000
,
0000
0000
0303
0000
;

//---------------dance-single - ----------------
#NOTEDATA:;
#CHARTNAME:;
#STEPSTYPE:dance-single;
#DESCRIPTION:;
#CHARTSTYLE:;
#DIFFICULTY:Medium;
#METER:10;
#RADARVALUES:0.357143,0.479309,0.119454,0.383959,0.068259,293.000000,279.000000,14.000000,45.000000,0.000000,0.000000,0.000000,0.000000,0.000000,0.357143,0.479309,0.119454,0.383959,0.068259,293.000000,279.000000,14.000000,45.000000,0.000000,0.000000,0.000000,0.000000,0.000000;
#CREDIT:;
#NOTES:
// measure 0
0000
0000
0000
0000
,  // measure 1
0010
0000
1000
0010
0000
0001
0000
1000
0000
0100
0000
1000
0000
0010
0100
0000
,  // measure 2
1000
0001
0010
0001
2000
0000
0000
0000
,  // measure 3
0000
3010
0010
0100
,  // measure 4
0100
0001
0100
1000
,  // measure 5
0100
0001
0001
1000
,  // measure 6
1000
0010
0001
0100
,  // measure 7
0001
0000
2000
0000
3001
0000
0000
0010
,  // measure 8
0010
0000
0200
0000
1300
0000
0000
0001
,  // measure 9
0001
0002
0013
0200
,  // measure 10
0310
0000
2000
0000
3010
0001
0010
1000
,  // measure 11
0100
0000
0010
0100
0001
0100
0000
1000
,  // measure 12
0001
0100
0010
0100
,  // measure 13
1100
0000
0001
1000
0010
1000
0000
0010
,  // measure 14
0100
0010
1000
0010
,  // measure 15
1010
0000
1000
0010
0100
0001
0000
1000
,  // measure 16
0001
0010
0000
0000
1000
0000
0100
0001
,  // measure 17
1000
0000
0100
0001
0010
0001
0000
1000
,  // measure 18
0100
0010
0000
0010
0001
0000
0100
0010
,  // measure 19
0100
0000
0011
0000
1000
0001
0000
0010
,  // measure 20
0001
0010
0000
1000
0100
1000
0000
0010
,  // measure 21
0001
0000
0100
0000
1000
0020
0000
0032
,  // measure 22
0000
0023
0000
0230
0000
2300
0000
0001
,  // measure 23
3001
0000
0101
0000
0100
1000
0000
1000
,  // measure 24
0100
1000
0000
0001
0100
0001
0000
0010
,  // measure 25
1000
0000
0100
0000
0010
2000
0000
3020
,  // measure 26
0000
2030
0000
3002
0000
0103
1000
0100
,  // measure 27
0010
0000
1001
0000
1000
0010
0000
0100
,  // measure 28
1000
0100
0000
0010
0001
0010
0000
1000
,  // measure 29
0100
0000
0010
0000
0100
0002
0000
0203
,  // measure 30
0000
2300
0000
3020
0000
0032
0000
1000
,  // measure 31
1003
0000
0110
0000
0100
1000
0000
0100
,  // measure 32
0010
0100
0000
0001
1000
0100
0000
0001
,  // measure 33
1000
0000
0010
0000
1000
0020
0000
0230
,  // measure 34
0000
2300
0000
3002
0000
0103
0100
0010
,  // measure 35
0100
0000
0001
0000
1000
0000
0100
0202
0000
0000
0003
0000
0020
0000
0030
0000
,  // measure 36
0020
0000
0330
0000
0001
0000
1000
2200
0000
0000
0300
0000
0002
0000
0003
0000
,  // measure 37
0002
0000
3003
0000
0010
0000
0100
0010
0000
1000
0100
1000
0000
0000
0010
0000
,  // measure 38
0100
0000
1000
0000
0001
0000
0001
0000
0100
0000
0100
0000
0010
0100
0010
0001
,  // measure 39
0010
1100
2000
3000
0200
0300
0010
0001
,  // measure 40
0220
0330
0020
0030
2000
3000
0100
0001
,  // measure 41
0202
0303
0010
0010
0100
0000
1000
1000
,  // measure 42
0001
0000
0000
0000
1000
0000
0010
0000
1000
0000
0001
0000
1000
0000
1000
0100
,  // measure 43
0010
0100
0001
0000
2000
0000
0002
3003
0010
0000
1000
0000
0010
0000
0000
0000
,  // measure 44
0100
0001
1000
0001
0000
1000
1000
0000
,  // measure 45
0100
0010
0001
0000
1010
0000
1100
0000
,  // measure 46
0010
0100
1000
0200
0000
0001
0301
0000
,  // measure 47
0001
1000
0010
0000
0001
0000
0001
0100
,  // measure 48
0000
0100
0010
0000
0010
1000
0000
1000
,  // measure 49
0010
0001
0010
0000
0001
0100
0001
0000
,  // measure 50
0100
1000
0100
0000
1000
0100
0010
0100
,  // measure 51
0010
0000
0000
0100
0000
0000
1000
0000
0220
0000
0000
0000
0000
0000
0000
0000
,  // measure 52
0000
0000
0000
0000
,  // measure 53
0000
0000
0330
0000
;

//---------------dance-single - ----------------
#NOTEDATA:;
#CHARTNAME:;
#STEPSTYPE:dance-single;
#DESCRIPTION:;
#CHARTSTYLE:;
#DIFFICULTY:Easy;
#METER:6;
#RADARVALUES:0.227938,0.319539,0.068259,0.383959,0.000000,187.000000,179.000000,8.000000,45.000000,0.000000,0.000000,0.000000,0.000000,0.000000,0.227938,0.319539,0.068259,0.383959,0.000000,187.000000,179.000000,8.000000,45.000000,0.000000,0.000000,0.000000,0.000000,0.000000;
#CREDIT:;
#NOTES:
0000
0000
0000
0000
,
0002
0023
0230
2300
,
3010
0100
0010
0010
0002
0000
0000
0000
,
0003
0200
0300
0020
,
0030
1000
0001
2000
,
3000
0002
0003
0020
,
0030
0100
1000
0200
,
0300
0020
1030
0000
,
1001
0200
0310
0000
,
0110
0200
0310
0002
,
0013
0100
0010
0220
,
0330
2000
3000
0100
,
0010
0001
0001
0100
,
0010
0002
0003
0010
,
1000
0100
0100
0010
,
0001
0020
0030
0100
,
0001
1000
0010
1000
,
0010
2000
3000
0010
,
0100
0001
1000
0010
,
1000
2002
3003
0100
,
0010
0100
1000
0010
,
0100
0002
0003
0020
,
0030
0100
1000
0100
,
0010
0220
0330
0100
,
1000
0100
0010
0001
,
0010
2000
3000
0020
,
0030
1000
0001
2000
,
3000
0100
0010
0100
,
0010
1000
0001
1000
,
0001
0010
0001
0010
,
0001
0100
1000
0100
,
1000
0020
0000
0100
,
0030
0200
0000
0001
,
0300
2000
3100
2000
,
3001
0100
1000
0020
,
0030
0002
0010
0100
,
0103
2000
0010
0100
,
3100
0010
1000
0100
,
1000
0010
0010
0001
,
1001
0000
0100
0100
0100
0000
0010
0010
,
0010
0000
1000
0001
1000
0000
0100
1000
,
0100
0000
0010
0000
0010
1000
0100
0000
,
0100
0001
0010
0000
0110
0000
1000
0001
,
1001
0000
0020
0000
,
0031
0100
0200
0000
,
1300
0010
2000
3000
,
0002
0003
0010
1000
,
0020
0030
0100
0001
,
0010
0001
0100
1000
,
0010
1000
0002
0103
,
0002
1003
0001
0010
,
0100
0001
0020
0000
,
0000
0000
0000
0000
,
0000
0000
0030
0000
;
