#TITLE:AETHER;
#SUBTITLE:-Try to Sing Ver.-;
#ARTIST:TAG underground rejected by Hommarju;
#TITLETRANSLIT:;
#SUBTITLETRANSLIT:;
#ARTISTTRANSLIT:;
#GENRE:;
#CREDIT:;
#BANNER:AETHER -Try to Sing Ver.-.png;
#BACKGROUND:AETHER -Try to Sing Ver.--bg.png;
#LYRICSPATH:;
#CDTITLE:;
#MUSIC:AETHER -Try to Sing Ver.-.mp3;
#OFFSET:0.285149;
#SAMPLESTART:72.917999;
#SAMPLELENGTH:15.000000;
#SELECTABLE:YES;
#BPMS:0.000000=192.000000
,134.000000=96.000000
,150.000000=192.000000
;
#STOPS:35.750000=0.625000
;
#BGCHANGES:;
#KEYSOUNDS:;
#ATTACKS:;

//---------------dance-single - ----------------
#NOTES:
     dance-single:
     :
     Hard:
     16:
     0.789084,1.128372,0.639304,0.460299,0.183267,648.000000,573.000000,75.000000,54.000000,0.000000,0.000000,0.789084,1.128372,0.639304,0.460299,0.183267,648.000000,573.000000,75.000000,54.000000,0.000000,0.000000:
// measure 0
0000
0000
0000
0000
,  // measure 1
0000
0000
0000
0000
,  // measure 2
0000
0000
0000
0000
,  // measure 3
0000
0000
0000
0000
,  // measure 4
0000
0000
0000
0000
,  // measure 5
0001
0100
0010
0100
1000
0100
0010
0100
,  // measure 6
0010
0001
0010
1000
1000
0100
0010
0001
,  // measure 7
0100
0000
1100
0000
0101
0000
0010
0020
,  // measure 8
0000
0230
0000
0302
0000
1000
1003
0000
,  // measure 9
0100
0000
0010
0100
0010
0000
1000
0000
1100
0000
0000
0000
0100
0000
0001
0000
,  // measure 10
0100
0010
0000
0001
1000
0100
1000
0002
,  // measure 11
0010
0000
0013
0000
0110
0000
0001
1000
,  // measure 12
0100
0001
0000
0020
0000
0230
0000
2300
,  // measure 13
0001
0000
3001
0000
1001
0000
0010
0001
,  // measure 14
0010
0100
0000
0100
0010
0100
1000
0200
,  // measure 15
1000
0000
1300
0000
0100
0001
0010
0001
,  // measure 16
1000
0100
0000
0011
0000
0101
0000
1100
,  // measure 17
0000
0100
0010
0000
0101
0000
0010
1000
,  // measure 18
0100
1000
0001
0000
0100
0001
0100
2000
,  // measure 19
0010
0001
3010
0000
0001
1000
0100
1000
,  // measure 20
0001
0001
0010
0002
0000
2003
0000
3200
,  // measure 21
0001
1000
0301
0000
0010
0001
0100
0000
,  // measure 22
1000
0100
0001
0000
0100
0010
0100
0020
,  // measure 23
1000
0100
0130
0000
0001
0010
0100
1000
,  // measure 24
0100
0010
0001
0011
0000
1001
0000
1200
,  // measure 25
0000
1000
0301
0000
0010
1000
0100
0001
,  // measure 26
1000
0010
1000
0001
0100
0010
0100
0002
,  // measure 27
0010
0100
1000
1003
0010
0100
0001
0100
,  // measure 28
0001
0010
1000
0010
0100
0001
0100
0020
,  // measure 29
1000
0100
0001
0031
1000
0100
0001
1000
,  // measure 30
0010
0001
1000
0100
0001
0100
0001
2000
,  // measure 31
0001
0100
0100
3001
0100
1000
0100
0001
,  // measure 32
1000
0010
0000
0110
0000
1010
0000
1001
,  // measure 33
0000
0000
0001
0000
0101
0000
0000
0000
0010
0100
0010
0002
0000
1000
0103
2000
,  // measure 34
0000
0010
3001
0010
0100
0001
0010
0001
1000
0100
0001
0200
0000
1000
0310
2000
,  // measure 35
0000
0001
3100
0010
0100
0010
1000
0100
1001
0001
1000
0002
0000
0010
0103
2000
,  // measure 36
0000
0010
3001
0010
0100
0001
1000
0100
0100
0000
1010
0000
0101
0000
0010
0010
,  // measure 37
0000
0100
0000
0001
0101
0100
0010
1000
0001
0000
0010
0000
0001
0000
0200
0000
,  // measure 38
0000
0010
1300
0020
0000
0001
0130
0001
,  // measure 39
0100
1000
0010
0001
0100
1000
0010
2000
,  // measure 40
0000
0100
3010
0200
0000
0010
0301
0010
,  // measure 41
1000
0001
1000
0000
1010
1000
0100
0001
,  // measure 42
0011
0001
0100
0010
0110
1000
0100
0010
,  // measure 43
0011
0100
0001
0010
1000
0000
1010
0000
,  // measure 44
1100
0000
0100
0110
0000
0101
0000
1001
,  // measure 45
0000
0001
0011
0000
0020
1000
0000
1000
,  // measure 46
0000
1000
0030
1000
0200
1000
0000
1000
,  // measure 47
0000
1000
0300
1000
1100
0100
0102
0010
,  // measure 48
0000
0010
0003
0010
2000
0010
0000
0010
,  // measure 49
0000
0000
0010
0000
3100
0010
0100
0010
0200
0000
0001
0000
0310
0000
0001
0000
,  // measure 50
2000
0100
3001
0100
0020
1000
0130
1000
,  // measure 51
0002
1000
0013
1000
0101
0010
0110
1000
,  // measure 52
1010
0000
0100
0000
0011
0000
0010
0000
1000
0000
0000
1001
0000
0000
0010
0000
,  // measure 53
0000
0011
0000
0000
1000
0001
1000
0001
0020
0000
0000
0000
0000
0000
0000
0000
,  // measure 54
0130
0000
1000
0100
1000
0000
0100
0001
0100
0000
0010
0000
0100
0000
0001
0000
,  // measure 55
0010
1000
0100
1000
0010
0001
0100
0010
,  // measure 56
1000
0100
0010
0001
0010
0100
0010
0100
,  // measure 57
1000
0001
1000
0001
0010
1000
0100
1000
,  // measure 58
0010
0000
0100
0000
0010
0000
0010
0001
0010
0000
1000
0000
0100
0000
1000
0000
,  // measure 59
0001
0010
0001
0010
0100
0010
1000
0001
,  // measure 60
1000
0010
0100
0001
0020
0000
0032
0000
,  // measure 61
2003
0000
3100
0200
0000
0320
0000
1030
,  // measure 62
1002
0000
1003
0000
0010
0100
0010
1000
,  // measure 63
0001
0100
0010
0100
0001
1000
0010
1000
,  // measure 64
0001
0000
0100
0000
0010
0000
1000
0010
1000
0000
0001
0000
0100
0000
0010
0000
,  // measure 65
1000
0010
0100
0001
0100
0010
1000
0100
,  // measure 66
0001
0000
0010
0000
0001
1000
0001
1000
0001
0000
0100
0000
0010
0000
0100
0000
,  // measure 67
0001
1000
0010
0001
0100
0010
1000
0010
,  // measure 68
0100
0000
0001
0000
0010
0000
0100
1000
0100
0000
0000
0000
1100
0000
0000
0000
,  // measure 69
0110
0000
0100
0011
0000
1001
0000
1000
,  // measure 70
2020
0000
3030
0000
0101
0000
0001
0011
,  // measure 71
0000
0010
0110
0000
1000
1010
0000
0100
,  // measure 72
1100
0001
1001
0010
0011
0000
1000
1010
,  // measure 73
0000
0100
0101
0000
1000
1001
0000
0100
,  // measure 74
0110
0001
0011
0100
1100
0000
0001
0110
,  // measure 75
0000
1000
0110
0000
0001
0110
0000
0100
,  // measure 76
1010
0100
0101
0010
0001
0000
1100
0000
,  // measure 77
1010
0000
0001
0100
0000
0010
0000
1000
,  // measure 78
1001
0100
0010
0001
0010
1000
0010
0200
,  // measure 79
0000
1000
0301
2000
0000
0010
3001
0100
,  // measure 80
0010
0001
1000
0100
1000
0100
0001
0020
,  // measure 81
0000
0001
0130
0002
0000
0010
1003
0100
,  // measure 82
0010
1000
1001
0000
0010
0001
0100
0020
,  // measure 83
0000
0100
1030
0200
0000
1000
0301
0010
,  // measure 84
0100
0010
1000
0100
0001
0000
1010
0000
,  // measure 85
0011
0000
0100
0100
0000
1001
0000
0002
,  // measure 86
2000
0000
3003
0011
0000
0101
0000
1100
,  // measure 87
0000
1010
0110
0000
2002
0000
0000
0000
,  // measure 88
0000
3003
0000
0000
;

//---------------dance-single - ----------------
#NOTES:
     dance-single:
     :
     Medium:
     12:
     0.585725,0.857733,0.383583,0.272770,0.055406,481.000000,436.000000,45.000000,32.000000,0.000000,0.000000,0.585725,0.857733,0.383583,0.272770,0.055406,481.000000,436.000000,45.000000,32.000000,0.000000,0.000000:
0000
0000
0000
0000
,
0000
0000
0000
0000
,
0000
0000
0000
0000
,
0000
0000
0000
0000
,
0000
0000
0000
0000
,
1000
0000
0010
0100
0000
0001
0010
0000
,
0100
0001
0000
0010
1000
0010
1000
0000
,
0020
0000
2030
0000
3200
0000
0301
0001
,
0000
1000
0000
0011
0000
0100
1000
0000
,
0010
0011
0100
0010
,
0100
0001
0000
1000
0001
0000
0010
0200
,
0000
0000
0301
0000
1000
0000
0100
0001
,
0100
0001
0000
0010
0000
1000
0000
0210
,
0000
0000
1300
0000
1000
0000
0001
0010
,
0100
0010
0000
0100
0010
0000
0100
2000
,
0000
0000
3010
0000
0001
0010
0001
0000
,
0100
0001
0010
0001
0000
1000
0000
0011
,
0000
1000
1000
0000
0200
0000
0310
0000
,
0010
1000
0010
0000
0001
0100
0001
0010
,
0000
0000
1001
0000
0100
0010
1000
0000
,
0010
0100
0001
0100
0000
0010
0000
1100
,
0000
0001
0001
0000
1000
0100
1000
0000
,
0100
1000
0100
0000
0010
1000
0010
0001
,
0000
0100
1000
0000
0010
0100
0010
0001
,
0100
0010
0000
0100
0000
0010
0000
1010
,
0000
0100
0100
0000
0010
0000
1000
0000
,
0001
0010
0001
0000
1000
0001
1000
0020
,
0000
0000
1030
0000
0100
0001
0100
0000
,
0010
1000
0100
1000
0000
0010
0000
0102
,
0000
0000
1003
0000
0100
1000
0010
0000
,
1000
0001
0010
0000
0100
0010
0100
2000
,
0000
0000
3001
0000
0001
1000
0100
0000
,
0100
0010
0100
1000
0000
0010
0000
0102
,
0000
0000
0010
0000
0013
0000
0000
0000
0001
0000
0010
0100
0000
0000
0010
0001
,
0000
1000
0010
0000
0100
0000
0110
0000
1000
0000
0001
1000
0000
0000
0001
0010
,
0000
0100
0010
0000
1000
0000
1010
0000
0002
0000
1003
0100
0000
0000
0010
0100
,
0000
0100
0001
0000
0001
0010
0001
0000
1000
0000
0010
0000
1001
0000
0001
0010
,
0000
0001
0000
0010
0100
0000
1100
0000
0001
0000
0000
0000
1000
0000
0001
0000
,
0000
0010
0001
0010
0000
1000
0100
0000
,
0010
0000
0011
0000
0100
0000
0001
0010
,
0000
0010
1000
0010
0000
0100
0010
0000
,
1000
0000
1001
0000
0010
0000
1000
0001
,
0000
0100
0001
0100
0000
1000
0010
0000
,
0001
0010
1000
0000
0002
0000
2003
0000
,
3020
0000
0130
0100
0000
1000
0000
0110
,
0000
1000
0001
0000
0002
0000
0010
0000
,
0010
0010
2003
0010
,
0010
3010
0201
0001
,
0001
0001
0320
0001
,
0001
0031
2000
3100
,
0020
0130
0002
0103
,
0020
0130
2010
3001
,
1200
0310
1000
0110
,
1010
1001
0200
0000
,
0310
0000
0011
0000
0100
0001
0100
0000
,
1000
0100
1000
0000
0010
0100
1000
0100
,
0010
1000
0001
0000
0010
1000
0010
0000
,
1000
0001
1000
0000
0100
0001
1000
0010
,
0100
0010
0002
0000
0013
0100
0010
0000
,
0010
0001
0010
0000
0001
0010
0100
1000
,
0100
0010
1000
0000
0001
0000
0100
0000
,
0101
0000
0100
1000
0000
0001
0000
0010
,
0100
0000
0110
0000
0001
1000
0001
0000
,
0010
1000
0010
0000
0010
1000
0001
1000
,
0010
0100
0001
0000
0100
0001
0100
0000
,
0100
1000
0100
0000
0100
0010
0100
1000
,
0001
0010
0020
0000
1030
0010
0001
0000
,
0100
0001
0010
0000
0001
1000
0010
1000
,
0001
0010
0100
0000
1000
0000
0010
0000
,
1010
0000
0010
1000
0000
0101
0000
2000
,
0020
0000
3030
0000
0001
0000
0000
0110
,
0000
0000
0100
0000
0000
1001
0000
0000
,
0001
0000
1100
0000
0010
0000
0000
0101
,
0000
0000
0010
0000
0000
1010
0000
0000
,
0100
0000
0101
0000
1010
0000
0000
0110
,
0000
0000
0101
0000
0000
1001
0000
0000
,
0011
1100
0010
0100
,
1010
0000
0010
0100
0000
1000
0000
0001
,
1000
0100
0100
0000
0010
0001
0010
0000
,
0100
0010
0100
0000
0001
1000
0010
1000
,
0001
0100
0010
0000
1000
0010
1000
0000
,
0001
0010
0001
0000
0100
0001
0010
1000
,
0100
0001
2000
0000
3100
0001
0010
0000
,
0100
0010
1000
0000
0010
0100
0001
0010
,
1000
0100
0001
0010
0100
0000
0001
0000
,
1100
0000
0010
1000
0000
0100
0000
0010
,
0010
0000
0000
1010
0000
0011
0000
0201
,
0000
1000
1300
0000
0110
0000
0000
0000
;

//---------------dance-single - ----------------
#NOTES:
     dance-single:
     :
     Easy:
     6:
     0.360446,0.596684,0.144909,0.434727,0.000000,296.000000,279.000000,17.000000,51.000000,0.000000,0.000000,0.360446,0.596684,0.144909,0.434727,0.000000,296.000000,279.000000,17.000000,51.000000,0.000000,0.000000:
0000
0000
0000
0000
,
0000
0000
0000
0000
,
0000
0000
0000
0000
,
0000
0000
0000
0000
,
0000
0000
0000
0000
,
0010
0001
0010
0010
,
1000
0100
1000
1000
,
0020
0030
0100
1000
,
1000
0100
0001
0000
,
2002
3003
0200
0300
,
1000
0100
1000
1000
,
0010
0000
0002
0003
,
1000
0010
0001
0010
,
0010
0000
2000
3000
,
0010
0100
0001
0010
,
0010
0000
0200
0300
,
0010
0001
1000
0100
,
0001
0000
0022
0033
,
0001
0010
0100
1000
,
1000
0000
2002
3003
,
0100
0010
1000
0100
,
0100
0000
2200
3300
,
1000
0001
0010
0100
,
0010
0000
2020
3030
,
0010
1000
0100
1000
,
0001
0000
0010
0010
,
1000
0010
0100
0010
,
2000
3000
0010
1000
,
0100
0001
0001
0010
,
0200
0300
1000
0001
,
1000
0010
0100
0001
,
0200
0300
1000
0100
,
0001
1000
1000
0100
,
0020
0030
1000
0011
,
1000
0100
1000
0001
0100
0000
1100
0000
,
1000
0010
0001
0001
0100
0000
1010
0000
,
0001
0010
0001
0100
0020
0030
0002
0003
,
0010
1000
2000
3000
0010
0000
0100
0000
,
0001
0100
1000
0100
,
1000
0010
0001
1000
,
0100
0010
0100
0100
,
1000
0010
0002
0003
,
2000
3000
0020
0030
,
0200
0300
1000
0001
,
0001
1000
0100
0010
,
0001
0001
0020
0000
,
0000
0030
0200
0000
,
0000
0300
0002
0000
,
0000
0003
2000
0000
,
0000
3000
0220
0330
,
2002
3003
2200
3300
,
0202
0303
0020
1030
,
0002
1003
0200
0320
,
0032
2000
3003
0000
,
0100
0100
0010
0001
,
1000
0010
0100
0010
,
0100
0001
1000
0001
,
0010
1000
0010
1000
,
0001
0001
0100
0010
,
1000
0010
0100
0001
,
1000
0100
0010
0010
,
1000
0001
0100
0010
,
0002
0003
0100
1000
,
0100
0001
0100
0010
,
0001
1000
0001
0010
,
1000
0010
0001
0100
,
1000
0010
0001
0010
,
0010
1000
1000
0001
,
1000
0001
0001
0010
,
1000
0100
1000
0010
,
0200
0300
1000
0000
,
0011
0000
1000
0010
,
0100
0010
0100
0000
,
1001
0000
0001
0001
,
0100
0010
1000
0000
,
0110
0000
0001
0100
,
0010
0010
1000
0100
,
0010
0001
0100
0000
,
1010
0000
0010
1000
,
0200
0300
1000
0100
,
0001
1000
0010
0100
,
0002
0003
0001
1000
,
1000
0000
0100
0001
,
2000
3010
0100
1000
,
0002
0103
1000
1000
,
0001
1000
0010
0100
,
0200
0300
0001
0010
,
0100
1000
1001
0000
;
