#VERSION:0.83;
#TITLE:800nm;
#SUBTITLE:;
#ARTIST:Another Infinity;
#TITLETRANSLIT:;
#SUBTITLETRANSLIT:;
#ARTISTTRANSLIT:;
#GENRE:;
#ORIGIN:;
#CREDIT:;
#BANNER:800nm.png;
#BACKGROUND:800nm-bg.png;
#PREVIEWVID:;
#JACKET:800nm-jacket.png;
#CDIMAGE:;
#DISCIMAGE:;
#LYRICSPATH:;
#CDTITLE:;
#MUSIC:800nm.ogg;
#OFFSET:-1.468254;
#SAMPLESTART:18.770058;
#SAMPLELENGTH:10.666666;
#SELECTABLE:YES;
#BPMS:0.000=180.000;
#STOPS:;
#DELAYS:;
#WARPS:;
#TIMESIGNATURES:0.000=4=4;
#TICKCOUNTS:0.000=4;
#COMBOS:0.000=1;
#SPEEDS:0.000=1.000=0.000=0;
#SCROLLS:0.000=1.000;
#FAKES:;
#LABELS:0.000=Song Start;
#BGCHANGES:;
#KEYSOUNDS:;
#ATTACKS:
;

//---------------dance-single - ----------------
#NOTEDATA:;
#CHARTNAME:;
#STEPSTYPE:dance-single;
#DESCRIPTION:;
#CHARTSTYLE:;
#DIFFICULTY:Hard;
#METER:13;
#RADARVALUES:0.534541,0.656488,0.158803,0.337456,0.114139,377.000000,361.000000,16.000000,34.000000,0.000000,0.000000,0.000000,0.000000,0.000000,0.534541,0.656488,0.158803,0.337456,0.114139,377.000000,361.000000,16.000000,34.000000,0.000000,0.000000,0.000000,0.000000,0.000000;
#CREDIT:;
#NOTES:
0000
0000
0000
0000
,
0000
0000
0000
0000
,
0000
0000
0000
0000
,
0000
0000
0000
0000
,
0020
1000
0100
0031
,
2000
0100
0010
3001
,
0002
1000
0100
1003
,
0200
0001
0010
0310
,
0010
1000
0010
0100
0001
1000
0100
0000
,
1000
0001
1000
0100
0001
0010
0001
0000
,
0100
0001
0100
1000
0010
0100
1000
0000
,
0001
1000
0100
0001
0010
0100
0001
0000
,
1000
0010
0000
0010
0100
0000
0100
2000
0000
0000
0010
0000
3010
0000
0010
0000
,
0001
0010
1000
0100
,
0001
0010
0100
0010
0100
0000
1000
0000
,
0010
0001
0010
0100
,
1000
0100
1000
0010
0001
0100
0010
0001
,
1000
0001
0100
1000
,
0001
0100
1000
0100
0010
0000
0100
0000
,
0010
0100
1000
0100
,
0001
0000
0000
0010
0000
0000
0001
0000
1000
0000
0001
0000
0100
0000
0010
0000
,
1000
0100
1000
0010
0100
0001
1000
0000
,
0001
0100
0010
1000
0010
0100
0001
0000
,
1000
0010
1000
0000
0010
0100
0010
0000
,
0001
1000
0010
0100
0010
0001
1001
0000
,
0100
1000
0100
1000
0010
0100
0001
0001
,
0100
0010
0100
0001
1000
0010
0100
0100
,
0001
0100
0001
0001
0010
0001
0010
0010
,
0001
0000
0000
1001
0000
0000
1000
0000
0010
0000
0100
0000
0010
0000
0010
0000
,
1000
0000
0000
0001
0000
0000
1000
0000
0010
0000
0000
0100
0000
0000
1000
0000
,
0000
0100
0000
0000
0001
0000
0000
0010
0000
0000
0100
0000
0010
0000
0001
0000
,
0020
0000
1000
0000
,
0100
0000
0000
0000
0001
0000
0000
0000
1000
0000
0000
0000
1030
0000
0100
1000
,
0200
0000
0000
0000
0000
0000
0000
0001
0000
0000
0000
0000
0000
0000
0000
0000
,
0300
0001
0000
0001
0010
0100
1000
0000
,
0100
0000
0000
0001
0000
0000
0010
0000
0100
0000
0000
1000
0000
0000
0001
0000
,
0010
0000
0000
0001
0000
0000
0010
0000
0100
0000
0000
1000
0000
0000
0001
0010
,
0002
0000
0003
2000
0000
3000
0002
0000
,
0000
1000
0000
1003
,
0020
0000
0030
0020
0000
0030
0200
0000
,
0000
0000
0000
0000
0001
0000
0000
0000
1300
0000
0000
0000
1000
0001
2000
0000
,
0000
0000
0000
0000
0010
0000
0000
0000
0001
0000
0000
0000
3010
0000
0010
0001
,
0200
0000
0000
0002
0000
0000
0303
0000
,
2100
0010
0100
3001
,
0201
0000
1000
1000
0000
0001
0310
0000
,
0220
0000
0000
0330
,
0010
1000
0000
0010
0001
0000
0100
0001
0100
0000
1000
0000
1010
0000
1000
0000
,
0200
0302
0023
0230
,
0301
1000
0001
0010
0100
0000
1000
0000
,
0001
0101
0010
1010
,
0100
1000
0100
0010
0001
0010
0100
0001
,
0020
2030
3200
0320
,
1030
0100
0010
0001
0100
0000
0001
0000
,
0100
1100
1000
1001
,
0100
0000
0000
1010
0000
0000
0010
0000
0001
0000
1000
0000
0010
0000
0100
0000
,
0001
0010
0100
0001
0100
0010
1000
0001
,
0100
0010
1000
0001
0010
1000
0100
0000
,
1000
0100
0001
0001
0010
0100
1000
1000
,
0100
0010
1000
0001
0100
0001
0101
0000
,
1000
1000
0100
0100
0001
0001
0010
0010
,
0100
0010
0100
0001
1000
0010
0100
0000
,
1000
0010
0110
0100
0001
0100
1010
1000
,
0010
0000
0000
0110
0000
0000
1000
0000
0010
0000
0100
0000
1000
0000
0100
0000
,
0002
0010
0203
0010
,
0301
1000
0100
1000
0010
0000
0110
0000
,
2000
3001
2000
3100
,
0010
0100
0010
0100
0001
1000
0100
0010
,
0200
0000
0000
0000
,
0000
2000
0000
0000
,
0000
0000
0000
0000
0000
3300
0000
0000
;

//---------------dance-single - ----------------
#NOTEDATA:;
#CHARTNAME:;
#STEPSTYPE:dance-single;
#DESCRIPTION:;
#CHARTSTYLE:;
#DIFFICULTY:Medium;
#METER:8;
#RADARVALUES:0.397007,0.508044,0.258054,0.506183,0.014888,280.000000,254.000000,26.000000,51.000000,0.000000,0.000000,0.000000,0.000000,0.000000,0.397007,0.508044,0.258054,0.506183,0.014888,280.000000,254.000000,26.000000,51.000000,0.000000,0.000000,0.000000,0.000000,0.000000;
#CREDIT:;
#NOTES:
0000
0000
0000
0000
,
0000
0000
0000
0000
,
0000
0000
0000
0000
,
0000
0000
0000
0000
,
0002
0000
2000
3003
,
0020
0000
0002
0033
,
0200
0000
0020
0330
,
2000
0000
0200
3300
,
1020
0100
2000
3030
,
0210
0001
0020
0330
,
2001
0010
0001
3001
,
0102
0100
0200
0303
,
0001
0000
0000
0100
0000
0000
0220
0000
0000
0000
0000
0000
0330
0000
0000
0000
,
0100
0010
1000
0010
,
1000
0000
1000
0010
0100
0000
0001
0000
,
0200
1300
0020
1030
,
0100
0000
0100
0001
1000
0000
1001
0000
,
0001
0010
1000
0010
,
0001
0000
0001
0010
0100
0000
0001
0000
,
0020
0031
2000
3001
,
0100
0000
0001
0000
0100
0010
0110
0000
,
1000
0000
0100
0000
1000
0000
0001
0010
,
0100
0000
0100
0010
0000
0010
0001
0000
,
1000
0000
0100
0001
0100
0000
0010
0100
,
0010
0000
0001
0010
1000
0010
0100
0000
,
1000
0000
0010
0000
0001
0000
0001
0010
,
0100
0000
0001
0010
0100
0001
1000
0000
,
0100
0010
0100
0000
0001
1000
0001
0000
,
1000
0000
0000
0010
0000
0000
1000
0000
0001
0000
0000
0000
0101
0000
0000
0000
,
0002
0000
0023
0000
,
1030
0001
2002
3003
,
0200
0000
2300
0000
,
3010
1000
0220
0330
,
1000
0000
1001
0000
,
0100
0000
0110
0000
,
1000
0001
0100
0001
,
0100
1000
0202
0303
,
0010
0000
0000
1000
0000
0000
0100
0000
,
0010
1000
0100
1000
,
0001
0000
0000
1000
0000
0000
0001
0000
,
0010
0100
0001
1000
,
0020
0030
2002
3003
,
2000
3000
0220
0330
,
1000
0010
1000
0100
,
1000
1000
0010
0200
,
0020
0000
0000
0330
,
0001
0000
0001
0000
0100
1000
1100
0000
,
1000
0100
0001
1000
,
0010
0000
0010
0100
1000
0000
0010
0000
,
0020
1030
0200
1300
,
1000
0100
1000
0000
0101
0000
1001
0000
,
0001
0010
1000
0001
,
0100
0000
0100
1000
0001
0000
1000
0000
,
0002
0103
0020
0130
,
0100
0000
0000
0001
0000
0000
0100
0000
0001
0000
0010
0000
0011
0000
0000
0000
,
0001
0000
0100
0010
0100
0000
0001
0010
,
0001
0000
0100
0010
1000
0010
0100
0000
,
0001
1000
0010
1000
0010
0000
1000
0100
,
0001
0000
1000
0010
1000
0010
0001
0000
,
1000
0100
0001
0000
0110
0000
0010
0100
,
0010
0000
1001
0000
0100
0001
0100
0000
,
1000
0010
1000
0000
0010
0001
0010
0000
,
1000
0010
1001
0101
,
0200
0300
2002
3003
,
0001
0100
0001
1000
,
0002
0003
0220
0330
,
0001
1000
0001
0000
0010
0000
0100
0000
,
2002
0000
0000
0000
,
0000
3003
0000
0000
;

//---------------dance-single - ----------------
#NOTEDATA:;
#CHARTNAME:;
#STEPSTYPE:dance-single;
#DESCRIPTION:;
#CHARTSTYLE:;
#DIFFICULTY:Easy;
#METER:4;
#RADARVALUES:0.241040,0.299244,0.089326,0.347381,0.000000,170.000000,161.000000,9.000000,35.000000,0.000000,0.000000,0.000000,0.000000,0.000000,0.241040,0.299244,0.089326,0.347381,0.000000,170.000000,161.000000,9.000000,35.000000,0.000000,0.000000,0.000000,0.000000,0.000000;
#CREDIT:;
#NOTES:
0000
0000
0000
0000
,
0000
0000
0000
0000
,
0000
0000
0000
0000
,
0000
0000
0000
0000
,
0020
0000
0000
0030
,
2000
0000
0000
3000
,
0002
0000
0000
0003
,
0200
0000
0000
0300
,
0010
0010
0010
0000
,
0100
0100
0100
0000
,
0001
1000
0001
0000
,
0010
0001
0010
0000
,
2002
0000
0000
3003
,
0010
0000
0100
0000
,
1000
0100
1000
0001
,
0020
0030
0002
0003
,
0100
0010
0200
0300
,
1000
0000
0001
0000
,
0100
0010
0100
1000
,
0020
0030
0002
0003
,
1000
0001
2000
3000
,
0110
0000
0100
0000
,
1000
0010
1000
0100
,
0002
0003
2000
3000
,
0010
0100
0020
0030
,
1001
0000
0100
0000
,
1000
0010
0001
0100
,
2000
3000
0020
0030
,
0001
0100
0002
0003
,
0010
0000
2000
0000
,
3100
0000
0020
0000
,
0031
0000
0200
0000
,
0001
0000
0301
0000
,
1000
1000
0001
0000
,
0010
0010
0100
0000
,
0100
0001
0100
0000
,
0010
1000
0010
0000
,
0200
0000
1300
0000
,
0020
0000
1030
0000
,
0002
0000
0103
0000
,
0020
0000
0031
0000
,
0100
0000
0001
0100
,
0010
0000
0001
1000
,
0100
0000
0010
0100
,
1000
0100
0001
0000
,
1001
0000
0000
0000
,
0010
0010
0010
0000
,
0100
0000
1000
0000
,
0010
1000
0001
0100
,
0002
0003
0020
0030
,
1000
0100
2000
3000
,
0001
0000
0100
0000
,
1000
0001
0010
1000
,
0200
0300
2000
3000
,
0010
0001
0020
0030
,
0110
0000
0100
0010
,
0100
0001
0010
0000
,
1001
0000
1000
0001
,
0010
1000
0001
0000
,
0110
0000
0100
0010
,
0100
0001
0010
0000
,
1001
0000
0100
0010
,
1000
0100
1000
0000
,
0010
0000
0100
0000
,
0001
0010
1000
0000
,
0020
0030
0200
0300
,
2000
3000
0002
0003
,
0110
0000
0000
0000
;

//---------------dance-single - ----------------
#NOTEDATA:;
#CHARTNAME:;
#STEPSTYPE:dance-single;
#DESCRIPTION:;
#CHARTSTYLE:;
#DIFFICULTY:Beginner;
#METER:1;
#RADARVALUES:0.093580,0.166247,0.029775,0.218354,0.000000,66.000000,63.000000,3.000000,22.000000,0.000000,0.000000,0.000000,0.000000,0.000000,0.093580,0.166247,0.029775,0.218354,0.000000,66.000000,63.000000,3.000000,22.000000,0.000000,0.000000,0.000000,0.000000,0.000000;
#CREDIT:;
#NOTES:
// measure 0
0000
0000
0000
0000
,  // measure 1
0000
0000
0000
0000
,  // measure 2
0000
0000
0000
0000
,  // measure 3
0000
0000
0000
0000
,  // measure 4
2000
0000
3000
0000
,  // measure 5
2000
0000
3000
0000
,  // measure 6
0002
0000
0003
0000
,  // measure 7
0002
0000
0003
0000
,  // measure 8
0200
0000
0300
0000
,  // measure 9
0200
0000
0300
0000
,  // measure 10
0020
0000
0030
0000
,  // measure 11
0020
0000
0030
0000
,  // measure 12
2002
0000
3003
0000
,  // measure 13
0010
0000
0000
0000
,  // measure 14
0010
0000
0000
0000
,  // measure 15
0100
0000
0000
0000
,  // measure 16
0100
0000
0000
0000
,  // measure 17
0001
0000
0000
0000
,  // measure 18
0001
0000
0000
0000
,  // measure 19
1000
0000
0000
0000
,  // measure 20
1000
0000
1000
0000
,  // measure 21
1000
0000
0000
0000
,  // measure 22
0001
0000
0000
0000
,  // measure 23
1000
0000
0000
0000
,  // measure 24
0001
0000
0000
0000
,  // measure 25
0010
0000
0000
0000
,  // measure 26
0100
0000
0000
0000
,  // measure 27
0010
0000
0000
0000
,  // measure 28
0100
0000
0100
0000
,  // measure 29
0200
0000
0000
0000
,  // measure 30
0300
0000
0000
0000
,  // measure 31
0020
0000
0000
0000
,  // measure 32
0030
0000
0000
0000
,  // measure 33
0002
0000
0000
0000
,  // measure 34
0003
0000
0000
0000
,  // measure 35
2000
0000
0000
0000
,  // measure 36
3000
0000
0000
0000
,  // measure 37
0001
0000
0001
0000
,  // measure 38
0002
0000
0003
0000
,  // measure 39
1000
0000
1000
0000
,  // measure 40
2000
0000
3000
0000
,  // measure 41
0100
0000
0100
0000
,  // measure 42
0200
0000
0300
0000
,  // measure 43
0010
0000
0010
0000
,  // measure 44
0020
0000
0030
0000
,  // measure 45
0220
0000
0000
0000
,  // measure 46
0330
0000
0000
0000
,  // measure 47
1000
0000
0000
0000
,  // measure 48
1000
0000
0000
0000
,  // measure 49
0010
0000
0000
0000
,  // measure 50
0010
0000
0000
0000
,  // measure 51
0001
0000
0000
0000
,  // measure 52
0001
0000
0000
0000
,  // measure 53
0100
0000
0000
0000
,  // measure 54
0100
0000
0000
0000
,  // measure 55
0010
0000
0000
0000
,  // measure 56
0100
0000
0000
0000
,  // measure 57
0010
0000
0000
0000
,  // measure 58
0100
0000
0000
0000
,  // measure 59
1000
0000
0000
0000
,  // measure 60
0001
0000
0000
0000
,  // measure 61
1000
0000
0000
0000
,  // measure 62
0001
0000
0000
0000
,  // measure 63
0020
0000
0000
0000
,  // measure 64
0030
0000
0000
0000
,  // measure 65
0020
0000
0000
0000
,  // measure 66
0030
0000
0000
0000
,  // measure 67
1001
0000
0000
0000
;
