#TITLE:3y3s;
#SUBTITLE:(JMBS FUNKOT RMX);
#ARTIST:Jockie "MASTA BASS" Suama;
#TITLETRANSLIT:;
#SUBTITLETRANSLIT:;
#ARTISTTRANSLIT:;
#GENRE:;
#CREDIT:;
#BANNER:3y3s (JMBS FUNKOT RMX) .png;
#BACKGROUND:3y3s (JMBS FUNKOT RMX) -bg.png;
#LYRICSPATH:;
#CDTITLE:;
#MUSIC:3y3s (JMBS FUNKOT RMX) .ogg;
#OFFSET:-0.632668;
#SAMPLESTART:96.363579;
#SAMPLELENGTH:9.696968;
#SELECTABLE:YES;
#BPMS:0.000000=198.000000
,16.000000=99.000000
,32.000000=198.000000
,60.000000=99.000000
,62.000000=198.000000
,90.000000=99.000000
,92.000000=198.000000
,120.000000=99.000000
,122.000000=198.000000
,153.875000=99.000000
,186.000000=198.000000
,214.000000=99.000000
,216.000000=198.000000
,312.000000=99.000000
;
#STOPS:15.875000=1.212000,
153.875000=1.174000,
247.875000=1.212000
;
#BGCHANGES:;
#KEYSOUNDS:;
#ATTACKS:;

//---------------dance-single - ----------------
#NOTES:
     dance-single:
     :
     Hard:
     14:
     0.696265,0.952212,0.634269,0.459010,0.233678,584.000000,508.000000,76.000000,55.000000,0.000000,0.000000,0.696265,0.952212,0.634269,0.459010,0.233678,584.000000,508.000000,76.000000,55.000000,0.000000,0.000000:
0000
0000
0000
0000
,
0000
0000
0000
0000
,
0000
0000
0000
0000
,
0000
0000
0000
0000
,
0200
0300
0020
0030
0200
0300
0020
0230
,
0302
0003
2000
3000
0002
0003
2000
3002
,
0023
1030
0200
0301
2000
3010
0002
0203
,
2300
0000
3200
0000
0302
0000
0023
0000
0130
1000
0100
0001
0100
0010
0100
0100
,
1000
0100
0110
0000
0000
0010
0011
0000
,
0100
0010
1001
0000
0000
0100
1010
0000
,
0001
1000
1010
0000
0000
1000
1100
0000
,
1000
0100
0110
0010
0000
0010
1001
0000
,
0001
0100
1010
0010
0100
1000
1001
0000
,
1000
0010
1010
0100
1000
0100
1100
0000
,
0001
0100
0011
0001
1000
0010
0101
1000
,
0110
0110
0011
1001
0001
0100
0010
0001
,
0010
0100
0001
0010
0100
0001
1000
0010
,
0100
0001
1000
0010
0100
0001
1000
0100
,
0010
0001
0010
0100
1000
0100
0010
0001
,
0100
0010
0001
0010
1100
0001
0010
1000
,
0100
0001
1000
0010
0101
0001
0100
0010
,
0001
0000
1000
0000
0001
0000
0100
0000
0020
0000
0000
1000
0030
0000
0100
0000
,
0200
0000
0000
0001
0300
0000
0010
0000
2001
0000
3002
0000
0010
1000
0010
0003
,
0100
0000
1100
0000
0020
0100
1000
0001
,
0000
0000
0030
0000
1000
0100
1100
0000
,
0010
0000
1010
0000
0002
0010
1000
0010
,
0000
0100
0003
0100
0010
0100
1001
0000
,
0010
0000
0011
0000
0200
0010
1000
0010
,
0000
0000
0300
0000
0100
0001
0110
0000
,
1000
0000
1010
0000
2000
0001
0100
0010
,
0001
0000
3001
0000
0001
1000
0110
0000
2000
0000
0001
0000
0100
0000
0001
0000
,
0000
0010
0001
0010
0000
0000
3000
0000
,
0010
0100
1000
0000
0020
0100
0001
0100
,
0000
1000
0100
1000
0000
0001
0030
0001
,
0001
0000
0100
0000
0010
0000
0000
0000
1000
0010
0000
0010
0001
0000
0001
0100
,
0000
0100
1000
0000
0101
0000
0101
0000
0010
1000
0000
0010
1000
0000
0100
0001
,
0000
0100
0010
0000
1001
0000
1001
0000
0100
0000
0010
0000
0100
0000
0001
0000
,
1000
0010
0100
0001
1100
0000
0011
0000
,
0001
0000
0001
0000
0010
1000
0010
1000
0002
0000
0000
0000
0000
0000
0000
0000
,
0013
0000
0000
0100
0000
0000
1000
0000
0000
0100
0000
0000
0010
0000
0001
0000
0020
0000
0000
0000
0000
0000
0000
0000
0000
0000
0000
0000
0000
0000
0000
0000
,
0130
0000
0000
0100
0000
0000
1000
0000
0000
1000
0000
0000
0001
0000
1000
0000
0200
0000
0000
0000
0000
0000
0000
0000
0000
0000
0000
0000
0000
0000
0000
0000
,
0301
0000
0000
0010
0000
0000
0001
0000
0000
1000
0000
0000
0001
0000
0100
0000
2000
0000
0000
0000
0000
0000
0000
0000
0000
0000
0000
0000
0000
0000
0000
0000
,
3010
0000
0000
0100
0000
0000
0001
0000
0000
1000
0000
0000
0010
0000
0100
0000
0010
0000
0000
0000
0010
0000
0000
0000
0010
0000
1000
0000
0110
0000
1000
0000
,
0010
0000
0010
0000
0010
0000
0010
0010
1000
0000
1000
0000
1000
0001
1100
0001
,
1000
0000
1000
0000
1000
0000
1000
1000
0100
0000
0100
0000
0100
0010
0101
0010
,
0100
0000
0100
0000
0100
0000
0100
0100
0001
0000
0001
0000
0001
0100
0011
0200
,
0001
0000
0001
0000
0001
0001
0301
0000
1000
0000
0001
0000
0100
0000
0010
0000
,
0000
0010
1000
0100
1000
0000
0010
0100
,
0000
0010
0011
0000
0001
1000
0100
1000
,
0000
0001
0010
1000
0010
0000
1000
0010
,
0000
0100
1010
0000
0011
0100
0010
0100
,
0001
1000
0001
0000
1001
0010
0100
1000
,
0010
0001
1000
0000
1010
0100
0001
1000
,
0110
0000
0001
0000
1000
0000
0010
0000
1000
0000
0001
0000
0010
0100
0010
0000
,
0120
0100
1000
0130
,
1020
1000
0001
1030
,
0021
0001
0100
0031
,
0120
1000
0100
0031
,
0021
0001
0001
0031
,
1020
1000
1000
1030
,
2100
3010
0102
1003
,
0200
0000
0302
0000
0023
2030
3002
0203
,
1300
0001
0100
0010
0000
0001
1000
0100
,
0010
1010
0101
0011
,
0100
0010
1000
0001
0000
0100
0010
0100
,
0001
0000
1010
0000
0011
0000
1100
0010
,
0000
1000
0001
0100
0000
0001
0010
0100
,
0001
0000
0011
0000
0101
0000
0110
0120
,
0000
0000
0030
1001
2001
0000
3000
0011
,
0021
0000
0230
0000
0302
0010
1003
0010
,
1100
0100
0001
1000
0100
0100
0010
0001
,
1000
0100
0010
0100
0001
1000
0001
0010
,
0101
0100
0010
0001
0001
1000
0100
0001
,
0100
0010
0001
0100
0010
0100
0001
0010
,
1010
0100
0010
1000
0010
0100
0001
0100
,
0011
0100
0001
1000
0010
0100
0001
1000
,
0110
0010
0101
0100
0011
0001
1001
1000
,
0100
0010
0100
0001
1000
0100
1000
0001
0010
1000
0010
0100
0001
0010
0001
0000
,
2010
0000
0000
0010
0000
0020
0000
0000
0000
0000
0000
3030
0000
0000
0000
0000
;

//---------------dance-single - ----------------
#NOTES:
     dance-single:
     :
     Medium:
     11:
     0.497162,0.620890,0.208641,0.492393,0.070938,417.000000,392.000000,25.000000,59.000000,0.000000,0.000000,0.497162,0.620890,0.208641,0.492393,0.070938,417.000000,392.000000,25.000000,59.000000,0.000000,0.000000:
0000
0000
0000
0000
,
0000
0000
0000
0000
,
0000
0000
0000
0000
,
0000
0000
0000
0000
,
1000
0000
0001
0000
1000
0000
0001
1000
,
0010
0000
0100
0000
0010
0000
0100
0010
,
0002
0003
0200
0300
0020
0030
2000
3000
,
0100
0000
1000
0000
0010
0000
1000
0000
0020
0000
0100
0000
0100
0100
0130
0000
,
0001
1000
0001
0000
0000
0010
0001
0000
,
0100
1000
0100
0000
0000
0100
0010
0000
,
0010
0001
0010
0000
0000
1000
0100
0000
,
0100
0001
0100
0000
0000
1000
0001
0000
,
0001
1000
0100
0000
0000
0010
1000
0000
,
0010
1000
0100
0000
0000
0001
0010
0000
,
1000
0100
0010
0000
0001
0010
1000
0000
,
1000
0001
1000
0001
0100
1000
0010
0000
,
0010
0001
0100
0000
0001
0010
0100
0000
,
0100
1000
0010
0000
0010
1000
0100
0000
,
1000
0100
1000
0000
1000
0010
0100
0000
,
0001
0100
0010
0000
0100
1000
0100
0000
,
0010
1000
0001
0000
0001
0010
0100
0000
,
0010
1000
0010
0000
0002
0000
1003
0000
,
2000
0000
0000
0000
3100
0000
0000
0000
2002
0000
3003
0000
0010
0100
0010
0000
,
0001
0000
0100
0000
0010
1000
0010
2000
,
0000
3100
0100
1100
,
0010
0000
0100
0000
0001
0100
0001
0200
,
0000
0310
0100
0110
,
0001
0000
0100
0000
1000
0010
1000
0020
,
0000
1030
1000
1010
,
0100
0000
0010
0000
0100
0001
0010
0002
,
0000
0010
0010
0013
0100
0010
1000
0010
,
0000
1000
0001
0020
0000
0000
0000
0000
,
0100
0000
0130
0000
0010
1000
0001
1000
,
0000
0001
0100
0002
0000
0000
1000
0000
,
1000
0000
0000
0000
1003
0000
0000
0000
1000
0000
0000
0010
0000
0000
0001
0000
,
0000
1000
0000
0000
1001
0000
0000
0000
0100
0000
0000
0010
0000
0000
0100
0000
,
0000
0001
0000
0000
0110
0000
0000
0000
0100
0000
0010
0000
1000
0000
0100
0000
,
0001
0010
0100
0000
0002
0000
0203
0000
,
1300
0010
0001
0010
2200
0000
3300
0000
,
1000
0100
0010
0100
0022
0000
0033
0000
,
0100
0010
0001
0010
2020
0000
3030
0000
,
0001
0001
0010
0001
0220
0000
0330
0000
,
0010
0000
1000
0000
0100
0000
0010
0000
1000
0000
1000
0000
0010
0100
0010
0200
,
0000
0000
1000
0000
1000
0000
1300
0000
0001
0000
0010
0000
0100
1000
0100
2000
,
0000
0000
0001
0000
0001
0000
3001
0000
0010
0000
1000
0000
1000
0010
1000
0020
,
0000
0000
0100
0000
0100
0000
0130
0000
0001
0000
1000
0000
0100
0001
0100
0002
,
0000
0010
0010
0013
0100
0010
0001
0010
,
0000
1000
0100
1000
0000
0000
0001
0000
,
0010
0000
1001
0000
0010
1000
0100
1000
,
0000
0001
0010
0001
0000
0000
1000
0000
,
0100
0000
1100
0000
0010
0100
0001
0100
,
0000
1000
0001
1000
0000
0000
0100
0000
,
0010
0000
1100
0000
0001
0100
1000
0100
,
0000
0000
1000
0000
0001
0000
1000
0000
0010
0000
0010
0000
0100
1000
0100
0000
,
2020
3030
0100
0100
,
0202
0303
0010
0010
,
0022
0033
1000
1000
,
2002
3003
0010
0010
,
2200
3300
0001
0010
,
2002
3003
1000
0100
,
2000
3010
0020
0031
,
2000
3020
0032
0203
,
0301
0010
0001
0010
0000
0001
0100
0010
,
1000
0100
0010
0110
,
0100
0001
1000
0100
0000
1000
0001
0010
,
1000
0100
0001
0101
,
0000
0100
1000
0100
0000
0100
0010
0001
,
0010
1000
0001
1010
,
0002
0000
0003
0100
0200
0000
0300
0010
,
0020
2030
3002
0023
,
1030
0100
1000
0100
0000
0100
0010
0100
,
1000
0010
0001
1001
,
0100
0010
0001
0010
0000
0100
1000
0100
,
0001
1000
0010
1100
,
0000
0001
0100
0001
0000
1000
0010
1000
,
0100
0010
0001
0110
,
2000
0000
3000
0001
0002
0000
0003
1000
,
2000
3200
0302
2003
,
3010
0000
0000
0100
0000
0100
0000
0000
0000
0000
0000
0000
0000
0000
0000
0000
;

//---------------dance-single - ----------------
#NOTES:
     dance-single:
     :
     Easy:
     7:
     0.311173,0.390576,0.108493,0.175259,0.000000,261.000000,248.000000,13.000000,21.000000,0.000000,0.000000,0.311173,0.390576,0.108493,0.175259,0.000000,261.000000,248.000000,13.000000,21.000000,0.000000,0.000000:
0000
0000
0000
0000
,
0000
0000
0000
0000
,
0000
0000
0000
0000
,
0000
0000
0000
0000
,
0100
0100
0010
0100
,
0010
0010
1000
0010
,
0001
0001
1000
0001
,
1000
1000
0100
1000
,
0100
1000
0000
0010
,
0001
0010
0000
0100
,
0001
0010
0000
1000
,
0001
1000
0000
0100
,
0010
0010
0000
0001
,
1000
1000
0000
0100
,
0010
0001
0010
0100
,
2000
3000
0200
0300
0001
0000
1000
0000
,
0001
0000
0010
0100
,
0010
0000
1000
0100
,
1000
0000
0010
0001
,
0010
0000
1000
0100
,
0001
0000
1000
0010
,
0001
0000
1000
1000
,
0001
0001
0100
0100
,
0010
0100
0010
0100
,
1000
0000
1001
0000
,
0001
0010
0100
0010
,
1000
0000
0110
0000
,
1000
0100
0010
0001
,
0010
0000
1001
0000
,
0100
0100
0010
0010
,
0001
0110
1000
0100
,
0001
0100
2000
0000
,
3010
0000
0001
0010
,
0100
0010
0002
0000
,
0103
0000
1000
1000
,
2000
3000
0001
0001
,
0002
0003
0020
0030
,
2000
3000
0200
0300
,
0002
0003
0100
0110
,
0100
0010
0001
1001
,
1000
1000
0100
0110
,
0010
1000
0100
1001
,
0001
0000
1000
0000
0010
0000
0100
0010
,
0100
0000
0001
0000
0010
0000
0001
1000
,
0001
0000
1000
0000
1000
0000
0010
0001
,
1000
0000
0100
0000
0010
0000
0100
0010
,
0001
1000
0010
0100
,
0010
0100
0002
0000
,
1000
0003
0100
0010
,
1000
0010
2000
0000
,
0100
3000
0001
0010
,
0100
1000
0020
0000
,
0100
0030
1000
0010
,
0100
0000
0010
0000
2000
0000
0001
3000
,
0010
0100
0100
0000
,
0001
0100
0100
0000
,
1000
0010
0010
0000
,
0100
0010
0010
0000
,
1000
0100
1000
0100
,
0001
0100
0001
0100
,
0020
0030
0200
0300
,
0010
0001
0100
1000
,
0010
1000
0100
0010
,
0100
0000
1001
0000
,
0001
0100
1000
0010
,
0100
0000
0110
0000
,
0100
0010
0100
1000
,
0001
0000
1001
0000
,
1000
1000
0001
0001
,
0010
0000
0110
0000
,
1000
0100
2000
0000
,
3010
0001
0010
0100
,
0001
0010
0002
0000
,
1003
1000
0001
0010
,
0100
0010
0200
0000
,
0301
1000
0010
0100
,
2000
3000
0200
0300
,
1000
1000
0001
0001
,
1001
0000
0000
0000
;

//---------------dance-single - ----------------
#NOTES:
     dance-single:
     :
     Beginner:
     5:
     0.246793,0.355733,0.091802,0.125185,0.000000,207.000000,196.000000,11.000000,15.000000,0.000000,0.000000,0.246793,0.355733,0.091802,0.125185,0.000000,207.000000,196.000000,11.000000,15.000000,0.000000,0.000000:
// measure 0
0000
0000
0000
0000
,  // measure 1
0000
0000
0000
0000
,  // measure 2
0000
0000
0000
0000
,  // measure 3
0000
0000
0000
0000
,  // measure 4
0100
0100
0100
0100
,  // measure 5
1000
1000
1000
1000
,  // measure 6
0001
0001
0001
0001
,  // measure 7
0010
0010
0010
0010
,  // measure 8
0100
0000
0001
0000
,  // measure 9
0100
0000
1000
0000
,  // measure 10
0100
0000
0010
0000
,  // measure 11
1000
0000
0001
0000
,  // measure 12
0010
0000
0100
0000
,  // measure 13
0001
0000
0100
0000
,  // measure 14
0001
0000
0010
0000
,  // measure 15
1000
1001
0010
0010
,  // measure 16
0010
0000
0001
0001
,  // measure 17
0001
0000
1000
1000
,  // measure 18
1000
0000
0100
0100
,  // measure 19
0100
0000
0001
0000
,  // measure 20
0001
0000
0010
0000
,  // measure 21
0010
0000
1000
0000
,  // measure 22
0001
0000
0200
0300
,  // measure 23
0010
0000
0100
0100
,  // measure 24
0100
0000
1000
0000
,  // measure 25
0001
0000
1000
1000
,  // measure 26
1000
0000
0001
0000
,  // measure 27
0100
0000
0010
0010
,  // measure 28
0010
0000
1000
0000
,  // measure 29
0100
0000
0001
0001
,  // measure 30
0001
0100
1000
1000
,  // measure 31
1000
0000
0100
0000
,  // measure 32
1001
0000
0010
0010
,  // measure 33
0010
0000
1000
0000
,  // measure 34
0110
0000
0100
0100
,  // measure 35
0100
0000
0001
0001
,  // measure 36
0001
0000
1000
0000
,  // measure 37
1001
0000
0100
0000
,  // measure 38
0110
0000
0002
0003
,  // measure 39
0010
0010
2000
3000
,  // measure 40
0100
0100
0020
0030
,  // measure 41
0001
0001
0200
0300
,  // measure 42
1000
1000
0010
1000
,  // measure 43
0010
0000
1000
1000
1000
0000
0001
0000
,  // measure 44
0100
0000
0001
0001
0001
0000
0100
0000
,  // measure 45
0010
0000
0100
0100
0100
0000
0010
0000
,  // measure 46
0100
0000
0010
0010
0010
0000
0000
0000
,  // measure 47
1000
0000
0010
0000
,  // measure 48
0010
0000
0100
0000
,  // measure 49
0001
0000
0100
0000
,  // measure 50
0100
0000
0001
0000
,  // measure 51
0100
0000
1000
0000
,  // measure 52
0100
0000
0010
0000
,  // measure 53
1000
0000
0010
0010
,  // measure 54
0200
0300
0001
0001
,  // measure 55
0002
0003
1000
1000
,  // measure 56
2000
3000
0010
0010
,  // measure 57
0020
0030
0100
0100
,  // measure 58
0200
0300
1000
1000
,  // measure 59
2000
3000
0001
0001
,  // measure 60
0002
0003
2000
3000
,  // measure 61
0200
0300
0020
0030
,  // measure 62
0100
0000
0001
0000
,  // measure 63
0100
0000
1001
0000
,  // measure 64
0010
0000
0001
0000
,  // measure 65
0010
0000
0110
0000
,  // measure 66
1000
0000
0100
0000
,  // measure 67
1000
0000
1001
0000
,  // measure 68
0010
0000
0010
0000
,  // measure 69
0010
0000
0110
0000
,  // measure 70
1000
1000
1000
0000
,  // measure 71
0001
0000
0010
0000
,  // measure 72
0100
0100
0100
0000
,  // measure 73
0010
0000
1000
0000
,  // measure 74
0001
0001
0001
0000
,  // measure 75
0010
0000
0100
0000
,  // measure 76
0010
0000
1000
0000
,  // measure 77
0110
0000
1001
0000
;
