#TITLE:2nd ADVENTURE;
#SUBTITLE:;
#ARTIST:Jimmy Weckl;
#TITLETRANSLIT:;
#SUBTITLETRANSLIT:;
#ARTISTTRANSLIT:;
#GENRE:;
#CREDIT:;
#BANNER:2nd ADVENTURE.png;
#BACKGROUND:2nd ADVENTURE-bg.png;
#LYRICSPATH:;
#CDTITLE:;
#MUSIC:2nd ADVENTURE.ogg;
#OFFSET:-1.309000;
#SAMPLESTART:51.395958;
#SAMPLELENGTH:16.695648;
#SELECTABLE:YES;
#BPMS:0.000000=115.000000
;
#STOPS:
;
#BGCHANGES:;
#KEYSOUNDS:;
#ATTACKS:;

//---------------dance-single - ----------------
#NOTES:
     dance-single:
     :
     Hard:
     9:
     0.352166,0.357041,0.173173,0.193546,0.117146,242.000000,225.000000,17.000000,19.000000,0.000000,0.000000,0.352166,0.357041,0.173173,0.193546,0.117146,242.000000,225.000000,17.000000,19.000000,0.000000,0.000000:
0000
0000
0000
0000
,
0000
0000
0000
0000
,
0000
0000
0000
0000
,
0000
0000
0000
0000
,
0100
0001
0000
0010
0000
0100
0000
0020
0000
0000
0000
0000
0030
1000
0001
2000
,
0000
0000
0010
0000
0000
3000
0000
0200
0000
0000
1000
0000
0000
0300
0000
0000
,
0001
0010
0000
0100
0000
1000
0000
2000
0000
0000
0000
3000
0000
0010
0100
0020
,
0000
0000
1000
0000
0030
0000
0000
0000
2000
0000
0000
3001
0000
1001
0000
0000
,
0000
0100
1000
0010
1000
0100
0010
0000
,
0001
0100
1000
0100
0010
1000
0001
0000
,
0000
0001
0100
0001
0100
0010
0001
0000
,
0100
1000
0010
0001
0010
0001
1000
0000
,
0000
0000
0010
0000
0100
0000
0010
0000
0001
0000
0100
0000
1000
0000
0000
1000
,
0000
0000
0010
0000
0000
1010
0000
0100
0000
0000
0010
0000
0000
0110
0000
0000
,
0000
0000
1000
0000
0100
0000
1000
0000
0001
0000
0010
0000
0100
0000
0000
0001
,
0000
0000
0010
0000
0000
0011
0000
0000
1000
0000
0100
0000
0001
0000
0100
0000
,
2000
0010
0010
3000
,
0002
0010
0010
0003
,
0200
0001
0001
0300
,
0020
1000
1000
1030
,
0001
0100
0001
0010
0001
0100
1000
0000
,
0100
0010
0100
0001
1000
0001
1000
0000
,
0010
1000
0100
0000
0100
0001
0010
0000
,
1100
1010
0101
0011
,
2000
0000
3100
0010
0100
0000
0001
0000
,
0001
1000
0001
0010
0100
0000
0010
1000
,
0002
0000
0013
1000
0200
0000
0310
0001
,
1000
0100
0010
1001
,
0002
0000
0013
1000
0010
0000
0100
0000
,
0010
1000
0100
0001
0010
0000
1000
0100
,
0020
0000
0031
0100
2000
0000
3001
0010
,
0100
0000
1000
0100
0001
0100
0010
0000
,
0100
0000
0010
1000
0001
0100
0010
0000
,
1000
1000
0100
0010
0001
0000
0001
0010
,
0100
0010
0001
0000
0100
0010
1000
0000
,
0100
1000
0100
0010
0001
0000
0101
0000
,
0010
1000
0100
0001
0000
0001
0010
0000
,
1000
0100
1000
0100
0000
0100
0010
0000
,
0001
1000
0010
0000
0100
0001
1000
0000
,
0110
1001
0110
1001
,
1000
0100
0010
0100
0002
0000
1003
0000
,
0100
1100
0010
1010
,
0001
0010
0100
1000
0200
0000
0310
0000
,
1000
0000
0000
0000
0001
0000
0000
0000
0020
0000
0000
1030
0000
1001
0000
0000
;

//---------------dance-single - ----------------
#NOTES:
     dance-single:
     :
     Medium:
     6:
     0.283770,0.312857,0.183359,0.356532,0.010187,195.000000,177.000000,18.000000,35.000000,0.000000,0.000000,0.283770,0.312857,0.183359,0.356532,0.010187,195.000000,177.000000,18.000000,35.000000,0.000000,0.000000:
0000
0000
0000
0000
,
0000
0000
0000
0000
,
0000
0000
0000
0000
,
0000
0000
0000
0000
,
0100
0000
0001
1000
0001
0000
0010
0000
,
1000
0001
1000
1010
,
0001
0000
0100
1000
0100
0000
0010
0000
,
0001
1000
0100
0110
,
2000
0000
3001
0010
0001
0000
0100
0000
,
0001
0011
0100
0110
,
0001
0000
1000
0001
1000
0000
0010
0000
,
2000
3001
0020
0031
,
1000
0000
0010
0001
0010
0000
0100
0000
,
0010
1010
1000
1001
,
0010
0000
0100
0010
0100
0000
1000
0000
,
0200
0301
0020
1030
,
2002
0003
0002
3003
,
0220
0300
0100
0130
,
2200
3000
0020
0330
,
1002
0100
2000
3003
,
0010
0001
0200
0310
,
0010
1000
0020
0130
,
0002
1003
2000
3001
,
0200
2300
3020
0031
,
1001
0000
0010
0000
0010
0001
0100
0000
,
0001
0000
1000
0001
1000
0000
0100
0000
,
0010
0101
1000
0110
,
0002
0023
0032
1003
,
0110
0000
0100
0000
0010
1000
0010
0000
,
0001
0000
0100
0001
0100
0000
0001
0000
,
0001
0110
0100
1010
,
0002
0203
0320
0130
,
0100
0000
1000
0001
1000
0000
0001
0000
,
0010
0100
0001
0000
1000
0000
0110
0000
,
0010
0001
1000
0000
0001
0100
0010
0000
,
1000
0001
0100
0000
0010
0000
1001
0000
,
0010
0000
1000
0010
0001
0000
0010
0000
,
0100
1000
0001
0010
1000
0000
0001
0100
,
0010
0000
0001
1000
0010
0000
0010
0000
,
0200
0320
2030
3010
,
0100
0000
0100
0001
0010
0000
1000
0000
,
0002
0103
0020
0031
,
1000
0000
0010
0001
1000
0000
0001
0000
,
0200
0000
0000
0000
0301
0000
0000
0000
0002
0000
0000
1000
0000
1000
0003
0000
;

//---------------dance-single - ----------------
#NOTES:
     dance-single:
     :
     Easy:
     3:
     0.157165,0.178266,0.040746,0.244479,0.000000,108.000000,104.000000,4.000000,24.000000,0.000000,0.000000,0.157165,0.178266,0.040746,0.244479,0.000000,108.000000,104.000000,4.000000,24.000000,0.000000,0.000000:
0000
0000
0000
0000
,
0000
0000
0000
0000
,
0000
0000
0000
0000
,
0000
0000
0000
0000
,
0100
1000
0100
0000
,
0002
0003
2000
3000
,
0010
0100
0010
0000
,
0020
0030
2002
3003
,
0100
0010
1000
0000
,
2000
3000
0002
0003
,
1000
0010
0100
0000
,
0020
0030
0002
0003
,
1000
0001
0100
0000
,
0200
0300
2000
3000
,
0100
0010
1000
0000
,
2000
3000
0020
0030
,
0100
0000
0010
0000
,
1000
0001
1000
0000
,
0100
0000
1000
0000
,
0100
0010
0100
0000
,
2000
0000
3001
0000
,
0002
0000
0013
0000
,
0200
0000
0310
0000
,
0020
0000
1030
0000
,
1001
0000
0010
0000
,
0100
0010
0001
0000
,
2000
3000
0002
0003
,
0010
0100
0020
0030
,
0110
0000
1000
0000
,
0100
1000
0100
0000
,
0002
0003
0020
0030
,
0100
0010
1000
0000
,
1000
0001
1000
0000
,
0010
0010
1000
0000
,
0100
1000
0010
0000
,
0100
0100
1000
0000
,
0010
1000
0010
1000
,
0100
0001
0010
0000
,
1000
0000
0001
0000
,
0100
0000
0110
0000
,
1000
0100
2000
3000
,
0001
0001
0010
0000
,
0100
0010
0100
0000
,
0001
1000
0002
1003
;

//---------------dance-single - ----------------
#NOTES:
     dance-single:
     :
     Beginner:
     1:
     0.097500,0.132935,0.050933,0.040746,0.000000,67.000000,62.000000,5.000000,4.000000,0.000000,0.000000,0.097500,0.132935,0.050933,0.040746,0.000000,67.000000,62.000000,5.000000,4.000000,0.000000,0.000000:
// measure 0
0000
0000
0000
0000
,  // measure 1
0000
0000
0000
0000
,  // measure 2
0000
0000
0000
0000
,  // measure 3
0000
0000
0000
0000
,  // measure 4
0001
0000
0000
0000
,  // measure 5
1000
0000
0000
0000
,  // measure 6
0010
0000
0000
0000
,  // measure 7
1000
0000
1001
0000
,  // measure 8
0000
0100
0000
0100
,  // measure 9
0000
0010
0000
0010
,  // measure 10
0000
1000
0000
1000
,  // measure 11
0000
0001
0000
0001
,  // measure 12
0000
0010
0000
0010
,  // measure 13
0000
0001
0000
0001
,  // measure 14
0000
0100
0000
0100
,  // measure 15
0000
0100
0000
0000
,  // measure 16
2000
0000
3000
0000
,  // measure 17
0020
0000
0030
0000
,  // measure 18
0002
0000
0003
0000
,  // measure 19
0020
0000
0030
0000
,  // measure 20
0100
0000
0000
0000
,  // measure 21
1000
0000
0000
0000
,  // measure 22
0100
0000
0000
0000
,  // measure 23
0001
0000
1001
0000
,  // measure 24
0010
0000
0000
0000
,  // measure 25
1000
0000
1000
0000
,  // measure 26
0001
0000
0000
0000
,  // measure 27
0100
0000
0100
0000
,  // measure 28
0001
0000
0000
0000
,  // measure 29
0010
0000
0010
0000
,  // measure 30
0100
0000
0000
0000
,  // measure 31
1000
0000
1001
0000
,  // measure 32
0100
0000
0100
0000
,  // measure 33
0010
0000
0010
0000
,  // measure 34
0001
0000
0001
0000
,  // measure 35
1000
0000
1000
0000
,  // measure 36
0010
0000
0010
0000
,  // measure 37
1000
0000
1000
0000
,  // measure 38
0001
0000
0001
0000
,  // measure 39
0001
0000
1001
0000
,  // measure 40
0010
0000
0000
0000
,  // measure 41
0100
0000
0000
0000
,  // measure 42
0001
0000
0000
0000
,  // measure 43
1000
0000
1001
0000
;
