#VERSION:0.83;
#TITLE:2nd ADVENTURE (AGAIN);
#SUBTITLE:;
#ARTIST:Jimmy Weckl remixed by DJ Simon;
#TITLETRANSLIT:;
#SUBTITLETRANSLIT:;
#ARTISTTRANSLIT:;
#GENRE:;
#ORIGIN:;
#CREDIT:;
#BANNER:2nd ADVENTURE (AGAIN).png;
#BACKGROUND:2nd ADVENTURE (AGAIN)-bg.png;
#PREVIEWVID:;
#JACKET:;
#CDIMAGE:;
#DISCIMAGE:;
#LYRICSPATH:;
#CDTITLE:;
#MUSIC:2nd ADVENTURE (AGAIN).ogg;
#OFFSET:-0.464902;
#SAMPLESTART:65.274681;
#SAMPLELENGTH:21.098900;
#SELECTABLE:YES;
#BPMS:0.000=182.000;
#STOPS:;
#DELAYS:;
#WARPS:;
#TIMESIGNATURES:0.000=4=4;
#TICKCOUNTS:0.000=4;
#COMBOS:0.000=1;
#SPEEDS:0.000=1.000=0.000=0;
#SCROLLS:0.000=1.000;
#FAKES:;
#LABELS:0.000=Song Start;
#BGCHANGES:;
#KEYSOUNDS:;
#ATTACKS:
;

//---------------dance-single - ----------------
#NOTEDATA:;
#CHARTNAME:;
#STEPSTYPE:dance-single;
#DESCRIPTION:;
#CHARTSTYLE:;
#DIFFICULTY:Hard;
#METER:12;
#RADARVALUES:0.512769,0.613474,0.324831,0.259865,0.000000,442.000000,402.000000,40.000000,32.000000,0.000000,0.000000,0.000000,0.000000,0.000000,0.512769,0.613474,0.324831,0.259865,0.000000,442.000000,402.000000,40.000000,32.000000,0.000000,0.000000,0.000000,0.000000,0.000000;
#CREDIT:;
#NOTES:
0000
0000
0000
0000
,
0000
0000
0000
0000
,
0000
0000
0000
0000
,
0000
0000
0000
0000
,
0010
0100
0000
1000
0000
0001
0000
2000
,
0000
0000
0000
0000
3000
0001
0100
0020
,
0000
0000
1000
0000
0000
0030
0000
0200
,
0000
0010
0010
0301
,
1000
0001
1000
0010
0000
0100
0000
0001
,
0000
1000
0000
1000
0010
0000
0110
0000
,
0100
0001
0100
0000
0100
1000
0100
0000
,
0010
1000
0100
0001
0010
0100
0010
0000
,
0001
1000
0001
0010
0000
0100
0000
0010
,
0000
0001
0000
0001
0010
0000
1100
0000
,
0010
1000
0100
0000
0010
0001
0100
0000
,
0100
1000
0100
0010
0001
0010
0100
0000
,
0001
0000
0010
0000
0010
0100
0001
0000
,
0100
0010
1000
0010
0100
0001
0000
2000
,
0000
0000
0100
0000
3000
0011
0000
0020
,
0000
0000
0001
0030
0000
1010
0000
0000
,
0000
0000
0100
1000
0001
0010
0000
0100
,
0000
0001
0000
0010
0000
0100
0000
0002
,
0000
0000
1000
0003
0000
0101
0000
0020
,
0000
0000
0001
0030
0000
1100
0000
0000
,
1000
0100
1000
0020
0000
0000
1000
0000
,
0100
0000
0100
0000
0031
0100
1100
0000
,
0010
1000
0010
0001
0000
1010
0000
0100
,
0000
0010
0001
0010
0000
1001
0000
0000
,
0000
0000
1000
0001
0010
0100
0000
1000
,
0000
0100
0000
0001
0000
0010
0000
0200
,
0000
0000
1000
0300
0000
0110
0000
0000
,
0001
1000
0000
0010
0000
1000
0000
0000
,
0002
0010
0100
0010
,
1000
1000
0100
0010
,
0103
1000
0100
0100
,
0010
1000
0000
0001
0000
0100
0000
2000
,
0000
0010
0100
0010
,
3001
0001
2020
3030
,
0102
1000
0100
1003
,
0010
1000
0010
0100
0001
0010
1000
0000
,
0100
0000
0000
0100
0101
0000
0000
0010
,
1000
0010
0000
0010
1010
0000
0000
0100
,
1000
0000
0000
1000
1001
0000
0000
0001
,
1000
0001
0000
0001
0011
0000
0000
0000
,
0100
0010
0100
0010
1000
0100
0000
0010
,
0000
1000
0000
0100
0000
1000
0100
0001
,
0200
0301
0002
0013
,
0020
1030
0200
1300
,
0001
1000
0001
1000
1000
0000
0110
0000
,
0010
1000
0010
0000
0100
0010
1000
0001
,
0000
0010
0100
1000
0000
1000
0100
0000
,
0010
0001
0100
0000
0001
1000
0010
1000
,
0000
0100
0010
0000
1100
0000
0120
0000
,
0000
1030
0110
0201
,
0000
1300
0101
2010
,
0000
0010
0010
0000
3000
0001
0100
1000
,
0001
0010
1000
0100
1000
0000
1001
0000
,
0010
0001
1000
0000
1000
0100
0010
0100
,
0000
0100
0001
0010
0100
0001
1000
0000
,
1000
0010
0100
1000
0000
0010
0000
0100
,
0000
1000
0001
0000
1001
0000
0021
0000
,
0000
0130
1100
2001
,
0000
3100
0110
1200
,
0000
1300
0101
1020
,
0000
0100
0000
0130
,
0001
0000
0100
0000
1000
0100
0001
0000
,
1000
0010
1000
0010
0000
1000
0001
0000
,
1000
0100
0001
0100
0000
0010
0000
1000
,
0000
0001
0100
0010
1000
0000
0010
0000
,
0100
0010
1000
0000
1000
0100
0010
0000
,
0001
0010
0100
0000
0100
1000
0001
0000
,
0010
1000
0001
1000
0100
0010
1000
0000
,
0010
0100
0001
0010
0000
0100
0100
0000
,
1000
0001
1000
0000
0010
0100
0000
1000
,
0000
1000
0100
1000
0000
0010
0100
0000
,
0001
1000
0100
0000
0010
0001
0010
0100
,
0000
0100
0001
0010
1000
0000
0100
0000
,
0010
1000
0100
0000
1000
0001
1000
0000
,
0100
0010
1000
0000
1000
0100
0001
0000
,
0100
0100
1100
0000
1000
1000
1001
0000
,
1000
0010
1010
0000
0010
0100
0110
0000
,
0100
0010
0000
1000
0000
0100
0000
2000
,
0000
0000
0001
0000
3001
0100
0010
0200
,
0000
0000
0001
0300
0000
0110
0000
2000
,
0000
0000
0001
3000
0000
0101
0000
0000
,
1000
0100
0000
0010
0000
0001
0000
0020
,
0000
0000
1000
0000
0130
1000
0100
2000
,
0000
0000
0100
3000
0000
0101
0000
0000
,
0001
1000
1000
0100
0000
2002
0000
3003
;

//---------------dance-single - ----------------
#NOTEDATA:;
#CHARTNAME:;
#STEPSTYPE:dance-single;
#DESCRIPTION:;
#CHARTSTYLE:;
#DIFFICULTY:Medium;
#METER:9;
#RADARVALUES:0.468685,0.539778,0.211140,0.316710,0.000000,404.000000,378.000000,26.000000,39.000000,0.000000,0.000000,0.000000,0.000000,0.000000,0.468685,0.539778,0.211140,0.316710,0.000000,404.000000,378.000000,26.000000,39.000000,0.000000,0.000000,0.000000,0.000000,0.000000;
#CREDIT:;
#NOTES:
0000
0000
0000
0000
,
0000
0000
0000
0000
,
0000
0000
0000
0000
,
0000
0000
0000
0000
,
0100
0000
0001
1000
0000
0010
0000
1000
,
0000
0100
0000
0010
0001
0000
0010
0000
,
0200
1000
0000
1300
,
0010
0100
0010
1000
0001
0000
1001
0000
,
1000
0000
0010
0000
0100
0000
0010
0001
,
0000
1000
0001
0000
0010
0000
1000
0100
,
2000
0000
0100
0000
3100
0000
0100
0001
,
0020
1000
0001
1030
,
0100
0000
0001
0000
0010
0000
1000
0010
,
0000
0100
0010
0000
1000
0000
0001
0010
,
0002
0100
0000
0103
,
0100
0010
1000
0000
0010
0000
0110
0000
,
0010
0000
1000
0000
0100
0000
1000
0001
,
0000
0010
0000
1000
0000
0001
0010
0000
,
0100
0000
0001
0000
0200
0010
0000
0000
,
0301
0000
1000
0000
0002
1000
0000
0000
,
1003
0000
0010
0000
0100
0000
0010
0001
,
0000
0100
0000
0010
0000
1000
0001
0000
,
0100
0000
1000
0000
0200
1000
0000
0000
,
0310
0000
0100
0000
0020
0001
0000
0000
,
1030
0100
0102
0000
,
1000
1000
1000
0013
,
0100
0000
0010
0000
0100
0000
0010
0001
,
0000
0010
1000
0000
0001
1000
0001
0000
,
0100
1000
0100
0000
0010
0000
1000
0001
,
0000
0100
0000
0010
0000
0010
1000
0000
,
0100
0001
0010
0001
,
0100
0010
0100
1000
0000
0001
0001
0000
,
0220
0330
2200
3300
,
0001
0010
2002
3003
,
1000
0010
0001
0010
,
1000
0000
0100
0010
0000
0001
0010
0000
,
2000
3100
0002
0103
,
0010
0001
0200
0310
,
0020
1030
1000
0010
,
0100
0010
0100
0000
2020
0000
3030
0000
,
0102
0000
1000
0000
,
0010
0000
0020
0033
,
0210
0000
0001
0000
,
1000
0000
2000
3300
,
0020
1000
0200
0330
,
2000
0001
0200
3300
,
0001
0011
0010
0110
,
0001
1000
0100
0101
,
0200
1000
1300
1001
,
2000
0000
0010
0000
3001
0000
0100
0001
,
0000
0010
0000
0100
1000
0000
1000
0000
,
0010
0000
1000
0001
0000
0010
0000
0001
,
0000
1000
0010
0000
1100
0000
0100
1000
,
0100
0000
0001
0000
0011
0000
0001
0100
,
0001
0000
0100
0000
1100
0000
0010
0100
,
0010
0000
1000
0010
1000
0000
0100
0001
,
0010
0001
1000
0000
0100
0000
1001
0000
,
0200
0000
0010
0000
1300
0000
0001
0100
,
0000
0010
0000
0001
0010
0000
0010
0000
,
1000
0000
0100
0010
0000
0001
0000
0100
,
0000
0010
0100
0000
0110
0000
0001
0010
,
0001
0000
0100
0000
0101
0000
0010
1000
,
0010
0000
1000
0000
1100
0000
0001
1000
,
0001
0000
0010
0100
0010
0000
1000
0100
,
0001
0100
1000
0010
0100
0000
0110
0000
,
0001
0100
0001
1000
,
0001
0010
0000
0001
0000
0100
1000
0000
,
0001
0100
0000
1000
0000
0001
0010
1000
,
0000
0010
0100
0010
1000
0000
0010
0000
,
2000
0000
0001
0000
3001
0000
0010
0100
,
0020
0000
0100
0000
0130
0000
0001
1000
,
0002
0000
1003
0010
1000
0000
0100
0010
,
0001
0100
0010
0000
1000
0001
1000
0000
,
0001
0000
0010
0000
1000
0000
0100
0001
,
0100
0000
0001
0010
0000
0010
1000
0000
,
0010
0000
1000
0100
0000
0010
0000
0100
,
0000
1000
0001
0000
0010
0000
0001
0010
,
0200
0000
0001
0000
0301
0000
1000
0100
,
2000
0000
0010
0000
3010
0000
0001
0100
,
0001
0101
0100
1100
,
1000
0010
0100
0110
,
1000
0000
0000
0210
0000
0000
0001
0000
,
0310
0100
0010
0010
,
0100
0000
1000
0100
1000
0000
0010
1000
,
0010
0100
0001
0000
0100
0001
0100
0000
,
1000
0000
0001
0010
0000
1000
0000
0010
,
0000
0100
0000
0001
0001
0000
0010
0000
,
1000
0010
0100
0100
,
2000
0000
0000
3001
0000
0101
0000
0000
;

//---------------dance-single - ----------------
#NOTEDATA:;
#CHARTNAME:;
#STEPSTYPE:dance-single;
#DESCRIPTION:;
#CHARTSTYLE:;
#DIFFICULTY:Easy;
#METER:5;
#RADARVALUES:0.288867,0.324323,0.105570,0.259865,0.000000,249.000000,236.000000,13.000000,32.000000,0.000000,0.000000,0.000000,0.000000,0.000000,0.288867,0.324323,0.105570,0.259865,0.000000,249.000000,236.000000,13.000000,32.000000,0.000000,0.000000,0.000000,0.000000,0.000000;
#CREDIT:;
#NOTES:
0000
0000
0000
0000
,
0000
0000
0000
0000
,
0000
0000
0000
0000
,
0000
0000
0000
0000
,
0001
1000
0100
0100
,
0002
0000
0000
0003
,
0010
0000
0100
0000
,
1000
0001
0010
0000
,
1001
0000
0100
0000
,
0010
0010
1000
0000
,
0100
0001
0010
0001
,
1000
1000
0001
0000
,
0110
0000
0100
0000
,
1000
0001
1000
0000
,
0010
1000
0100
1000
,
0010
0001
0001
0000
,
2000
3000
0001
0000
,
0010
0100
0020
0030
,
0100
0001
0100
1000
,
0010
0010
1000
0000
,
0002
0003
0010
0000
,
0100
0010
0200
0300
,
1000
0010
0100
0010
,
0100
0001
0010
0000
,
2002
0000
0000
0003
,
0010
0000
3010
0000
,
0100
0001
0100
0000
,
1000
0010
0100
0000
,
0002
0003
1000
0000
,
0010
0100
0002
0003
,
1000
0100
0001
0001
,
0010
0001
0100
0000
,
2000
3000
0200
0300
,
0020
0030
2002
3003
,
0200
0300
0002
0003
,
0010
0001
0100
0001
,
0020
0030
0002
0003
,
2000
3000
0220
0330
,
0200
0300
0100
0010
,
0001
1000
0001
0000
,
0010
0000
0001
0000
,
0100
0000
1001
0000
,
1000
0000
0100
0000
,
0010
0000
0110
0000
,
0100
0001
0100
0000
,
0010
0100
0010
0000
,
0100
1000
0001
1000
,
0010
0100
0001
0000
,
2002
0000
0000
3003
,
0010
0000
0100
0000
,
0001
0010
0001
0000
,
0100
1000
0100
0010
,
0100
0000
0001
1000
,
0002
0000
0013
0100
,
0020
0000
1030
0100
,
2000
0000
3001
0010
,
0100
0001
0100
0000
,
1001
0000
0100
0000
,
1000
0010
1000
0000
,
0001
1000
0010
0001
,
0100
0000
0100
0010
,
2000
0000
3001
0010
,
0200
0000
0301
1000
,
0002
0000
0013
1000
,
0100
0100
1000
0000
,
0010
0100
0010
0000
,
1000
0100
1000
0000
,
0001
1000
0010
1000
,
0001
0000
0110
0000
,
0100
0100
0001
0000
,
0010
0010
0001
0000
,
0100
0010
1000
0100
,
0010
1000
0001
0000
,
0001
0100
0010
0000
,
1000
0010
0100
0000
,
0001
1000
0010
0100
,
0001
0000
0100
0010
,
1000
0000
0001
0100
,
0010
0000
0100
1000
,
0010
0000
1000
0000
,
0100
0000
1001
0000
,
0220
0000
0000
0000
,
0000
0000
0000
0330
,
1000
0100
0001
0000
,
0001
0010
0001
0000
,
0001
0100
0001
0010
,
1000
0000
0100
0000
,
0001
0001
0010
0000
,
1001
0000
0100
0100
;

//---------------dance-single - ----------------
#NOTEDATA:;
#CHARTNAME:;
#STEPSTYPE:dance-single;
#DESCRIPTION:;
#CHARTSTYLE:;
#DIFFICULTY:Beginner;
#METER:3;
#RADARVALUES:0.145014,0.251541,0.040604,0.064966,0.000000,125.000000,120.000000,5.000000,8.000000,0.000000,0.000000,0.000000,0.000000,0.000000,0.145014,0.251541,0.040604,0.064966,0.000000,125.000000,120.000000,5.000000,8.000000,0.000000,0.000000,0.000000,0.000000,0.000000;
#CREDIT:;
#NOTES:
// measure 0
0000
0000
0000
0000
,  // measure 1
0000
0000
0000
0000
,  // measure 2
0000
0000
0000
0000
,  // measure 3
0000
0000
0000
0000
,  // measure 4
0000
0000
0000
0000
,  // measure 5
0000
0000
0000
0000
,  // measure 6
0000
0000
0000
0000
,  // measure 7
0000
0000
0000
0000
,  // measure 8
1000
0000
1000
0000
,  // measure 9
0010
0010
0010
0000
,  // measure 10
0100
0000
0100
0000
,  // measure 11
0001
0001
0001
0000
,  // measure 12
0010
0000
0010
0000
,  // measure 13
1000
1000
1000
0000
,  // measure 14
0100
0000
0100
0000
,  // measure 15
0001
0000
1001
0000
,  // measure 16
0000
0010
0000
0010
,  // measure 17
0000
0100
0000
0100
,  // measure 18
0000
0001
0000
0001
,  // measure 19
0000
1000
0000
1000
,  // measure 20
0000
0100
0000
0100
,  // measure 21
0000
0001
0000
0001
,  // measure 22
0000
1000
0000
1000
,  // measure 23
0000
0010
0000
0010
,  // measure 24
0000
0000
0000
0000
,  // measure 25
0000
0000
0000
0000
,  // measure 26
1000
0000
1000
0000
,  // measure 27
0001
0000
0001
0000
,  // measure 28
0000
0010
0000
0010
,  // measure 29
0000
0100
0000
0100
,  // measure 30
0000
0000
0000
0000
,  // measure 31
0001
0000
1001
0000
,  // measure 32
2000
0000
0000
0000
,  // measure 33
3000
0000
0000
0000
,  // measure 34
0020
0000
0000
0000
,  // measure 35
0030
0000
0000
0000
,  // measure 36
0002
0000
0000
0000
,  // measure 37
0003
0000
0000
0000
,  // measure 38
2000
0000
0000
0000
,  // measure 39
3000
0000
0000
0000
,  // measure 40
0100
0000
0000
0000
,  // measure 41
0100
0000
0000
0000
,  // measure 42
0010
0000
0000
0000
,  // measure 43
0010
0000
0000
0000
,  // measure 44
1000
0000
0000
0000
,  // measure 45
1000
0000
0000
0000
,  // measure 46
1000
0000
0000
0000
,  // measure 47
1001
0000
0000
0000
,  // measure 48
0000
0000
0000
0000
,  // measure 49
0100
0000
0100
0000
,  // measure 50
0200
0000
0300
0000
,  // measure 51
0010
0000
0010
0000
,  // measure 52
0020
0000
0030
0000
,  // measure 53
1000
0000
1000
0000
,  // measure 54
2000
0000
3000
0000
,  // measure 55
0001
0000
0001
0000
,  // measure 56
0002
0000
0003
0000
,  // measure 57
0010
0000
0001
0000
,  // measure 58
0010
0000
0001
0001
,  // measure 59
0001
0000
0100
0000
,  // measure 60
0001
0000
0100
0100
,  // measure 61
0100
0000
1000
0000
,  // measure 62
0100
0000
1000
1000
,  // measure 63
1000
0000
0010
0000
,  // measure 64
1000
0000
1001
0000
,  // measure 65
0000
0000
0100
0000
,  // measure 66
0010
0000
0100
0000
,  // measure 67
0000
0000
1000
0000
,  // measure 68
0001
0000
1000
0000
,  // measure 69
0000
0000
0010
0000
,  // measure 70
0001
0000
0010
0000
,  // measure 71
0000
0000
1000
0000
,  // measure 72
0100
0000
1000
0000
,  // measure 73
0000
0000
0010
0000
,  // measure 74
0100
0000
0100
0000
,  // measure 75
0000
0000
0010
0000
,  // measure 76
0001
0000
0001
0000
,  // measure 77
0000
0000
0100
0000
,  // measure 78
0010
0000
0010
0000
,  // measure 79
0000
0000
0001
0000
,  // measure 80
1000
0000
1000
0000
,  // measure 81
0000
0000
0000
0000
,  // measure 82
0000
0000
0000
0000
,  // measure 83
0010
0000
0010
0000
,  // measure 84
1000
0000
1000
0000
,  // measure 85
0000
0000
0001
0000
,  // measure 86
0000
0000
1000
0000
,  // measure 87
0000
0000
0010
0000
,  // measure 88
0000
0000
1001
0000
;
