#VERSION:0.83;
#TITLE:2094;
#SUBTITLE:;
#ARTIST:Yuta Imai vs Blacklolita;
#TITLETRANSLIT:;
#SUBTITLETRANSLIT:;
#ARTISTTRANSLIT:;
#GENRE:;
#ORIGIN:;
#CREDIT:;
#BANNER:2094.png;
#BACKGROUND:2094-bg.png;
#PREVIEWVID:;
#JACKET:2094-jacket.png;
#CDIMAGE:;
#DISCIMAGE:;
#LYRICSPATH:;
#CDTITLE:;
#MUSIC:2094.ogg;
#OFFSET:0.606000;
#SAMPLESTART:95.658997;
#SAMPLELENGTH:15.000000;
#SELECTABLE:YES;
#BPMS:0.000=162.000,
131.000=81.000,
163.000=162.000;
#STOPS:62.500=0.185,
66.500=0.185;
#DELAYS:;
#WARPS:;
#TIMESIGNATURES:0.000=4=4;
#TICKCOUNTS:0.000=4;
#COMBOS:0.000=1;
#SPEEDS:0.000=1.000=0.000=0;
#SCROLLS:0.000=1.000;
#FAKES:;
#LABELS:0.000=Song Start;
#BGCHANGES:;
#KEYSOUNDS:;
#ATTACKS:
;

//---------------dance-single - ----------------
#NOTEDATA:;
#CHARTNAME:;
#STEPSTYPE:dance-single;
#DESCRIPTION:;
#CHARTSTYLE:;
#DIFFICULTY:Hard;
#METER:15;
#RADARVALUES:0.671304,1.497847,0.307344,0.137496,0.602556,581.000000,543.000000,38.000000,17.000000,0.000000,0.000000,0.000000,0.000000,0.000000,0.671304,1.497847,0.307344,0.137496,0.602556,581.000000,543.000000,38.000000,17.000000,0.000000,0.000000,0.000000,0.000000,0.000000;
#CREDIT:;
#NOTES:
// measure 0
0000
0000
0000
0000
0000
0000
0100
0001
,  // measure 1
1000
0001
1000
0010
0200
0000
0000
0000
,  // measure 2
0001
0000
0000
0000
0000
0000
0010
0000
0300
0000
0100
0000
0010
0000
0100
0001
,  // measure 3
0010
0001
0100
0010
2000
0000
0000
0000
,  // measure 4
0100
0000
0000
0000
0000
0000
0001
0000
0000
0000
0001
0000
3000
0000
0100
0010
,  // measure 5
1000
0100
0010
0001
0200
0000
0000
0000
,  // measure 6
0001
0000
0000
0000
0000
0000
0010
0000
0300
0000
1000
0000
0010
0000
1000
0100
,  // measure 7
0010
0100
0010
0001
2000
0000
0000
0000
,  // measure 8
0010
0000
0000
0100
0000
0100
0000
3010
,  // measure 9
0100
0001
0010
0100
1000
0000
0100
0000
,  // measure 10
1000
0000
0100
0001
0100
1000
0010
1000
,  // measure 11
0001
0100
0010
0100
0001
0000
1000
0000
,  // measure 12
0201
0000
0000
0000
0000
0000
0010
0000
0000
0000
0010
0000
0300
0000
0100
0010
,  // measure 13
1000
0010
1000
0100
0001
0100
0010
0000
,  // measure 14
0001
1000
0100
0010
0100
1000
0010
0000
,  // measure 15
1000
0001
1000
0010
0100
0001
0020
0000
,  // measure 16
0000
0000
0000
0000
0000
0030
0001
0000
,  // measure 17
1000
0100
1000
0100
1000
0100
1000
0100
,  // measure 18
1000
0100
0010
0001
0010
0100
1000
0000
,  // measure 19
0001
0100
0010
1000
0001
0100
0010
0100
,  // measure 20
0001
1000
0010
1000
0100
0010
0100
0000
,  // measure 21
1000
0001
1000
0001
1000
0001
1000
0001
,  // measure 22
1000
0000
0001
0000
0010
0000
0100
0000
0001
0000
1000
0000
0010
0000
0000
0001
,  // measure 23
0000
0000
0100
0000
0010
0000
0000
0100
0000
0000
0010
0000
1000
0000
0000
0001
,  // measure 24
0000
1000
0010
0000
0010
0000
0100
0000
,  // measure 25
0001
0100
0001
0100
0001
0100
0001
0100
,  // measure 26
0001
0100
0010
1000
0001
0100
0010
0000
,  // measure 27
1000
0001
0010
0100
1000
0100
0010
0100
,  // measure 28
0001
1000
0100
0010
0001
0010
1000
0000
,  // measure 29
0010
1000
0010
1000
0010
1000
0010
1000
,  // measure 30
0010
1000
0001
0100
0001
0010
0100
0001
,  // measure 31
1000
0000
0010
0000
0200
0000
0000
0000
0300
0000
0000
0000
0010
0000
0000
0010
,  // measure 32
0000
0000
1000
0000
0000
1000
0000
0000
1001
0000
0000
0000
0110
0000
1000
0000
,  // measure 33
0010
0000
0001
0100
0000
0010
0001
0000
0100
0000
0010
0100
0000
0001
0100
0000
0001
0000
1000
0001
1000
0001
0000
0000
0110
0000
0000
0000
0100
0000
0010
0000
,  // measure 34
0100
1000
0000
0100
0010
0000
0010
0000
0000
0000
0001
0000
0100
0010
0000
0010
0100
0000
1000
0000
0100
0000
0001
0000
1000
0000
0000
0100
0000
0000
1000
0000
,  // measure 35
0010
0000
0100
0010
0100
0010
0100
0000
0001
0000
0010
1000
0010
1000
0010
0000
0100
0000
0000
0000
0010
0100
0000
0000
0100
0000
0000
0000
1000
0000
0001
0000
,  // measure 36
1000
0000
0000
0100
0010
0000
0100
0000
0010
0001
1000
0001
0010
0001
0000
0000
0100
0000
0010
0000
1000
0100
1000
0100
0001
0000
0000
0000
1000
0000
0001
1000
,  // measure 37
0000
0001
1000
0000
0010
0000
0100
0000
0010
0000
0100
1000
0100
1000
0100
1000
0001
0000
0010
0100
0010
0000
0010
0000
1000
0001
0100
0001
1000
0001
0100
0001
,  // measure 38
1000
0010
1000
0010
0100
0000
0001
0000
0010
0100
0010
0100
0010
1000
0000
0001
1000
0000
0100
0010
0100
1000
0100
0001
0010
0000
0000
0000
0001
0000
0100
1000
,  // measure 39
0000
0010
1000
0000
0100
0000
0010
0000
0100
0000
0001
1000
0001
1000
0010
0001
0100
0010
1000
0100
0001
0100
0010
0000
0200
0000
0000
0000
0000
0000
0000
0000
,  // measure 40
0000
0000
0000
0000
0010
0000
0000
0001
0000
1000
1300
0000
2002
0000
0000
0000
,  // measure 41
0000
0000
0000
0000
,  // measure 42
0000
0000
0000
3003
,  // measure 43
0000
0000
0000
0000
,  // measure 44
0000
0000
0000
1000
,  // measure 45
0001
0000
0100
0000
0010
0000
0100
0001
,  // measure 46
1000
0000
0001
0000
0100
0000
0010
0000
1000
0000
0001
0000
0100
1000
0100
1000
,  // measure 47
0010
1000
0010
1000
0001
1000
0001
1000
0001
0100
0001
0100
0010
0000
0000
0100
,  // measure 48
0000
0000
0001
0000
0000
1000
0000
0000
0001
0000
0000
0000
0010
0000
0001
0000
,  // measure 49
0100
0010
2000
0000
0000
0000
3001
0000
,  // measure 50
0000
0001
0000
0010
0100
0010
0100
0001
,  // measure 51
1000
0100
0020
0000
0000
0000
1030
0000
,  // measure 52
0000
0000
0100
0000
0000
0000
1000
0000
0000
0000
0001
1000
0001
0000
0100
0000
,  // measure 53
0010
1000
0200
0000
0000
0000
0301
0000
,  // measure 54
0000
1000
0000
0010
0100
0010
1000
0100
,  // measure 55
0001
0010
2000
0000
0000
0000
3001
0000
,  // measure 56
0000
0000
0001
0000
1000
0001
0000
1000
0001
0000
0001
0000
0110
0000
0000
0000
,  // measure 57
0110
0000
0000
0000
0110
0000
0000
0000
0110
0000
0001
0010
0001
0000
0000
0000
,  // measure 58
0100
0000
0010
0000
1000
0010
0000
0000
1000
0000
1000
0000
1001
0000
0000
0000
,  // measure 59
1001
0000
1001
0000
1001
0001
0001
0000
,  // measure 60
0100
0000
0010
0000
0100
0001
0000
0100
0001
0000
0100
0000
1010
0000
0000
0000
,  // measure 61
1010
0000
0000
0000
1010
0000
0000
0000
1010
0000
0000
0100
0010
0000
0000
0000
,  // measure 62
0001
0000
1000
0000
0010
0000
1000
0000
1000
0000
0001
1000
0101
0000
0000
0000
,  // measure 63
0101
0000
0000
0000
0101
0000
0000
0000
0101
0000
0010
0100
0010
0100
0010
0000
,  // measure 64
0001
1000
0001
0000
0200
0000
0000
0000
0310
0000
0000
0000
1000
0000
0000
0100
,  // measure 65
1000
0000
0000
0000
0000
0000
0100
0000
0000
0000
0000
0000
0010
0000
0000
0000
0000
0000
0000
0000
0000
0100
0000
0000
0001
0000
0000
0000
0000
0000
0100
0000
0000
0000
0000
0000
0011
0000
0000
0000
0011
0000
0000
0000
0011
0000
0000
0000
,  // measure 66
1001
0000
0000
0000
1001
0000
0000
0000
1001
0000
0000
0000
2100
0000
0000
0000
0000
0000
0000
0000
0000
0000
0000
0000
3010
0000
0000
0000
0000
0000
0100
0000
0000
0010
0000
0000
0110
0000
0000
0000
0000
0000
0000
0000
0000
0000
0000
0000
,  // measure 67
0110
0000
0000
0000
0110
0000
0000
0000
0110
0000
0000
1000
0001
0000
1000
0001
,  // measure 68
1000
0001
0010
0000
0100
0010
0100
0010
1000
0100
0010
0001
1000
0000
0000
1100
,  // measure 69
0000
0000
0101
0000
0000
0101
0000
0000
0011
0000
0011
0000
1000
0001
0000
1000
,  // measure 70
0100
0000
1000
0001
0000
1000
0010
0000
0100
0000
0000
0000
0010
0100
0010
0100
,  // measure 71
0010
0000
0100
1000
0100
0000
0001
0100
0001
0000
0000
0000
0020
0000
0000
0000
,  // measure 72
0030
0000
1000
0000
0001
0010
0000
1000
0100
0000
0110
0000
0000
0000
0000
0000
;
