#VERSION:0.83;
#TITLE:1/n;
#SUBTITLE:;
#ARTIST:iri;
#TITLETRANSLIT:;
#SUBTITLETRANSLIT:;
#ARTISTTRANSLIT:;
#GENRE:;
#CREDIT:;
#MUSIC:1n.ogg;
#BANNER:1n.png;
#BACKGROUND:1n-bg.png;
#CDTITLE:;
#SAMPLESTART:41.514;
#SAMPLELENGTH:15.000;
#SELECTABLE:YES;
#OFFSET:1.041;
#BPMS:0.000=141.000;
#STOPS:;
#SPEEDS:0.000=1.000=0.000=0;
#SCROLLS:0.000=1.000;
#TICKCOUNTS:0.000=4;
#TIMESIGNATURES:0.000=4=4;
#LABELS:0.000=Song Start;
#COMBOS:0.000=1;
#ORIGIN:;
#PREVIEWVID:;
#JACKET:1n-jacket.png;
#CDIMAGE:;
#DISCIMAGE:;
#BGCHANGES:;
#FGCHANGES:;

//--------------- dance-single - ----------------
#NOTEDATA:;
#STEPSTYPE:dance-single;
#DESCRIPTION:;
#DIFFICULTY:Beginner;
#METER:2;
#RADARVALUES:0,0,0,0,0;
#NOTES:
0000
0000
0000
0000
,
0000
0000
0000
0000
,
0000
0000
0000
0000
,
0000
0000
0000
0000
,
0000
0000
0000
0000
,
1000
0000
1000
0000
,
0001
0000
0001
0000
,
1000
0000
0001
0000
,
1000
0000
1001
0000
,
0020
0000
0030
0000
,
0100
0000
0100
0000
,
0200
0000
0300
0000
,
0001
0000
0001
0000
,
0002
0000
0003
0000
,
1000
0000
1000
0000
,
2000
0000
3000
0000
,
0010
0000
0010
0000
,
0100
0000
0100
0000
,
0001
0000
1000
0000
,
0001
0000
0001
0000
,
0010
0000
0100
0000
,
0010
0000
0010
0000
,
1000
0000
0001
0000
,
1000
0000
1000
0000
,
0001
0000
1001
0000
,
0000
0001
0000
0001
,
0000
1000
0000
1000
,
0000
0010
0000
0010
,
0000
0100
0000
0100
,
0000
1000
0000
1000
,
0000
0001
0000
0001
,
0000
0100
0000
0100
,
0000
0010
0000
0010
,
0010
0000
0010
0000
,
1000
0000
1000
0000
,
0001
0000
0001
0000
,
0100
0000
0100
0000
,
0010
0010
0010
0000
,
0001
0001
0001
0000
,
1000
0000
0001
0000
,
1000
1000
1000
0000
,
0020
0000
0030
0000
,
0200
0000
0300
0000
,
0002
0000
0003
0000
,
2000
0000
3000
0000
,
0010
0000
0010
0000
,
0100
0000
0100
0000
,
0001
0000
0001
0000
,
0002
0000
0003
0000
,
1000
0000
1000
0000
,
2000
0000
3000
0000
,
0010
0000
0010
0000
,
0020
0000
0030
0000
,
0100
0000
0100
0000
,
0100
0000
0110
0000
;

//--------------- dance-single - ----------------
#NOTEDATA:;
#STEPSTYPE:dance-single;
#DESCRIPTION:;
#DIFFICULTY:Easy;
#METER:4;
#RADARVALUES:0,0,0,0,0;
#NOTES:
0000
0000
0000
0000
,
0000
0000
0000
0000
,
0000
0000
0000
0000
,
0000
0000
0000
0000
,
0000
0000
0000
0001
,
1000
0002
0003
0010
,
0100
0010
0100
1000
,
0100
0010
0100
0001
,
0000
1000
0001
1001
,
0001
0010
0020
0000
,
0030
0100
0010
0100
,
1000
0100
0200
0000
,
0300
0001
0010
0100
,
0001
1000
2000
0000
,
3000
0100
0010
0100
,
1000
0001
0002
0000
,
0003
0100
1000
0001
,
0010
0010
0001
0001
,
0100
1000
0100
0001
,
1000
1000
0001
0001
,
0010
0100
0010
0010
,
1000
0100
0001
0100
,
1000
0010
1000
0001
,
0100
0100
0010
0010
,
0000
1000
0001
1001
,
0000
0010
0100
0010
,
0100
0001
0010
0001
,
1000
1000
0001
0001
,
1000
0020
0000
0030
,
0100
0100
0001
0001
,
1000
0010
0100
0010
,
1000
1000
0001
0001
,
0100
0001
0100
0010
,
1000
1000
0010
0010
,
0100
0010
0100
0001
,
0010
0001
1000
0001
,
1000
0200
0000
0300
,
0001
0001
0010
0010
,
0100
0010
1000
0010
,
0200
0300
0001
1000
,
0001
0001
1000
0001
,
0100
0000
0100
0000
,
0010
0100
0010
0000
,
0001
0010
0001
1000
,
0100
1000
0010
0000
,
0100
0100
0010
0010
,
1000
0100
0001
0100
,
0010
0100
0110
0000
,
0000
1000
0100
1100
,
0001
0100
0101
0000
,
0000
0010
0001
0011
,
0001
1000
1001
0000
,
0000
1000
0010
1010
,
0010
0100
0110
0000
,
0000
1000
0001
1001
;

//--------------- dance-single - ----------------
#NOTEDATA:;
#STEPSTYPE:dance-single;
#DESCRIPTION:;
#DIFFICULTY:Medium;
#METER:8;
#RADARVALUES:0,0,0,0,0;
#NOTES:
0000
0000
0000
0000
,
0000
0000
0000
0000
,
0000
0000
0000
0000
,
0000
0000
0000
0000
,
0000
0000
0000
0000
0000
0000
0010
1000
,
0010
0000
0000
0001
0000
0000
0000
0000
0000
0000
0000
0000
0100
0000
0001
0000
,
0100
0000
0000
0010
0000
0000
0100
0000
0000
0000
0000
0000
1000
0000
0001
0000
,
1000
0000
0000
0001
0000
0000
1000
0000
0000
0000
0010
0000
0100
0000
0010
0000
,
0000
0000
0100
0000
0000
0100
0000
0200
0000
0000
0000
0000
0310
0000
0000
0000
,
0001
1000
0001
0000
,
1000
0000
0000
0001
0000
0000
1000
0000
0000
0000
0000
0000
0010
0000
0100
0000
,
0010
0000
0000
0100
0000
0000
0002
0000
0000
0000
0000
0000
0000
0000
0000
0000
,
1003
0100
0010
0100
,
0001
0000
0000
0000
0010
0000
0000
0001
0000
0000
1000
0000
0100
0000
0010
0000
,
0001
0000
0100
0010
0000
1000
0001
2000
,
0000
0000
3000
0010
0020
0000
0000
0000
,
0030
0100
0010
1000
,
0001
0000
0100
1000
0000
0010
1000
0010
,
1000
0000
0000
0010
0000
0000
0100
0000
0000
0000
0001
0000
0100
0000
0010
0000
,
0200
0300
0001
0100
,
0010
0000
0000
0100
0000
0000
0020
0000
0000
0000
0000
0000
0030
0000
0000
0000
,
2000
0000
0000
0000
3000
0001
1000
0001
,
1000
0010
0100
0010
,
0001
0000
0000
0001
0000
0000
0020
0000
0000
0000
0000
0000
0000
0000
0030
0000
,
0000
0000
1001
0000
1001
0000
0000
0000
0100
0000
0000
0010
0000
0000
0100
0000
,
0000
0000
1000
0000
0010
0000
0000
0000
0100
0000
0000
0001
0000
0000
0010
0000
,
0000
0000
0001
0000
0010
0000
0000
0000
0100
0000
0000
0001
0000
0000
0100
0000
,
0010
1000
0010
0100
,
0010
0000
0000
0002
0000
0000
0000
0000
0100
0000
0000
0000
0013
0000
0000
0000
,
0100
0000
0000
0000
0100
0000
0000
0000
0010
0000
0000
1000
0000
0000
0010
0000
,
0000
0000
0100
0000
0010
0000
0000
0000
0100
0000
0000
0001
0000
0000
0100
0000
,
0010
1000
0001
1000
,
0010
0000
0000
0200
0000
0000
0000
0000
0301
0000
0000
0010
0000
0000
0001
0000
,
0010
0000
0000
0000
0100
0000
0000
0000
0001
0000
0000
1000
0000
0000
0001
0000
,
0000
0000
0100
0000
0010
0000
0000
0000
0100
0000
0000
0010
0000
0000
0100
0000
,
0010
1000
0100
0010
,
0100
0000
0000
0020
0000
0000
0000
0000
0100
0000
0000
0000
0031
0000
0000
0000
,
0100
0000
0000
0000
0010
0000
0000
0000
1000
0000
0000
0010
0000
0000
1000
0000
,
0000
0000
0001
0000
0100
0000
0000
0000
0010
0000
0000
0100
0000
0000
0010
0000
,
0200
0000
0000
0000
0300
0000
0000
0000
0001
0000
0000
1000
0000
0000
0002
0000
,
0000
0010
0010
0013
,
1000
1000
0001
0001
,
1000
0000
0000
0100
0000
0000
0000
0000
0010
0000
0000
0100
0000
0000
0000
0000
,
0001
0010
0001
0100
,
0001
0000
0000
1000
0000
0000
1000
0000
0001
0000
0000
0010
0000
0000
0000
0000
,
0100
0001
0100
0010
,
1000
0001
0100
0010
,
1000
0000
0000
0001
0000
1000
0000
0001
0000
0000
0000
0000
0000
0000
0000
0000
,
0000
0000
0010
0000
0000
0001
0000
0010
0000
0000
0010
0000
0000
0000
0000
0000
,
0100
0000
0000
0010
0000
0100
0000
0100
0000
0000
0000
0000
0000
0000
0000
0000
,
0000
0000
1000
0000
0000
0100
0000
1000
0000
0000
1000
0000
0000
0000
0000
0000
,
0100
0000
0000
0001
0000
0100
0000
0100
0000
0000
0000
0000
0000
0000
0000
0000
,
0000
0000
0001
0000
0000
0010
0000
0001
0000
0000
0001
0000
0000
0000
0000
0000
,
1000
0000
0000
0001
0000
1000
0000
1000
0000
0000
0000
0000
0000
0000
0000
0000
,
0000
0000
0010
0000
0000
0100
0000
0010
0000
0000
0100
0000
0100
0000
0110
0000
;

//--------------- dance-single - ----------------
#NOTEDATA:;
#STEPSTYPE:dance-single;
#DESCRIPTION:;
#DIFFICULTY:Hard;
#METER:11;
#RADARVALUES:0.468312,0.509703,0.010309,0,0.453585,318,317,1,0,0,0,0,0,0,0.468312,0.509703,0.010309,0,0.453585,318,317,1,0,0,0,0,0,0;
#CHARTNAME:;
#CHARTSTYLE:;
#CREDIT:;
#NOTES:
0000
0000
0000
0000
,
0000
0000
0000
0000
,
0000
0000
0000
0000
,
0000
0000
0000
0000
,
0000
0000
0000
0000
0000
0000
0000
0000
0000
0000
0000
0000
0100
0010
0100
0001
,
1000
0000
0010
0200
0000
0000
0000
0000
0300
0000
0000
0000
0001
0100
0001
0010
,
0001
0000
1000
0001
0000
0000
2000
0000
0000
0000
3000
0000
0010
0100
0010
1000
,
0001
0000
0010
0100
0000
0000
2000
0000
0000
0000
3001
0000
0100
0000
0010
0000
,
0000
0000
0110
0000
0000
0110
0000
0110
0000
0000
0010
0000
1000
0001
1000
0001
,
2000
0000
0000
0100
0000
0100
0000
0100
0000
0000
0000
0000
3001
0000
0000
0000
,
0000
0000
0010
0000
0000
0010
0000
0010
0000
0000
0010
0000
0001
0000
0000
0000
,
0200
0000
0000
0001
0000
0001
0000
0001
0000
0000
0000
0000
0310
0000
0000
0000
,
0000
0000
0100
0000
0000
0100
0000
0100
0000
0000
0100
0000
0010
0000
0010
0000
,
0002
0000
0000
1000
0000
1000
0000
1000
0000
0000
0103
0000
1000
0000
0100
0000
,
0000
0000
0001
0000
0000
0001
0000
0001
0000
0000
0001
0000
0100
0000
0100
0000
,
0020
0000
0000
1000
0000
1000
0000
1000
0000
0000
0130
0000
0001
0000
0100
0000
,
0010
0000
0001
0000
0000
0001
0000
0001
0000
0000
0001
0000
1000
0000
1000
0000
,
0100
0000
0000
0000
0010
0000
0000
0000
0001
0000
1000
0000
0001
1000
0000
0000
,
0010
0000
0000
0001
0000
0000
0010
0000
0000
0000
0001
0000
0100
0000
0010
0000
,
0100
0000
0000
0000
0100
0000
0000
0000
0010
0000
1000
0000
0001
1000
0000
0000
,
0010
0000
0000
0010
0000
0000
0100
0000
0000
0000
0001
0000
0010
0001
0000
0000
,
1000
0000
0000
0000
1000
0000
0000
0000
0010
0000
0100
0000
0001
0100
0000
0000
,
0010
0000
0000
0000
0100
0000
0000
0000
1000
0000
0001
0000
0010
0001
0000
0000
,
0100
0000
0000
0010
0000
0000
0100
0000
0000
0000
0001
0000
0010
0000
0001
0000
,
0000
0000
1001
0000
1001
0000
0001
0000
2000
0000
0000
3020
0000
0000
0032
0000
,
0003
0000
0100
0000
0010
0000
0000
0000
0100
0000
0000
0010
0000
0000
1000
0000
,
0000
0000
0001
0000
0100
0000
0010
0000
0100
0000
0001
0010
0000
0000
1000
0000
,
0001
0000
0100
0000
0010
0001
0100
0001
,
0100
0000
1000
0020
0000
0000
0000
0000
0100
0000
0000
0000
0130
0000
0001
0000
,
1000
0000
0100
0000
0010
0000
0000
0000
0100
0000
0000
0001
0000
0000
1000
0000
,
0000
0000
0010
0000
1000
0000
0001
0000
0100
0000
0010
0100
0000
0000
0001
0000
,
1000
0010
0100
0001
,
1000
0000
0000
1000
0000
0000
0010
0100
0010
0000
0000
0100
0000
0000
0001
1000
,
0010
0000
1000
0000
0001
0000
0000
0000
1000
0000
0000
0010
0000
0000
1000
0000
,
0000
0000
0100
0000
0001
0000
0100
0000
0010
0000
0100
0001
0000
0000
1000
0000
,
0010
0000
0100
0000
0001
0100
0010
0100
,
0001
0000
1000
0020
0000
0000
0000
0000
0100
0000
0100
0000
0130
0000
1000
0000
,
0010
0000
0001
0000
1000
0000
0000
0000
0001
0000
0000
1000
0000
0000
0010
0000
,
0000
0000
0100
0000
0001
0000
0100
0000
1000
0000
0010
0100
0000
0000
0010
0001
,
2000
0000
0000
0000
3000
0000
0000
0000
0010
0000
0000
0001
0000
0000
0010
0000
,
0000
0100
0001
0100
0010
1000
0001
0100
,
0010
0000
0000
0010
0000
0000
0001
0000
0010
0000
0000
0100
0000
0000
0010
0000
,
0100
0000
0000
1000
0000
0000
0000
0010
0100
0000
0010
2000
0000
0000
0000
0000
,
0000
3000
0000
0000
0001
0000
0000
0000
1000
0000
0000
0010
0000
0000
0100
0000
,
0010
0000
0000
0001
0000
0000
0010
0000
0100
0000
0000
2000
0000
0000
3000
0000
,
0000
0100
0010
1000
0100
0010
1000
0001
,
0010
0001
0010
0100
0001
0100
0010
1000
,
0100
0000
0000
0100
0000
0100
0000
0100
0000
0000
0000
0000
1001
0000
0000
0000
,
0000
0000
0010
0000
0000
0010
0000
0010
0000
0000
0010
0000
0110
0000
0000
0000
,
0001
0000
0000
0001
0000
0001
0000
0001
0000
0000
0010
0000
0011
0000
0000
0000
,
0000
0000
1000
0000
0000
1000
0000
1000
0000
0000
1000
0000
1100
0000
1000
0000
,
0010
0000
0000
0010
0000
0010
0000
0010
0000
0000
0100
0000
0101
0000
0010
0000
,
0000
0000
1000
0000
0000
1000
0000
1000
0000
0000
0000
0000
1100
0000
0000
0000
,
0010
0000
0000
0010
0000
0010
0000
0010
0000
0100
0000
0100
0010
0000
1000
0000
,
0000
0000
0100
0000
0000
0100
0000
0100
0000
0000
0010
0000
0010
0000
0010
1000
;
