#TITLE:.59;
#SUBTITLE:-BOOTH BOOST REMIX-;
#ARTIST:IDEA+RHYTHM;
#TITLETRANSLIT:;
#SUBTITLETRANSLIT:;
#ARTISTTRANSLIT:;
#GENRE:;
#CREDIT:;
#BANNER:.59 -BOOTH BOOST REMIX-.png;
#BACKGROUND:.59 -BOOTH BOOST REMIX--bg.png;
#LYRICSPATH:;
#CDTITLE:;
#MUSIC:.59 -BOOTH BOOST REMIX-.ogg;
#OFFSET:0.164000;
#SAMPLESTART:8.457000;
#SAMPLELENGTH:13.241378;
#SELECTABLE:YES;
#BPMS:0.000000=72.500000
,10.000000=290.000000
,138.000000=145.000000
,210.000000=290.000000
,354.000000=145.000000
;
#STOPS:9.750000=0.414000
;
#BGCHANGES:;
#KEYSOUNDS:;
#ATTACKS:;

//---------------dance-single - ----------------
#NOTES:
     dance-single:
     :
     Hard:
     15:
     0.753826,1.198115,0.503963,0.681832,0.202573,534.000000,483.000000,51.000000,69.000000,0.000000,0.000000,0.753826,1.198115,0.503963,0.681832,0.202573,534.000000,483.000000,51.000000,69.000000,0.000000,0.000000:
0000
0000
0000
0000
0000
0000
0000
0000
2001
0000
0000
0010
0000
0000
3000
0000
,
0021
0000
0000
0100
0000
0000
0030
0000
2002
0000
3003
0000
0220
0000
0330
0000
,
0001
0100
0010
0101
1000
0010
0000
0000
,
0001
0000
0100
0001
0000
0100
1000
0000
,
1000
0010
0100
1100
,
1100
0000
0010
0001
0000
0001
0010
0000
,
0100
0110
2000
3200
,
2300
3002
0023
0230
,
0302
2003
3001
0010
,
0100
0000
1000
0000
0100
0010
0001
0100
,
0010
1000
0001
0000
0010
0100
0000
0000
,
1000
0000
0001
0100
0000
0010
1000
0000
,
0001
0100
1000
0011
,
0011
0000
0100
0010
0000
0010
1000
0000
,
0010
1100
0002
2003
,
3020
0230
0302
2003
,
3020
0230
0301
1010
,
0101
0000
0110
0000
0001
1000
0010
0100
,
0001
0100
0010
0000
1000
0002
0000
0000
,
0003
0100
0000
0200
0000
0000
0000
0000
,
0300
0020
0000
0032
0000
0023
0000
0000
,
0130
0000
1000
0010
0000
0101
0000
0110
,
0000
1001
0000
0000
0001
0000
0010
0000
,
1000
0010
0001
1000
,
0010
0000
0100
0000
0001
1000
0001
0000
,
0010
0100
0010
0000
1000
0001
0100
0010
,
0100
0001
0010
1000
0000
0000
0100
0000
0000
0001
0000
0000
,
0100
0010
0000
2200
0000
0000
3300
0000
,
0001
0100
0000
0010
0100
0000
1001
0000
,
1000
0010
0000
0010
0000
0001
1000
0000
,
0010
0001
0100
0000
2000
0000
3020
0000
,
0230
0302
2003
3020
,
0230
0302
0013
0101
,
1010
0000
0101
0000
0001
0100
0010
1000
,
0001
0100
0010
0000
0020
0000
1000
0000
,
0100
1000
1030
0000
0200
0000
0010
0001
,
0301
0000
0010
0000
1000
0000
0001
0000
0100
0000
0000
0010
0000
0000
1000
0000
,
0001
0000
0000
0100
0000
0010
0000
0000
1000
0000
0100
0000
0010
0000
0100
0000
,
0001
0000
1000
0000
0010
0000
0000
0210
0000
0000
0000
0000
0001
0000
0000
0000
,
0010
0000
1000
0000
0301
0000
1000
0010
2000
0000
0010
0000
0001
0000
0001
0000
,
3010
0000
0001
0000
1000
0000
0000
0000
0001
0000
0000
1001
0000
0000
0010
0000
,
1000
0001
1000
0000
0110
0000
0000
0000
0001
1000
0010
0100
0001
0100
0010
1000
,
0001
0100
0010
0000
0011
0000
0000
0000
1000
0000
0000
0001
0000
0000
1000
0000
,
0010
0000
0000
0000
1010
0000
0000
0000
0001
0000
0000
0100
0000
0000
0001
0000
,
1000
0000
0000
0000
1001
0000
0000
0000
0100
0000
0000
0010
0000
1000
0001
0000
,
0100
0000
0010
0100
0000
0001
1000
0000
0010
0100
0001
0100
0000
0010
0100
0000
,
0001
1000
0010
0100
0001
0000
0000
0000
2100
0000
0000
0000
0100
0000
0000
0000
,
0100
0000
0010
0000
0010
0000
0001
0010
,
3002
0000
0023
0000
2030
0000
0001
3000
,
2200
0000
3000
0000
0001
0000
0001
1000
,
0010
0000
0000
0010
0000
0000
0310
0000
0000
0000
0000
0000
1000
0000
0000
0010
0000
0001
0010
0000
0100
1000
0000
0001
,
0000
0000
1010
0000
0000
1000
0010
0000
1000
0001
0000
0000
1000
0000
0010
0100
0000
0001
0100
0000
1000
0010
0000
1001
,
0000
0000
0011
0000
0000
0220
0000
0000
0000
0330
0000
0000
1000
0000
0000
0010
0000
0000
0000
0000
0000
0000
0000
0000
,
0100
0000
0100
0001
0000
1000
0001
0000
,
0010
0100
0001
1010
,
0101
0000
0100
0010
0000
1000
0001
0000
,
0100
0010
0200
0302
,
2003
3020
0230
0302
,
0203
0000
0320
0000
1030
0001
0100
0000
,
0100
0001
1000
0000
0010
0001
0010
0100
,
0001
1000
0010
0000
0100
0001
0000
0000
,
1000
0000
0010
0100
0000
1000
0100
0000
,
0100
0010
1000
1010
,
0011
0000
1000
0010
0000
0100
0001
0000
,
0001
1000
2000
3002
,
0203
0320
0230
2300
,
3002
0000
0023
0000
1030
0010
0100
0001
,
0100
0010
1000
0001
0100
0010
0001
1000
,
0010
0001
0100
0000
1000
0000
0101
0000
,
0100
0110
0100
1001
,
0100
1010
0001
0011
,
0001
0110
1000
0110
,
1001
0000
1010
0000
0100
0010
0001
0000
,
1000
0100
0010
0001
0100
0000
0001
0100
,
1000
0100
0010
0000
0100
0100
0010
0010
,
0001
0001
1000
1000
0100
1000
0010
0001
,
0010
1000
0010
0000
0100
0000
0001
0000
,
1000
0001
0000
0100
0001
0000
0100
0001
,
0000
0100
0001
0000
1000
0000
0010
0000
,
0100
0010
0000
1000
0010
0000
0100
0010
,
0000
1000
0100
0000
1000
0000
1010
0000
,
0100
0001
0000
0100
0010
0000
1000
0001
,
0000
0100
0010
0000
1000
0000
1001
0000
,
0100
0010
0000
0010
0001
0000
0001
1000
,
0000
1000
0001
0000
1000
0100
0010
0100
,
0001
0100
0010
1000
0001
0100
0010
0100
,
0001
1000
0010
0000
1000
0010
0100
0001
,
0001
0100
0010
1000
0001
0100
0001
0100
,
0001
1000
0010
0001
0220
0000
0000
0000
,
0330
0000
0000
0000
0001
0000
0000
0000
0000
0000
0000
0100
0000
0000
0000
0000
0000
0000
2002
0000
0000
0000
0000
0000
0000
0000
3003
0000
0000
0000
0000
0000
;

//---------------dance-single - ----------------
#NOTES:
     dance-single:
     :
     Medium:
     11:
     0.436203,0.575265,0.197632,0.503963,0.034586,309.000000,289.000000,20.000000,51.000000,0.000000,0.000000,0.436203,0.575265,0.197632,0.503963,0.034586,309.000000,289.000000,20.000000,51.000000,0.000000,0.000000:
0000
0000
0000
0000
0000
0000
0000
0000
0020
0000
0000
2000
0000
0000
3030
0000
,
0200
0000
0000
0020
0000
0000
0330
0000
0002
0000
0000
0000
2000
0000
3003
0000
,
0020
0000
0100
0000
0001
0000
1000
0030
0011
0000
0000
0000
0000
0000
0000
0000
,
1000
0000
0100
0000
,
0010
1000
0001
0000
,
0010
0100
0100
1000
,
0001
0000
0200
0000
,
0302
0000
0023
0000
,
2030
0000
3100
0010
,
0001
1000
1000
0010
,
0001
0000
0110
0000
,
1000
0000
0010
1000
,
0001
0000
1000
0010
,
0010
0100
0010
0001
,
1000
0000
2000
0000
,
3002
0000
0023
0000
,
0230
0000
0301
0000
,
1000
0100
1000
0001
,
0101
0000
0020
0000
,
0100
0030
2000
0001
,
0001
3000
0010
0001
,
0100
0001
0010
1000
,
1000
0000
1001
0000
,
0100
0001
0100
0000
,
1000
0100
1000
0010
,
0010
0000
1000
0010
,
0001
0000
1001
0000
,
0010
0000
1000
0100
,
0100
0000
0100
0010
,
1000
0001
1000
0001
,
0010
0000
0200
0000
,
2300
0000
3200
0000
,
0302
0000
0013
0000
,
1010
0000
0101
0000
,
0110
0000
0002
0000
,
0020
0003
2000
0030
,
0200
3300
0001
0100
,
0010
0100
0010
0000
0100
1000
0001
0010
,
0010
0100
2002
0003
,
0020
3000
0100
0001
,
0002
0033
1000
0010
,
0001
0010
0001
0100
1000
0000
0010
0100
,
0100
1100
0010
1000
,
0020
0030
0001
0100
,
0002
0003
1000
0010
,
0100
0010
0010
0001
,
2000
0000
3000
0000
0001
0000
1000
0100
,
1000
0000
1000
0010
0001
0010
0100
0000
,
1000
1010
0010
0001
,
0101
0000
0100
0000
0010
1000
0100
1000
,
0000
0001
0001
0000
0100
0000
0001
0000
,
0010
0000
0001
0000
0010
0000
0000
0000
0100
0000
1000
0000
0100
0000
0000
0010
,
0000
0010
0000
0010
0000
0000
0000
0000
0101
0000
0000
0000
0000
0000
0000
0000
,
1000
0000
0010
0100
,
1000
0000
0010
0001
,
0010
1000
1000
0100
,
0001
0000
1000
0000
,
1100
0000
0001
0000
,
1001
0000
0020
0000
,
0200
0030
0001
0001
,
0001
0300
1100
0000
,
0001
0000
1000
0001
,
0010
0000
0100
1000
,
0010
0001
0100
0010
,
0010
0000
0100
0000
,
0110
0000
0001
0000
,
0101
0000
2000
0000
,
3001
0100
0001
0010
,
0010
0000
2000
3001
,
0002
0013
0020
0130
,
0200
0310
0020
0031
,
0002
1003
2000
0001
,
0010
0000
0010
3000
0100
0000
0010
0000
,
0001
0000
0001
1000
,
0010
0000
0001
1000
,
0010
1000
0100
0010
,
0110
0000
0002
0000
,
2003
0000
3010
1000
,
0100
1000
0020
0000
,
0032
0000
0013
1000
,
0001
1000
0200
0000
,
0320
0000
1030
0010
,
0100
0001
2000
0000
,
3020
0000
0130
0100
,
0001
0000
1000
0010
,
1000
0001
0010
0100
,
0100
0001
0010
0001
,
0100
0010
0001
1000
,
1000
0001
0020
0000
,
0030
0000
0000
0000
1000
0000
0000
0000
0000
0000
0000
0001
0000
0000
0000
0000
0000
0000
1001
0000
0000
0000
0000
0000
0000
0000
0000
0000
0000
0000
0000
0000
;

//---------------dance-single - ----------------
#NOTES:
     dance-single:
     :
     Easy:
     7:
     0.381148,0.488121,0.197632,0.454554,0.009882,270.000000,250.000000,20.000000,46.000000,0.000000,0.000000,0.381148,0.488121,0.197632,0.454554,0.009882,270.000000,250.000000,20.000000,46.000000,0.000000,0.000000:
0000
0000
1000
0010
,
0001
1000
0020
0032
,
0203
0000
0000
0000
2300
0000
0000
3000
0100
0000
0000
0000
0000
0000
0000
0000
,
0010
0000
1001
0000
,
0001
0010
0100
0000
,
0010
1000
0100
0100
,
0001
0000
0020
0000
,
1000
0030
0200
0000
,
1000
0300
0001
0000
,
1000
0000
0100
0000
,
0101
0000
0100
0000
,
1000
0000
0110
0000
,
1000
0100
0010
0000
,
0001
0100
0010
0010
,
0100
0000
2000
0000
,
0010
3000
0002
0000
,
0010
0003
0100
0000
,
1000
0010
1000
0000
,
0110
0000
0020
0000
,
0031
0100
1000
0000
,
1000
0010
1000
0100
,
0001
0000
0010
0001
,
0001
0000
0010
0000
,
1100
0000
0100
0000
,
0011
0000
0020
0000
,
2030
0000
3002
0100
,
0100
0003
1000
0000
,
0010
0100
0010
0000
,
0100
0001
0100
1000
,
1000
0000
0010
0001
,
0100
0000
1000
0000
,
0110
0000
0010
0000
,
0011
0000
0100
1000
,
0100
0010
0001
0000
,
1001
0000
2000
0000
,
0000
3000
0001
1000
,
1000
0001
0200
0300
,
2000
3000
0010
0001
,
1000
0100
0220
0000
,
0000
0330
0010
1000
,
0100
0010
2000
3100
,
0020
1030
0200
1000
,
0001
0301
1000
0010
,
2000
3000
0100
1000
,
0200
0300
0001
0010
,
0100
0010
1000
0010
,
0020
0030
0002
0000
,
0100
0000
1000
0010
,
2003
3002
0203
0300
,
0020
0000
1000
0001
,
1000
0000
1000
0030
0001
0000
1000
0000
,
1001
0010
1000
1000
,
0100
0110
0010
0000
,
1010
0000
1000
0000
,
0010
0001
0010
0000
,
1000
0001
0001
1000
,
0010
0000
1000
0000
,
1001
0000
0100
0000
,
0011
0000
0010
0000
,
0010
0100
1000
0100
,
0100
0000
1000
0000
,
1100
0000
0001
0000
,
0010
0000
0001
0000
,
0010
1000
0100
1000
,
0001
0000
1000
0000
,
0110
0000
1000
0000
,
0010
0001
0010
0000
,
0100
0001
0010
0100
,
0100
0000
0200
0000
,
0320
0000
0230
0000
,
0301
1000
2000
0000
,
3020
0000
2030
0000
,
3001
0010
0100
1000
,
0100
0000
0010
0100
,
0001
0000
1000
0010
,
0001
0100
0010
0000
,
0110
0000
0200
0000
,
2300
0000
3010
0100
,
0010
0000
0002
0000
,
0023
0000
1030
0100
,
1000
0000
0020
0000
,
1030
0010
0002
0000
,
0103
0010
0100
0001
,
2000
0000
3010
0001
,
0002
0000
1003
0100
,
0010
0000
0100
1000
,
0001
0000
0001
0010
,
0100
1000
0010
0001
,
0100
0000
0220
0330
,
1000
0000
0000
0000
0000
0000
0000
0000
0000
0001
0000
0000
0000
0000
0000
0000
0000
0000
2002
0000
0000
0000
0000
0000
0000
0000
3003
0000
0000
0000
0000
0000
;

//---------------dance-single - ----------------
#NOTES:
     dance-single:
     :
     Beginner:
     5:
     0.220219,0.354009,0.098816,0.088935,0.004941,156.000000,146.000000,10.000000,9.000000,0.000000,0.000000,0.220219,0.354009,0.098816,0.088935,0.004941,156.000000,146.000000,10.000000,9.000000,0.000000,0.000000:
// measure 0
0000
0000
0000
0000
,  // measure 1
0000
0000
1000
0001
,  // measure 2
1000
1000
1000
0000
0010
0000
0000
0000
,  // measure 3
0000
0000
0100
0000
,  // measure 4
0000
0000
0010
0000
,  // measure 5
0010
0000
0010
0000
,  // measure 6
0000
0000
1000
0000
,  // measure 7
1000
0000
0001
0000
,  // measure 8
0001
0000
1000
0000
,  // measure 9
0000
0000
1001
0000
,  // measure 10
0000
0000
1000
0000
,  // measure 11
0000
0000
0100
0000
,  // measure 12
0000
0000
1000
0000
,  // measure 13
1000
0000
1000
0000
,  // measure 14
0000
0000
0100
0000
,  // measure 15
1000
0000
0100
0000
,  // measure 16
0001
0000
0100
0000
,  // measure 17
0000
0000
0110
0000
,  // measure 18
0000
0000
0010
0000
,  // measure 19
0010
0000
0100
0000
,  // measure 20
0000
0000
1000
0000
,  // measure 21
1000
0000
0100
0000
,  // measure 22
0000
0000
0001
0000
,  // measure 23
0010
0000
1000
0000
,  // measure 24
0010
0000
0001
0000
,  // measure 25
0000
0000
1001
0000
,  // measure 26
0000
0000
0010
0000
,  // measure 27
0010
0000
0000
0000
,  // measure 28
0100
0000
0100
0000
,  // measure 29
0000
0000
1000
0000
,  // measure 30
1000
0000
0001
0000
,  // measure 31
0000
0000
1000
0000
,  // measure 32
0000
0000
0010
0000
,  // measure 33
0100
0000
0010
0000
,  // measure 34
0000
0000
0200
0000
,  // measure 35
0300
0000
0001
0000
,  // measure 36
0001
0000
0010
0010
,  // measure 37
0010
0000
1000
0000
,  // measure 38
0100
0000
2000
0000
,  // measure 39
3000
0000
0001
0000
,  // measure 40
0001
0000
0100
0100
,  // measure 41
0100
0000
0010
0000
,  // measure 42
0010
0000
1000
0000
,  // measure 43
1001
0000
0100
0000
,  // measure 44
0110
0000
0010
0010
,  // measure 45
0010
0000
0001
0001
,  // measure 46
0001
0000
2000
0000
,  // measure 47
3000
0000
0100
0000
,  // measure 48
1000
1000
1000
0000
,  // measure 49
0010
0000
0002
0000
,  // measure 50
0003
0000
0100
0000
,  // measure 51
0100
0000
0010
0000
,  // measure 52
0110
0000
2000
0000
,  // measure 53
3000
0000
0001
0000
,  // measure 54
0010
0000
0001
0000
,  // measure 55
0000
0000
0100
0000
,  // measure 56
0100
0000
0010
0000
,  // measure 57
0000
0000
1000
0000
,  // measure 58
0000
0000
0100
0000
,  // measure 59
0000
0000
0110
0000
,  // measure 60
0000
0000
0010
0000
,  // measure 61
0010
0000
0010
0000
,  // measure 62
0000
0000
0001
0000
,  // measure 63
0001
0000
0001
0000
,  // measure 64
0000
0000
1000
0000
,  // measure 65
1000
0000
0100
0000
,  // measure 66
0100
0000
1000
0000
,  // measure 67
0000
0000
1001
0000
,  // measure 68
0000
0000
0100
0000
,  // measure 69
0100
0000
0010
0000
,  // measure 70
0010
0000
1000
0000
,  // measure 71
1000
0000
0001
0000
,  // measure 72
0001
0000
1000
0000
,  // measure 73
0100
0000
0010
0000
,  // measure 74
0100
0000
1000
0000
,  // measure 75
0001
0000
0001
0000
,  // measure 76
0000
0000
1000
0000
,  // measure 77
0001
0000
1000
0000
,  // measure 78
1000
0000
0010
0000
,  // measure 79
0001
0000
0010
0000
,  // measure 80
0010
0000
0100
0000
,  // measure 81
0010
0000
0100
0000
,  // measure 82
0100
0000
0001
0000
,  // measure 83
0100
0000
0001
0000
,  // measure 84
0001
0000
2000
0000
,  // measure 85
3000
0000
0020
0000
,  // measure 86
0030
0000
0200
0000
,  // measure 87
0300
0000
0002
0000
,  // measure 88
0003
0000
1001
0000
,  // measure 89
0000
0000
0000
0000
0000
0000
0000
0000
0000
1001
0000
0000
0000
0000
0000
0000
;
