#TITLE:{albus};
#SUBTITLE:;
#ARTIST:Camellia;
#TITLETRANSLIT:;
#SUBTITLETRANSLIT:;
#ARTISTTRANSLIT:;
#GENRE:;
#CREDIT:;
#BANNER:albus.png;
#BACKGROUND:albus-bg.png;
#LYRICSPATH:;
#CDTITLE:;
#MUSIC:albus.mp3;
#OFFSET:-2.289725;
#SAMPLESTART:99.249886;
#SAMPLELENGTH:9.696968;
#SELECTABLE:YES;
#BPMS:0.000000=99.000000
,16.000000=198.000000
,45.750000=396.000000
,48.000000=198.000000
,76.000000=99.000000
,78.000000=198.000000
,110.000000=99.000000
,130.000000=198.000000
,197.500000=99.000000
,200.750000=396.000000
,203.000000=198.000000
,235.000000=396.000000
,237.000000=198.000000
,299.000000=99.000000
;
#STOPS:45.750000=0.341000,
163.500000=0.152000,
165.500000=1.061000,
167.500000=0.152000,
170.250000=0.833000,
172.250000=0.152000,
175.750000=0.682000,
197.500000=0.455000,
200.750000=0.417000,
243.750000=0.303000
;
#BGCHANGES:;
#KEYSOUNDS:;
#ATTACKS:;

//---------------dance-single - ----------------
#NOTES:
     dance-single:
     :
     Hard:
     17:
     0.805330,1.310169,0.451936,0.277505,0.733405,711.000000,654.000000,57.000000,35.000000,0.000000,0.000000,0.805330,1.310169,0.451936,0.277505,0.733405,711.000000,654.000000,57.000000,35.000000,0.000000,0.000000:
0000
0000
0000
0000
,
0000
0000
0000
0000
,
0000
0000
0000
0000
,
0000
0000
0000
0000
,
0001
0000
0100
0000
0010
0100
1000
0000
,
0100
0000
0010
1000
0010
0001
1000
0000
,
0100
1000
0100
0001
1000
0010
1000
0000
,
0001
0000
1000
0000
0010
0000
1000
0000
0001
0000
0000
0001
0100
0000
1000
0010
,
1000
0000
0100
0000
0001
0000
0100
0000
0001
0000
0010
0000
1000
0000
0100
0010
,
0100
1000
0010
0100
0001
0010
0100
0001
,
0010
1000
0010
0000
0100
1000
0100
0000
0001
0100
0001
0000
0010
0001
0010
0000
,
1000
0100
0001
0100
0010
1000
0001
0100
2002
0000
0000
0000
0000
0000
3003
0000
,
0010
0000
1000
0000
0100
0000
0001
0010
0001
0010
0001
0000
0000
0000
0100
0000
,
0000
0000
0100
0000
0010
0000
1000
0001
1000
0001
1000
0000
1010
0000
0010
0100
,
1000
0100
1000
0000
0010
0000
0100
0001
0100
0000
0010
0000
0000
0000
0001
0000
,
0001
1000
0001
0000
0010
0000
0100
1000
0010
0000
0100
0000
1001
0000
0000
0000
,
0100
0010
0100
0000
0001
0000
1000
0100
1000
0000
0010
0000
0000
0000
0001
0000
,
0000
0000
0010
1000
0010
0000
0100
0000
0001
0000
0010
0000
0001
0100
0001
0000
,
0100
1000
0100
0010
0001
0000
1000
0100
0010
0000
0010
0001
0100
0000
2000
0000
,
0000
0010
0010
0100
0001
0010
3001
0100
1000
0001
0010
0001
1000
0000
0100
0010
,
0001
0010
0100
0000
0000
0000
1000
0000
0000
0000
0001
0000
0001
0000
0010
1000
,
0010
0000
0000
0100
0000
0000
0000
0000
0000
0000
0000
0000
0010
0000
0000
0000
0001
0000
0000
0000
0010
0000
0000
0000
0100
0000
0000
0000
0000
0000
1000
0000
0000
0100
0000
0000
1000
0000
0000
0000
0000
0000
1001
0000
0000
0000
0000
0000
,
0000
0010
0100
0110
0000
1000
0001
1000
,
0010
0001
0010
1000
0010
0000
0000
0000
0100
0010
1000
0010
0001
0000
0001
0100
,
0010
1000
0100
1000
0010
0000
0101
0000
0000
0000
1010
0000
0000
0000
0100
0010
,
0100
0000
0010
0000
0010
0000
1000
0010
0100
0000
1000
0000
0000
0000
1100
0000
,
0000
1010
0000
0201
0000
0001
0001
0010
,
1000
0000
0000
0010
0000
0000
1300
0000
0000
0001
0000
0000
1010
0000
0000
0100
0001
0100
0010
0000
0000
1000
0100
0001
,
1000
0010
0001
0100
0000
0000
0010
1000
0100
0010
0001
0010
0100
0001
1000
0010
0100
1000
0100
1000
0001
0010
0000
0010
,
0100
0000
0000
0000
0000
0000
0000
0000
0001
0000
0000
0000
0000
0000
0000
0000
0010
0000
0000
0000
0000
0000
0000
0000
0100
0000
0000
0000
0000
0000
0000
0000
0010
0000
0000
0000
0000
0000
0000
0000
1000
0000
0000
0000
0000
0000
0000
0000
0001
0000
0000
0000
0000
0000
0000
0000
0100
0000
0000
0000
0000
0000
0000
0000
0010
0000
0000
0000
0000
0000
0000
0000
0100
0000
0000
0000
0000
0000
0000
0000
0000
0000
0000
0000
0000
0000
0000
0000
0000
0000
0000
0000
0000
0000
0000
0000
1000
0000
0000
0000
0000
0000
0000
0000
0000
0000
0000
0000
0000
0000
0000
0000
0000
0000
0000
0000
0000
0000
0000
0000
1100
0000
0000
0000
0000
0000
0000
0000
0000
0000
0000
0000
0000
0000
0000
0000
0000
0000
0100
0000
0000
0000
0000
0000
0001
0000
0000
0000
0000
0000
0000
0000
0000
0000
0000
0000
0010
0000
0000
0000
0000
0000
0000
0000
0000
0000
0000
0000
0101
0000
0000
0000
0000
0000
0000
0000
0000
0000
0000
0000
0000
0000
0000
0000
0000
0000
0000
0000
0000
0000
0000
0000
,
0010
0000
1000
0000
0010
0000
0000
0010
1000
0000
0100
0001
0100
0000
0000
0000
0010
0000
1000
0000
0100
0000
0010
0001
0010
0100
0010
0000
1001
0000
0000
0000
,
0100
1000
0010
0001
2001
0000
3100
0101
0000
0021
0000
0031
0100
1000
0210
0000
,
1300
0001
1000
1002
0000
0010
0103
0001
0200
0000
0000
0000
0010
0000
0001
0000
,
0000
0000
0010
1000
0302
0000
1000
0000
,
0023
0000
0100
0000
2030
0000
0100
0001
,
0000
0000
0001
0000
3010
0000
0100
0010
0100
0000
0000
0000
1010
0000
0000
0000
,
0110
0101
1000
0100
,
0010
0000
0001
0000
0001
0010
0100
0010
,
1000
0000
0100
0000
0001
0000
0000
0000
0010
0000
1000
0000
0100
0000
0010
1000
,
0010
0000
0100
0000
0100
0000
0010
0100
0001
0100
0001
0000
1000
0100
1000
0000
,
0010
1000
0100
0001
0010
0000
0000
0000
1100
0000
0000
0101
0000
0000
1001
0000
,
0011
0000
0000
1010
0000
0000
0110
0000
0011
0000
0000
0101
0000
0000
1100
0000
,
0101
0000
0000
1100
0000
0000
0011
0000
0000
1010
0000
1001
0000
0000
0110
0000
,
0000
0011
0000
1100
0000
0000
0110
0000
0000
0101
0000
0000
0011
0000
0000
1010
,
0010
0000
1000
0000
0010
0100
0010
0000
,
0001
0100
1000
0100
0010
0001
1000
0000
,
0100
0000
0001
0000
0100
0000
1000
0000
0010
0000
1000
0000
0001
0000
0001
0100
,
0010
0010
1000
1000
0100
0001
0101
0000
,
0100
0010
1000
0100
0010
1000
0001
0010
,
1100
0000
0000
1010
0000
0000
2001
0000
3020
0000
0000
0000
2030
0000
0000
0000
,
0002
0000
0000
3003
0220
0000
0000
0000
0000
0000
0330
0000
0001
0000
1000
0000
,
0100
0000
0010
1000
0100
1000
0010
0000
0001
0000
1000
0000
0000
0000
1000
0000
,
0100
0000
0010
0100
0001
0100
0010
0000
1010
0000
0000
0000
1000
0000
0001
0010
,
1000
0000
0001
0000
0100
0010
1000
0000
0001
0000
0010
0000
1000
0000
0010
0001
,
0010
0000
0010
1000
0100
1000
0001
0000
1001
0000
0000
0000
0100
0000
1000
0000
,
0010
0000
0001
1000
0001
0100
0010
0000
1000
0000
0010
1000
0010
0000
0100
0000
,
0001
0000
1000
0100
1000
0000
0010
0000
0001
0010
0100
0000
0010
0100
0000
0100
,
1000
0000
0001
1000
0000
1000
0010
0000
0001
0100
0001
0000
0200
0000
0000
2300
,
0000
0000
3020
0000
0000
0230
0000
0000
0310
0000
0001
0000
0020
0000
0000
0000
,
0000
0000
0000
0000
0130
0000
1000
0001
0100
0000
0100
0010
1000
0010
0100
0000
,
0001
1000
0001
0000
0100
0000
1000
0010
1000
0000
0100
0000
1000
0100
0010
0001
,
0010
0000
0100
0010
0001
0000
0100
0000
0010
0000
0010
0000
1000
0100
0001
0000
,
1000
0000
0001
0010
0100
0000
0010
1000
0100
0000
0100
0001
1000
0010
0100
0000
,
0001
0000
0000
1000
0000
0000
0100
0000
0000
0000
0000
0000
0001
0000
0000
0010
0000
0000
1000
0000
0000
0100
0000
0000
1000
0000
0000
0000
0001
0000
0000
0000
1000
0000
0000
0000
0100
0000
0000
0000
0000
0000
1000
0000
0000
0000
0000
0000
,
0010
0000
1000
0010
1000
0000
0100
0000
0010
0100
0010
1000
0001
0000
1000
0000
,
0001
0000
0100
0010
1000
0000
0001
0000
0010
0000
0100
0000
1100
0000
0000
1010
,
0000
0201
0000
1000
1300
0000
0010
0000
,
1000
0000
1000
0000
0001
0100
0001
0000
0010
0000
0000
0010
1000
0000
0000
1000
,
0010
0000
0000
0010
0001
0000
0000
0001
0100
0000
0000
0100
0010
0000
0001
0000
,
0010
0000
1000
0000
0100
0010
0100
0000
1000
0000
0000
1000
0010
0000
0000
0010
,
0100
0000
0000
0100
0010
0000
0000
0010
0001
0000
0000
0001
1000
0000
0100
0000
,
0010
0000
0100
0000
0010
0000
0001
0000
0100
0000
1000
0000
0100
0000
0000
0001
,
0100
0000
0000
1000
0100
0000
0000
0010
0100
0000
0000
1000
0001
0000
1000
0000
,
0010
0000
0010
0000
1000
0000
0100
0000
0001
0000
0100
0000
1000
0010
0100
0000
,
0001
1000
0010
0000
0100
1000
0100
1000
0010
0000
0000
0000
2000
0000
0000
0020
,
3000
0200
0000
0000
0000
0030
0002
0300
,
0020
0000
0003
0000
1000
0000
0130
0000
1000
0001
0010
0001
2200
0000
3300
0220
,
0000
0330
0202
0000
0000
0000
0000
0000
0000
0000
0000
0303
0010
0000
0010
0000
,
0100
0000
1000
0000
0001
0100
0010
0001
0010
1000
1000
0110
0000
0000
0000
0000
;

//---------------dance-single - ----------------
#NOTES:
     dance-single:
     :
     Medium:
     12:
     0.514233,0.873446,0.190289,0.499508,0.126859,454.000000,430.000000,24.000000,63.000000,0.000000,0.000000,0.514233,0.873446,0.190289,0.499508,0.126859,454.000000,430.000000,24.000000,63.000000,0.000000,0.000000:
0000
0000
0000
0000
,
0000
0000
0000
0000
,
0000
0000
0000
0000
,
0000
0000
0000
0000
,
0010
0001
0100
0001
,
0010
1000
0100
0001
,
1000
1000
0010
0010
,
0001
0000
0100
0000
1000
0000
1000
0100
,
0001
0000
1000
0010
0100
0000
0010
0100
,
0001
0100
0010
0000
1000
0000
0001
0000
,
0010
0001
1000
0100
0001
0010
1000
0010
,
0100
1000
0010
0010
0002
0000
0000
0000
,
0013
0000
0100
0000
0010
1000
0010
0100
,
0000
1000
0000
0001
1000
0010
0001
0000
,
0100
0010
0001
0000
0001
0100
0010
0000
,
0100
1000
0100
0010
0001
0000
1001
0000
,
1000
0010
0100
0010
1000
0001
0000
0100
,
0000
0010
0000
0100
0010
0100
0001
0000
,
0001
0100
0010
0100
0000
1000
0100
1000
,
0000
0010
0001
0000
1100
0000
0101
0000
0010
0000
1000
0000
0100
0000
0010
0000
,
0100
0001
0010
0001
0000
0100
0000
1000
,
0010
0001
0200
0000
1300
0001
0100
1000
,
0100
0001
0000
1010
0000
0110
0000
0100
,
0010
0100
1000
0000
0100
0000
1000
0000
,
0001
1000
0001
0100
0000
0110
0000
1000
,
0010
1000
0100
0000
0010
0001
0000
2000
,
0000
3200
0000
2300
0000
0000
0001
0000
,
0001
0000
0000
0000
0000
0000
3010
0000
0000
0001
0000
0000
0010
0000
0000
1000
0000
1000
0010
0000
0000
0100
0000
0100
,
0001
0000
0001
0010
0000
0000
1000
0000
0010
1000
0000
0010
0100
0000
1000
0100
0000
0000
1001
0000
0000
0010
0000
0001
,
0100
0000
0000
0000
0001
0000
1000
0000
0000
0000
0000
0000
0101
0000
0000
0000
0000
0000
0011
0000
0000
0000
0000
0000
0010
0000
0000
0000
0000
0000
0100
0000
0000
0000
0000
0000
0001
0000
0000
0100
0000
0000
0001
0000
0000
0000
0000
0000
,
1000
0000
1000
0010
0100
0010
0001
0000
1000
0001
0100
0001
0010
0000
0100
1000
,
0100
0001
0010
0000
0020
0000
0000
1000
0000
1000
0030
0000
0002
0000
2000
0000
,
0003
0100
0000
3200
0000
0000
0301
0000
0010
0000
0000
0000
0000
0000
1000
0000
,
0000
0000
0001
1000
0001
0000
0110
0000
,
1100
0000
1010
0000
0100
0000
0010
0010
,
0000
0000
0001
1000
0010
0000
1100
0000
,
1010
1001
0020
2030
,
3200
2300
3002
0023
,
2030
0000
3020
0000
1030
0100
0010
0000
,
0100
0001
1000
0010
1000
0000
0010
0001
,
1000
0000
0010
0000
0001
0000
0000
0000
0200
0000
0000
0320
0000
0000
0230
0000
,
2300
0000
0000
3020
0000
0000
2030
0000
3200
0000
0000
2300
0000
0000
3002
0000
,
0023
0000
0000
2030
0000
0000
3002
0000
0000
0203
0000
0320
0000
0000
0230
0000
,
0000
2300
0000
3020
0000
0000
0230
0000
0000
2300
0000
0000
3200
0000
0000
0310
,
2000
0010
0001
0010
,
0010
0100
0002
3003
,
0200
1000
0001
1000
,
1000
0001
0020
0330
,
1000
0001
1000
0000
0010
0001
0010
0000
,
1000
0000
0000
0010
0000
0000
1010
0000
1000
0000
0000
0000
0100
0000
0000
0000
,
0001
0020
0000
0031
,
0010
0100
0010
1000
0100
0000
0001
0100
,
1000
0010
0000
0001
0001
0000
0100
0010
,
0100
0001
0000
0001
0100
1000
0100
0000
,
1000
0010
0100
0010
0010
0000
1000
0001
,
1000
0000
0100
0010
0100
0000
0001
1000
,
0010
0100
0001
1000
1000
0000
0100
0010
,
1000
0100
1000
0001
0010
1000
0010
0000
,
0110
0000
1000
0001
1000
0000
2002
0000
,
0000
0000
3003
0000
0100
1000
0010
0000
,
0001
0010
0100
0010
0100
1000
0001
0010
,
1000
0100
0010
0000
0010
1000
0100
0001
,
0010
0000
1000
0000
1010
0000
0001
0100
,
0001
0010
1000
0001
0020
0000
1030
0001
,
0010
0001
0100
0000
1100
0000
0010
1000
,
0010
0000
0000
0000
0100
0000
0001
0000
0100
0000
0000
0000
0100
0000
0000
0001
,
0000
0202
0000
0000
0303
0000
0100
0000
,
1000
0000
0001
0100
0001
0000
0020
0000
,
0230
0302
0203
0310
,
0001
0000
1000
0010
1000
0000
2000
0000
,
3020
0000
0032
0000
2003
0000
3010
0001
,
1000
0000
0010
0100
0010
0000
0001
0010
,
0001
0100
0010
1000
0100
0000
0001
0000
,
0100
0010
0100
0000
0010
1000
0100
0001
,
0010
0110
1010
0200
,
2300
0000
3010
0001
0020
0000
0032
0000
,
2003
0000
3100
0001
0200
0000
0310
1000
,
0010
0000
0001
0100
0001
0000
0100
0010
,
1000
0000
0010
0000
1000
0000
0000
0000
0220
0000
0000
0330
0000
0000
0000
0000
;

//---------------dance-single - ----------------
#NOTES:
     dance-single:
     :
     Easy:
     6:
     0.280903,0.436376,0.047572,0.237861,0.011893,248.000000,242.000000,6.000000,30.000000,0.000000,0.000000,0.280903,0.436376,0.047572,0.237861,0.011893,248.000000,242.000000,6.000000,30.000000,0.000000,0.000000:
// measure 0
0000
0000
0000
0000
,  // measure 1
0000
0000
0000
0000
,  // measure 2
0000
0000
0000
0000
,  // measure 3
0000
0000
0000
0000
,  // measure 4
0010
0000
1000
0000
,  // measure 5
0100
0001
0010
0000
,  // measure 6
1000
0000
0001
0000
,  // measure 7
0010
0100
1000
0000
,  // measure 8
0001
0000
0100
0000
,  // measure 9
0010
0000
0001
0000
,  // measure 10
1000
0100
0010
0100
,  // measure 11
2000
0000
3000
0000
,  // measure 12
0002
0003
0100
0010
,  // measure 13
1000
1000
0100
0000
,  // measure 14
2000
3000
0010
0100
,  // measure 15
0001
0001
0100
0000
,  // measure 16
0020
0030
1000
0100
,  // measure 17
1000
0010
0001
0000
,  // measure 18
2000
3000
0001
0100
,  // measure 19
0010
0010
0100
1000
,  // measure 20
0100
0000
0010
0001
,  // measure 21
0010
0000
0100
0001
,  // measure 22
1000
0100
0010
0001
,  // measure 23
1000
0000
0100
0000
,  // measure 24
1000
0010
1000
0000
,  // measure 25
0001
1000
0100
0010
,  // measure 26
0001
0000
1000
0000
,  // measure 27
0110
0000
0001
0010
,  // measure 28
0100
1000
0100
0000
1000
0100
0001
0100
,  // measure 29
0010
0000
0001
0000
1000
0001
0100
0000
,  // measure 30
0010
1000
0100
0000
0001
0010
0001
0100
,  // measure 31
1000
0010
0110
1000
,  // measure 32
1001
0001
0200
0000
,  // measure 33
0000
0300
1000
0001
,  // measure 34
2000
3000
0020
0000
,  // measure 35
0000
0030
0001
0100
,  // measure 36
0002
0003
2000
3000
,  // measure 37
2000
3000
0100
0010
,  // measure 38
0200
0300
0020
0030
,  // measure 39
0020
0030
1000
0001
,  // measure 40
0010
0000
0100
0000
0002
0000
0000
0003
,  // measure 41
0020
0000
0000
0030
2000
0000
0000
3000
,  // measure 42
0002
0000
0000
0000
0000
0000
0200
0000
0000
0303
0000
0020
0000
0000
0000
0000
,  // measure 43
0030
0000
0000
0200
0000
0000
0000
0000
0000
2000
0000
0000
0000
0000
0000
3300
,  // measure 44
0001
0001
0100
0000
,  // measure 45
0010
0010
0001
0000
,  // measure 46
1000
1000
0010
0000
,  // measure 47
0010
0010
1000
0000
,  // measure 48
0100
0001
0010
1000
,  // measure 49
2000
0000
0000
3000
0001
0000
0010
0000
,  // measure 50
1000
0000
0000
0100
,  // measure 51
0010
1000
0010
0100
,  // measure 52
0001
0010
0000
1000
,  // measure 53
0100
0001
0010
0001
,  // measure 54
0100
1000
0000
0010
,  // measure 55
0100
0001
0010
0001
,  // measure 56
0010
1000
0000
0100
,  // measure 57
1000
0100
0100
0001
,  // measure 58
0000
1001
0000
0000
,  // measure 59
0000
0100
0001
0010
,  // measure 60
1000
0001
1000
0010
,  // measure 61
0100
1000
0010
1000
,  // measure 62
1000
0001
0010
0001
,  // measure 63
0001
0100
0001
0010
,  // measure 64
0010
0100
0010
0001
,  // measure 65
0010
0100
1000
0010
,  // measure 66
0100
0001
0000
0002
,  // measure 67
0003
0200
0300
0010
,  // measure 68
0001
0010
1000
0200
,  // measure 69
0300
0020
0030
1000
,  // measure 70
0001
1000
0010
0100
,  // measure 71
0010
0002
0003
1000
,  // measure 72
0100
0020
0030
0001
,  // measure 73
0100
0010
1000
0100
,  // measure 74
0010
0002
0003
1000
,  // measure 75
1001
0000
0010
0001
0010
0000
0100
0000
,  // measure 76
0110
0000
0001
0010
0001
0000
0010
0000
,  // measure 77
0100
0000
1000
0000
0010
0000
0001
1000
,  // measure 78
0001
0000
0010
0001
0010
0010
0000
0000
;
